<?xml version="1.0" standalone="no"?>
<!DOCTYPE svg PUBLIC "-//W3C//DTD SVG 1.1//EN" "http://www.w3.org/Graphics/SVG/1.1/DTD/svg11.dtd" >
<svg xmlns="http://www.w3.org/2000/svg" xmlns:xlink="http://www.w3.org/1999/xlink" version="1.1">
<metadata>
Created by FontForge 20170731 at Wed Dec 14 12:20:10 2022
 By Aleksey,,,
No Rights Reserved.
</metadata>
<defs>
<font id="Aileron-Black" horiz-adv-x="1355" >
  <font-face 
    font-family="Aileron Black"
    font-weight="900"
    font-stretch="normal"
    units-per-em="2048"
    panose-1="0 0 10 0 0 0 0 0 0 0"
    ascent="1577"
    descent="-471"
    x-height="1085"
    cap-height="1413"
    bbox="-205 -457 2263 1909"
    underline-thickness="102"
    underline-position="-307"
    unicode-range="U+0020-FB02"
  />
<missing-glyph horiz-adv-x="1024" 
d="M0 0v1434h1024v-1434h-1024zM512 809l348 522h-696zM573 717l349 -522v1044zM164 102h696l-348 523zM102 1239v-1044l349 522z" />
    <glyph glyph-name="fi" unicode="fi" horiz-adv-x="1363" 
d="M1253 1085v-1085h-368v856h-361v-856h-368v856h-117v229h117v9q0 81 2 118q6 80 35.5 139t91 103.5t165 67t250.5 22.5q94 0 185 -16v-240q-138 8 -214 -1t-108 -35t-37 -76q-2 -29 -2 -82v-9h729z" />
    <glyph glyph-name="fl" unicode="fl" horiz-adv-x="1386" 
d="M1237 293q6 -46 32 -61.5t89 -12.5v-227q-117 -12 -236 -12q-115 0 -181.5 53.5t-72.5 159.5q-4 57 -4 194v893q-48 14 -123 14q-116 0 -172.5 -29t-62.5 -89q-2 -29 -2 -82v-9h223v-229h-223v-856h-369v856h-96v229h96v9q0 61 2 98q6 80 40 142t102.5 110.5t184.5 74
t277 25.5q300 0 492 -63v-1088q0 -73 4 -100z" />
    <glyph glyph-name=".notdef" horiz-adv-x="1024" 
d="M0 0v1434h1024v-1434h-1024zM512 809l348 522h-696zM573 717l349 -522v1044zM164 102h696l-348 523zM102 1239v-1044l349 522z" />
    <glyph glyph-name=".null" horiz-adv-x="0" 
 />
    <glyph glyph-name="nonmarkingreturn" horiz-adv-x="682" 
 />
    <glyph glyph-name="space" unicode=" " horiz-adv-x="360" 
 />
    <glyph glyph-name="exclam" unicode="!" horiz-adv-x="573" 
d="M428 430h-283l-24 983h332zM287 338q82 0 133 -51t51 -133t-51 -132.5t-133 -50.5t-133.5 50.5t-51.5 132.5t51.5 133t133.5 51z" />
    <glyph glyph-name="quotedbl" unicode="&#x22;" horiz-adv-x="839" 
d="M334 899h-242l-33 606h308zM723 899h-242l-32 606h307z" />
    <glyph glyph-name="numbersign" unicode="#" 
d="M997 805l-43 -197h195v-196h-236l-88 -412h-209l89 412h-179l-88 -412h-209l88 412h-172v196h213l43 197h-194v196h235l88 412h209l-88 -412h178l89 412h208l-88 -412h172v-196h-213zM786 805h-178l-41 -197h178z" />
    <glyph glyph-name="dollar" unicode="$" 
d="M1268 385q0 -177 -131 -283t-346 -127v-159h-205v159q-459 41 -500 437h348q22 -131 152 -176v327q-111 39 -188.5 79t-136.5 92.5t-87.5 119.5t-28.5 152q0 97 36 175.5t98.5 130t139.5 82.5t167 42v161h205v-161q218 -22 335 -138t138 -301h-349q-20 136 -124 177v-316
q255 -80 366 -186.5t111 -286.5zM479 1042q0 -55 26 -87.5t81 -53.5v279q-50 -15 -78.5 -50.5t-28.5 -87.5zM791 514v-285q124 24 124 138q0 49 -27.5 84t-96.5 63z" />
    <glyph glyph-name="percent" unicode="%" horiz-adv-x="1601" 
d="M391 1442q155 0 241.5 -90.5t86.5 -255.5q0 -164 -87 -255t-241 -91t-241 91t-87 255q0 165 86.5 255.5t241.5 90.5zM479 0h-252l916 1413h252zM391 1270q-106 0 -106 -174t106 -174q107 0 107 174t-107 174zM1210 664q154 0 241 -91t87 -256q0 -164 -87 -255t-241 -91
t-240.5 91t-86.5 255q0 165 86.5 256t240.5 91zM1210 492q-106 0 -106 -175q0 -174 106 -174q107 0 107 174q0 175 -107 175z" />
    <glyph glyph-name="ampersand" unicode="&#x26;" horiz-adv-x="1409" 
d="M1417 860v-287h-188v-546q-265 -56 -559 -56q-580 0 -580 394q0 150 92 241t252 117q-117 34 -187.5 120t-70.5 197q0 196 143 299t410 103q119 0 205 -21v-264q-98 14 -195 14q-91 0 -134.5 -36.5t-43.5 -114.5q0 -75 41.5 -115t108.5 -43q37 -2 114 -2h35v158h369v-158
h188zM475 410q0 -94 53.5 -131t151.5 -37q89 0 180 14v317h-67q-64 0 -105 -2q-103 -5 -158 -45.5t-55 -115.5z" />
    <glyph glyph-name="quotesingle" unicode="'" horiz-adv-x="450" 
d="M334 899h-242l-33 606h308z" />
    <glyph glyph-name="parenleft" unicode="(" horiz-adv-x="825" 
d="M563 1597h182q-142 -202 -211 -413.5t-69 -466.5t69 -467t211 -414h-182q-319 334 -319 881q0 283 80 498.5t239 381.5z" />
    <glyph glyph-name="parenright" unicode=")" horiz-adv-x="819" 
d="M74 1597h182q159 -166 239 -381.5t80 -498.5q0 -547 -319 -881h-182q142 202 211 414t69 467t-69 466.5t-211 413.5z" />
    <glyph glyph-name="asterisk" unicode="*" horiz-adv-x="1290" 
d="M735 678l252 113l72 -228l-273 -59l203 -230l-192 -139l-152 256l-151 -256l-193 139l203 230l-273 59l72 228l252 -113l-29 295h238z" />
    <glyph glyph-name="plus" unicode="+" 
d="M1139 559h-359v-403h-205v403h-358v180h358v404h205v-404h359v-180z" />
    <glyph glyph-name="comma" unicode="," horiz-adv-x="544" 
d="M453 332l-224 -586h-282l164 606h342v-20z" />
    <glyph glyph-name="hyphen" unicode="-" horiz-adv-x="643" 
d="M578 481h-512v197h512v-197z" />
    <glyph glyph-name="period" unicode="." horiz-adv-x="544" 
d="M287 381q91 0 148 -57t57 -148t-57 -148t-148 -57t-148 57t-57 148t57 148t148 57z" />
    <glyph glyph-name="slash" unicode="/" horiz-adv-x="708" 
d="M205 -61h-215l514 1536h215z" />
    <glyph glyph-name="zero" unicode="0" 
d="M678 1442q301 0 442.5 -186t141.5 -549q0 -362 -141.5 -549t-442.5 -187t-442.5 187t-141.5 549q0 363 141.5 549t442.5 186zM678 242q101 0 150 106.5t49 358.5q0 172 -23.5 275.5t-66 146t-109.5 42.5t-109.5 -42.5t-66 -146t-23.5 -275.5q0 -252 49 -358.5t150 -106.5
z" />
    <glyph glyph-name="one" unicode="1" 
d="M1040 1413v-1413h-368v1028l-430 -225v330l350 200q141 80 289 80h159z" />
    <glyph glyph-name="two" unicode="2" 
d="M694 287h520v-287h-1095v160l444 418q163 153 223 243t60 189q0 79 -42.5 122.5t-117.5 43.5q-79 0 -121 -52t-53 -163l-2 -21h-369l2 21q23 235 169.5 360t404.5 125q246 0 380 -111.5t134 -310.5q0 -126 -73 -243t-275 -312z" />
    <glyph glyph-name="three" unicode="3" 
d="M942 743q152 -29 226.5 -108t74.5 -215q0 -204 -156 -326.5t-421 -122.5t-419.5 121t-176.5 336l-2 21h368l4 -21q16 -80 70.5 -133t140.5 -53q94 0 150.5 47.5t56.5 120.5q0 89 -61 136t-174 52l-56 2v238l56 4q98 7 150 56t52 124q0 70 -40.5 109.5t-116.5 39.5
t-115.5 -51.5t-46.5 -128.5l-2 -20h-369l2 20q10 92 48.5 171.5t106.5 143t174 100t239 36.5q126 0 224.5 -30.5t158.5 -83t91 -119.5t31 -144q0 -256 -268 -322z" />
    <glyph glyph-name="four" unicode="4" 
d="M1282 315h-172v-315h-369v315h-663v203l631 895h401v-811h172v-287zM741 602v422q-58 -102 -75 -125l-209 -297h284z" />
    <glyph glyph-name="five" unicode="5" 
d="M776 963q215 0 341 -128.5t126 -357.5q0 -120 -47 -218t-126 -160t-179 -95t-211 -33q-260 0 -399 102t-162 324l-2 21h368l2 -21q8 -73 51 -114t117 -41q99 0 151 62.5t52 162.5t-51.5 162.5t-144.5 62.5q-70 0 -113 -31t-68 -96h-340l105 848h942v-287h-639l-45 -309
l53 94q93 52 219 52z" />
    <glyph glyph-name="six" unicode="6" 
d="M795 946q117 0 207 -35.5t144.5 -98t81.5 -142t27 -172.5q0 -126 -47 -228.5t-126.5 -166.5t-180.5 -98t-213 -34q-291 0 -434 172.5t-143 536.5q0 360 165.5 561t446.5 201q231 0 361 -108t155 -302l2 -20h-369l-4 20q-22 73 -61.5 106t-104.5 33q-104 0 -159 -103.5
t-62 -322.5l66 127q54 42 112 58t136 16zM684 242q89 0 137.5 61t48.5 150q0 104 -50 163.5t-140 59.5q-78 0 -131 -58t-53 -157q0 -100 50.5 -159.5t137.5 -59.5z" />
    <glyph glyph-name="seven" unicode="7" 
d="M1266 1413v-205l-656 -1208h-403l622 1126h-712v287h1149z" />
    <glyph glyph-name="eight" unicode="8" 
d="M983 750q116 -39 192 -126.5t76 -222.5q0 -90 -28.5 -162.5t-79.5 -122.5t-123.5 -83.5t-158.5 -48.5t-187 -15q-570 0 -570 432q0 132 77 220t194 129q-201 69 -201 292q0 179 138 289.5t386 110.5q247 0 384 -110t137 -290q0 -217 -236 -292zM692 1171
q-62 0 -102.5 -38.5t-40.5 -106.5q0 -75 38 -114.5t103 -39.5q67 0 110.5 40t43.5 114q0 69 -41.5 107t-110.5 38zM678 240q192 0 192 176q0 90 -51 141t-143 51q-81 0 -136 -50t-55 -136q0 -87 51 -134.5t142 -47.5z" />
    <glyph glyph-name="nine" unicode="9" 
d="M668 1442q291 0 434 -172.5t143 -536.5q0 -362 -163.5 -562t-448.5 -200q-237 0 -367 108t-149 302l-2 20h368l4 -20q15 -73 55 -106t111 -33q104 0 159 103.5t62 322.5l-65 -127q-54 -42 -112 -58t-136 -16q-117 0 -207 35.5t-144.5 98t-82 142t-27.5 172.5
q0 102 30.5 188.5t84.5 148t126 105t155 64.5t172 21zM676 737q78 0 131 58t53 157q0 100 -50.5 159.5t-137.5 59.5q-89 0 -138 -60.5t-49 -149.5q0 -104 50.5 -164t140.5 -60z" />
    <glyph glyph-name="colon" unicode=":" horiz-adv-x="544" 
d="M287 1122q91 0 148 -56.5t57 -147.5t-57 -148t-148 -57t-148 57t-57 148t57 147.5t148 56.5zM287 381q91 0 148 -57t57 -148t-57 -148t-148 -57t-148 57t-57 148t57 148t148 57z" />
    <glyph glyph-name="semicolon" unicode=";" horiz-adv-x="544" 
d="M287 1122q91 0 148 -56.5t57 -147.5t-57 -148t-148 -57t-148 57t-57 148t57 147.5t148 56.5zM453 311l-224 -565h-282l164 606h342v-41z" />
    <glyph glyph-name="less" unicode="&#x3c;" 
d="M1184 803l-727 -258l727 -260v-244l-965 362v279l965 362v-241z" />
    <glyph glyph-name="equal" unicode="=" 
d="M1180 764h-1004v180h1004v-180zM1180 354h-1004v181h1004v-181z" />
    <glyph glyph-name="greater" unicode="&#x3e;" 
d="M1108 682v-279l-965 -362v242l727 260l-727 258v243z" />
    <glyph glyph-name="question" unicode="?" horiz-adv-x="1206" 
d="M606 1442q237 0 369.5 -103.5t132.5 -291.5q0 -118 -50 -199t-167 -176q-81 -66 -113 -115t-41 -127h-299q3 119 33 189t100 145q85 90 118.5 144.5t33.5 107.5q0 155 -143 155q-141 0 -150 -200h-369q6 221 151.5 346t393.5 125zM592 338q82 0 133 -51t51 -133
t-51 -132.5t-133 -50.5t-133 50.5t-51 132.5t51 133t133 51z" />
    <glyph glyph-name="at" unicode="@" horiz-adv-x="1904" 
d="M1438 967l-66 -273q-39 -164 -39 -225q0 -133 84 -133q80 0 133.5 96t53.5 268q0 253 -155 397t-425 144q-108 0 -212 -30.5t-194.5 -91t-159 -145t-108 -199.5t-39.5 -247q0 -282 158.5 -444t458.5 -162q271 0 456 133l76 -172q-124 -80 -270.5 -118.5t-290.5 -38.5
q-115 0 -225.5 25.5t-217.5 86t-187.5 149t-129.5 224.5t-49 303q0 197 73 369.5t198.5 294t299.5 191t371 69.5q152 0 282.5 -39.5t223 -108t158 -159.5t97.5 -195t32 -215q0 -125 -25.5 -224t-69.5 -165.5t-106.5 -110t-133.5 -63t-153 -19.5q-243 0 -311 203l-63 -129
q-77 -61 -181 -61q-57 0 -104 17.5t-87 55.5t-62.5 107.5t-22.5 165.5q0 221 109 363.5t280 142.5q57 0 98 -16.5t60 -41.5l34 -108l41 129h310zM911 401q68 0 93 107l32 145q9 45 -4.5 73t-50.5 28q-58 0 -98.5 -65.5t-40.5 -166.5q0 -121 69 -121z" />
    <glyph glyph-name="A" unicode="A" horiz-adv-x="1447" 
d="M958 367h-440l-119 -367h-391l510 1413h451l510 -1413h-402zM739 1087l-131 -434h262z" />
    <glyph glyph-name="B" unicode="B" horiz-adv-x="1394" 
d="M1081 768q260 -74 260 -342q0 -76 -24 -142t-63.5 -112.5t-92.5 -82t-109.5 -55t-115.5 -26.5q-72 -8 -209 -8h-563v1413h579q109 0 181 -8q171 -21 267.5 -120.5t96.5 -240.5q0 -98 -52 -169t-155 -107zM532 1126v-270h166q50 0 90 6q115 17 115 129q0 113 -112 129
q-40 6 -93 6h-166zM823 289q53 3 93 43.5t40 105.5q0 67 -41 106t-102 44q-27 2 -92 2h-189v-303h199q65 0 92 2z" />
    <glyph glyph-name="C" unicode="C" horiz-adv-x="1503" 
d="M809 1442q147 0 265 -37.5t195.5 -105t122.5 -156.5t56 -195l2 -20h-369l-4 20q-45 223 -272 223q-138 0 -223.5 -116t-85.5 -336q0 -104 17 -186t45.5 -136t68.5 -89.5t84.5 -50.5t95.5 -15q107 0 175 62.5t91 180.5l4 21h369l-2 -21q-26 -249 -201 -381.5t-448 -132.5
q-144 0 -267 46.5t-216.5 135.5t-147 228.5t-53.5 314.5q0 180 55 323.5t150.5 235t221.5 139.5t271 48z" />
    <glyph glyph-name="D" unicode="D" horiz-adv-x="1533" 
d="M879 1405q127 -14 232.5 -60.5t189 -127t130 -206t46.5 -286.5t-47 -292.5t-129.5 -219t-189.5 -139.5t-232 -66q-72 -8 -181 -8h-534v1413h534q109 0 181 -8zM780 291q140 12 226 127t86 301q0 184 -84.5 287.5t-227.5 115.5q-47 4 -133 4h-115v-839h115q86 0 133 4z
" />
    <glyph glyph-name="E" unicode="E" horiz-adv-x="1308" 
d="M1247 287v-287h-1083v1413h1063v-287h-695v-274h654v-287h-654v-278h715z" />
    <glyph glyph-name="F" unicode="F" horiz-adv-x="1259" 
d="M532 1126v-274h633v-287h-633v-565h-368v1413h1063v-287h-695z" />
    <glyph glyph-name="G" unicode="G" horiz-adv-x="1554" 
d="M838 754h622v-754h-286l-35 217l-62 -156q-59 -50 -134 -70t-191 -20q-142 0 -259.5 47t-202.5 137t-132 228t-47 313q0 179 57.5 323t156.5 235t228 139.5t276 48.5t265 -37.5t195.5 -105t122.5 -156.5t56 -195l2 -20h-368l-4 20q-45 223 -273 223q-143 0 -236 -116.5
t-93 -335.5q0 -129 26 -224t72.5 -149t103.5 -79t125 -25q108 0 179.5 54.5t109.5 170.5h-274v287z" />
    <glyph glyph-name="H" unicode="H" horiz-adv-x="1576" 
d="M1466 1413v-1413h-368v549h-566v-549h-368v1413h368v-577h566v577h368z" />
    <glyph glyph-name="I" unicode="I" horiz-adv-x="643" 
d="M532 0h-368v1413h368v-1413z" />
    <glyph glyph-name="J" unicode="J" horiz-adv-x="1306" 
d="M1200 1413v-801q0 -111 -6 -215q-11 -196 -145 -311t-398 -115q-277 0 -410 133.5t-141 374.5l-2 62h369l4 -62q8 -130 57 -183.5t134 -53.5q149 0 165 178q4 47 4 135v858h369z" />
    <glyph glyph-name="K" unicode="K" horiz-adv-x="1521" 
d="M901 748l592 -748h-461l-399 545l-101 -111v-434h-368v1413h368v-625l539 625h440z" />
    <glyph glyph-name="L" unicode="L" horiz-adv-x="1286" 
d="M1247 311v-311h-1083v1413h368v-1102h715z" />
    <glyph glyph-name="M" unicode="M" horiz-adv-x="1890" 
d="M1780 1413v-1413h-369v594q0 305 4 448q-40 -227 -98 -448l-156 -594h-379l-157 594q-62 232 -97 448q4 -143 4 -448v-594h-368v1413h575l240 -1055l240 1055h561z" />
    <glyph glyph-name="N" unicode="N" horiz-adv-x="1626" 
d="M1516 0h-482l-514 934q12 -143 12 -350v-584h-368v1413h459l536 -975q-12 172 -12 371v604h369v-1413z" />
    <glyph glyph-name="O" unicode="O" horiz-adv-x="1613" 
d="M834 1442q331 0 526.5 -197.5t195.5 -537.5q0 -339 -195.5 -537.5t-526.5 -198.5t-527 198.5t-196 537.5q0 340 196 537.5t527 197.5zM834 242q161 0 253.5 121.5t92.5 343.5q0 223 -92 343.5t-254 120.5t-254.5 -120.5t-92.5 -343.5q0 -222 92.5 -343.5t254.5 -121.5z
" />
    <glyph glyph-name="P" unicode="P" horiz-adv-x="1318" 
d="M918 1403q79 -10 148 -42.5t124 -86.5t87 -136.5t32 -183.5t-32 -183.5t-87 -136.5t-124 -86t-148 -42q-95 -10 -222 -10h-164v-496h-368v1413h532q127 0 222 -10zM774 784q72 6 111 49t39 121t-39 121t-111 49q-27 2 -98 2h-144v-344h144q71 0 98 2z" />
    <glyph glyph-name="Q" unicode="Q" horiz-adv-x="1619" 
d="M1376 260q107 -33 219 -125l-176 -233q-98 60 -158.5 81t-132.5 21q-64 0 -149 -18q-67 -15 -145 -15q-331 0 -527 198.5t-196 537.5q0 340 196 538.5t527 198.5t526.5 -198.5t195.5 -538.5q0 -132 -45.5 -248t-134.5 -199zM487 707q0 -222 92.5 -343.5t254.5 -121.5
q161 0 253.5 121.5t92.5 343.5q0 223 -92 345t-254 122t-254.5 -122t-92.5 -345z" />
    <glyph glyph-name="R" unicode="R" horiz-adv-x="1396" 
d="M1266 344q25 -220 106 -344h-401q-50 153 -66 283q-14 117 -59 182.5t-115 69.5q-41 2 -117 2h-82v-537h-368v1413h561q126 0 221 -10q81 -10 147 -34.5t120.5 -68t85 -113t30.5 -159.5q0 -269 -285 -352q106 -38 156 -118t66 -214zM532 803h134q71 0 98 2
q180 15 180 160q0 82 -45 117t-125 42q-27 2 -98 2h-144v-323z" />
    <glyph glyph-name="S" unicode="S" horiz-adv-x="1282" 
d="M659 1442q109 0 198 -23.5t151.5 -64.5t107 -100.5t69 -127.5t34.5 -149h-369q-13 91 -62 142.5t-137 51.5q-65 0 -103 -32t-38 -95q0 -70 64.5 -115t234.5 -85q438 -104 438 -447q0 -103 -46.5 -185.5t-124.5 -134t-176.5 -79t-207.5 -27.5q-277 0 -441 115t-181 346
h368q18 -94 86 -142t158 -48q77 0 128.5 36.5t51.5 94.5q0 60 -51.5 104.5t-175.5 75.5q-103 26 -177.5 52t-140.5 64t-106 85t-63 112.5t-23 149.5q0 99 44 181t118 134.5t170 81.5t202 29z" />
    <glyph glyph-name="T" unicode="T" horiz-adv-x="1294" 
d="M1315 1126h-459v-1126h-369v1126h-458v287h1286v-287z" />
    <glyph glyph-name="U" unicode="U" horiz-adv-x="1470" 
d="M1393 1413v-792q0 -101 -7 -199q-6 -93 -43 -171.5t-108.5 -142.5t-191 -100.5t-277.5 -36.5q-127 0 -230 24.5t-172.5 65.5t-118 99.5t-72 123t-28.5 138.5q-6 84 -6 199v792h369v-860q0 -59 2 -84q15 -227 256 -227t256 227q2 25 2 84v860h369z" />
    <glyph glyph-name="V" unicode="V" horiz-adv-x="1519" 
d="M1026 0h-451l-509 1413h401l338 -1128l340 1128h391z" />
    <glyph glyph-name="W" unicode="W" horiz-adv-x="2080" 
d="M2107 1413l-360 -1413h-492l-178 1100l-190 -1100h-494l-340 1413h391l189 -1126l186 1106h529l178 -1110l205 1130h376z" />
    <glyph glyph-name="X" unicode="X" horiz-adv-x="1468" 
d="M1044 0l-296 477l-275 -477h-444l506 713l-472 700h431l266 -471l287 471h423l-493 -694l498 -719h-431z" />
    <glyph glyph-name="Y" unicode="Y" horiz-adv-x="1357" 
d="M895 541v-541h-369v541l-497 872h413l279 -559l268 559h404z" />
    <glyph glyph-name="Z" unicode="Z" horiz-adv-x="1327" 
d="M1266 287v-287h-1157v279l698 847h-641v287h1091v-285l-692 -841h701z" />
    <glyph glyph-name="bracketleft" unicode="[" horiz-adv-x="839" 
d="M782 1597v-196h-354v-1368h354v-197h-559v1761h559z" />
    <glyph glyph-name="backslash" unicode="\" horiz-adv-x="708" 
d="M719 -61h-215l-514 1536h215z" />
    <glyph glyph-name="bracketright" unicode="]" horiz-adv-x="839" 
d="M616 -164h-559v197h355v1368h-355v196h559v-1761z" />
    <glyph glyph-name="asciicircum" unicode="^" 
d="M911 440l-237 621l-238 -621h-223l346 822h236l346 -822h-230z" />
    <glyph glyph-name="underscore" unicode="_" horiz-adv-x="1024" 
d="M922 -180h-820v196h820v-196z" />
    <glyph glyph-name="grave" unicode="`" horiz-adv-x="614" 
d="M449 1169h-197l-318 256h328z" />
    <glyph glyph-name="a" unicode="a" horiz-adv-x="1202" 
d="M752 0l-25 160l-45 -115q-118 -74 -270 -74q-92 0 -170.5 36t-129.5 111.5t-51 176.5q0 175 157.5 276t434.5 101h70v16q0 45 -4 80q-5 44 -39.5 74t-91.5 30q-64 0 -100.5 -39t-41.5 -110l-348 -2q1 124 70.5 216.5t182.5 138.5t253 46q453 0 481 -352q7 -96 7 -186
v-308q0 -125 20 -276h-360zM563 221q62 0 111 45t49 125v72q-130 9 -207.5 -25.5t-77.5 -113.5q0 -49 34 -76t91 -27z" />
    <glyph glyph-name="b" unicode="b" horiz-adv-x="1370" 
d="M840 1122q220 0 350.5 -152.5t130.5 -398.5q0 -142 -41.5 -257t-112.5 -189.5t-164.5 -114t-199.5 -39.5q-69 0 -140.5 15t-111.5 39l-72 116v-141h-368v1505h368v-571l82 121q91 67 279 67zM702 221q111 0 176.5 85t65.5 247q0 149 -65.5 234t-165.5 85
q-109 0 -171.5 -74t-62.5 -237v-47q0 -152 64.5 -222.5t158.5 -70.5z" />
    <glyph glyph-name="c" unicode="c" horiz-adv-x="1202" 
d="M625 1122q234 0 377 -127.5t151 -318.5h-356q-11 102 -59 149t-122 47q-190 0 -190 -315q0 -336 195 -336q65 0 112 46.5t62 133.5h362q-30 -208 -179.5 -319t-377.5 -111q-158 0 -281.5 65t-196.5 194t-73 305q0 183 77.5 318t206.5 202t292 67z" />
    <glyph glyph-name="d" unicode="d" horiz-adv-x="1370" 
d="M1260 1505v-1505h-369v160l-82 -121q-92 -68 -279 -68q-220 0 -350.5 152.5t-130.5 398.5q0 142 41.5 257t112.5 189.5t164.5 114t199.5 39.5q70 0 141 -14.5t111 -38.5l72 -117v553h369zM657 221q109 0 171.5 74t62.5 237v48q0 152 -64.5 222t-158.5 70
q-111 0 -176.5 -84.5t-65.5 -246.5q0 -149 65.5 -234.5t165.5 -85.5z" />
    <glyph glyph-name="e" unicode="e" horiz-adv-x="1230" 
d="M1182 561q0 -51 -6 -106h-762q13 -128 65 -181t137 -53q77 0 124.5 36.5t58.5 100.5h362q-47 -185 -192 -286t-357 -101q-119 0 -220.5 36t-178.5 105t-120.5 179.5t-43.5 251.5q0 120 40.5 225t114 184t184.5 124.5t245 45.5q106 0 196.5 -31t154.5 -85t109.5 -125.5
t67 -152.5t21.5 -167zM614 872q-152 0 -188 -192h371q-30 192 -183 192z" />
    <glyph glyph-name="f" unicode="f" horiz-adv-x="774" 
d="M526 1176q-2 -29 -2 -82v-9h224v-229h-224v-856h-368v856h-117v229h117v9q0 81 2 118q13 162 127 247t358 85q64 0 123 -16v-240q-102 18 -167.5 -11.5t-72.5 -100.5z" />
    <glyph glyph-name="g" unicode="g" horiz-adv-x="1370" 
d="M1260 1094v-815q0 -123 -3 -211q-9 -261 -174.5 -390t-453.5 -129q-247 0 -390 98t-163 285l-2 21h356l2 -21q6 -53 62.5 -82.5t144.5 -29.5q108 0 174.5 50.5t73.5 156.5q4 66 4 143v31l-82 -121q-92 -68 -258 -68q-225 0 -363.5 143t-138.5 384q0 142 41 254.5
t112.5 183.5t164.5 108t200 37q70 0 141 -14.5t111 -38.5l72 -117v142h369zM657 262q109 0 171.5 74t62.5 237v7q0 152 -64.5 222t-158.5 70q-242 0 -242 -307q0 -148 64.5 -225.5t166.5 -77.5z" />
    <glyph glyph-name="h" unicode="h" horiz-adv-x="1318" 
d="M1210 825q11 -76 11 -207v-618h-369v557q0 95 -4 150q-13 165 -176 165q-89 0 -141 -88.5t-52 -267.5v-516h-368v1516h368v-592l99 135q104 63 245 63q168 0 266.5 -76.5t120.5 -220.5z" />
    <glyph glyph-name="i" unicode="i" horiz-adv-x="589" 
d="M295 1538q87 0 138.5 -48.5t51.5 -131.5t-51.5 -131.5t-138.5 -48.5t-139 48.5t-52 131.5t52 131.5t139 48.5zM479 0h-368v1094h368v-1094z" />
    <glyph glyph-name="j" unicode="j" horiz-adv-x="577" 
d="M291 1538q99 0 144.5 -42.5t45.5 -137.5t-45.5 -137.5t-144.5 -42.5t-145 42.5t-46 137.5t46 137.5t145 42.5zM475 1094v-1061q0 -57 -4 -131q-11 -162 -117 -247t-334 -85q-73 0 -122 8v248q103 -9 150 13.5t54 92.5q4 58 4 99v1063h369z" />
    <glyph glyph-name="k" unicode="k" horiz-adv-x="1294" 
d="M557 406l-78 -87v-319h-368v1505h368v-870l385 459h432l-462 -502l469 -592h-453z" />
    <glyph glyph-name="l" unicode="l" horiz-adv-x="624" 
d="M471 1505v-1112q0 -73 4 -100q5 -34 28 -45t93 -8v-250q-113 -10 -215 -10q-263 0 -275 213q-4 57 -4 194v1118h369z" />
    <glyph glyph-name="m" unicode="m" horiz-adv-x="1978" 
d="M1870 846q10 -69 10 -207v-639h-369v557q0 77 -8 150q-19 165 -157 165q-166 0 -166 -294v-578h-369v557q0 77 -8 150q-19 165 -158 165q-166 0 -166 -294v-578h-368v1094h368v-176l88 141q104 63 236 63q134 0 223.5 -58.5t126.5 -154.5l115 150q104 63 235 63
q157 0 252 -78t115 -198z" />
    <glyph glyph-name="n" unicode="n" horiz-adv-x="1318" 
d="M1210 825q11 -76 11 -207v-618h-369v557q0 95 -4 150q-13 165 -176 165q-89 0 -141 -88.5t-52 -267.5v-516h-368v1094h368v-170l99 135q104 63 245 63q168 0 266.5 -76.5t120.5 -220.5z" />
    <glyph glyph-name="o" unicode="o" horiz-adv-x="1273" 
d="M637 1122q269 0 428.5 -155.5t159.5 -419.5q0 -263 -160 -419.5t-428 -156.5t-428 156.5t-160 419.5q0 264 159.5 419.5t428.5 155.5zM637 221q100 0 155.5 83t55.5 243q0 161 -55.5 243t-155.5 82t-155.5 -82t-55.5 -243q0 -160 55.5 -243t155.5 -83z" />
    <glyph glyph-name="p" unicode="p" horiz-adv-x="1370" 
d="M840 1122q220 0 350.5 -152.5t130.5 -398.5q0 -142 -41.5 -257t-112.5 -189.5t-164.5 -114t-199.5 -39.5q-69 0 -140.5 15t-111.5 39l-72 116v-542h-368v1495h368v-160l82 121q91 67 279 67zM702 221q111 0 176.5 85t65.5 247q0 149 -65.5 234t-165.5 85
q-109 0 -171.5 -74t-62.5 -237v-47q0 -152 64.5 -222.5t158.5 -70.5z" />
    <glyph glyph-name="q" unicode="q" horiz-adv-x="1370" 
d="M1260 1094v-1495h-369v561l-82 -121q-92 -68 -279 -68q-220 0 -350.5 152.5t-130.5 398.5q0 142 41.5 257t112.5 189.5t164.5 114t199.5 39.5q70 0 141 -14.5t111 -38.5l72 -117v142h369zM657 221q109 0 171.5 74t62.5 237v48q0 152 -64.5 222t-158.5 70
q-111 0 -176.5 -84.5t-65.5 -246.5q0 -149 65.5 -234.5t165.5 -85.5z" />
    <glyph glyph-name="r" unicode="r" horiz-adv-x="860" 
d="M772 1122q44 0 84 -6v-301q-209 14 -293 -77t-84 -337v-401h-368v1094h368v-222l78 154q42 47 100.5 71.5t114.5 24.5z" />
    <glyph glyph-name="s" unicode="s" horiz-adv-x="1081" 
d="M561 1122q197 0 316.5 -96.5t142.5 -251.5h-363q-25 119 -118 119q-38 0 -63 -22.5t-25 -57.5q0 -48 54 -82.5t204 -71.5q80 -20 138 -46t105.5 -66t72 -98.5t24.5 -135.5q0 -112 -67 -191t-174 -115t-243 -36q-228 0 -367.5 94t-160.5 275h362q15 -63 60 -101t104 -38
q52 0 84.5 21.5t32.5 62.5q0 52 -58.5 85.5t-205.5 67.5q-164 38 -249 117.5t-85 214.5q0 162 130 257t349 95z" />
    <glyph glyph-name="t" unicode="t" horiz-adv-x="819" 
d="M553 856v-403q0 -78 2 -107q6 -84 47 -108.5t170 -18.5v-229q-114 -19 -217 -19q-197 0 -277.5 60t-89.5 192q-4 63 -4 176v457h-174v229h174v283h369v-283h242v-229h-242z" />
    <glyph glyph-name="u" unicode="u" horiz-adv-x="1310" 
d="M1200 1094v-1094h-369v184l-98 -149q-106 -64 -246 -64q-162 0 -264.5 79t-122.5 198q-10 69 -10 207v639h369v-557q0 -77 8 -150q9 -82 51 -124t127 -42q86 0 136 71.5t50 182.5v619h369z" />
    <glyph glyph-name="v" unicode="v" horiz-adv-x="1245" 
d="M1262 1094l-433 -1094h-397l-432 1094h410l225 -801l223 801h404z" />
    <glyph glyph-name="w" unicode="w" horiz-adv-x="1777" 
d="M1794 1094l-346 -1094h-412l-139 737l-139 -737h-412l-346 1094h406l143 -783l131 774h438l139 -776l140 785h397z" />
    <glyph glyph-name="x" unicode="x" horiz-adv-x="1208" 
d="M834 551l376 -551h-430l-174 330l-184 -330h-424l381 555l-367 539h430l172 -316l168 316h424z" />
    <glyph glyph-name="y" unicode="y" horiz-adv-x="1245" 
d="M1262 1094l-433 -1094q-52 -132 -101.5 -213.5t-111 -131t-132 -67.5t-171.5 -18q-89 0 -155 10v238q31 -4 100 -4q67 0 111 24.5t69 81.5l15 31l-453 1143h410l225 -801l223 801h404z" />
    <glyph glyph-name="z" unicode="z" horiz-adv-x="1077" 
d="M1018 229v-229h-948v215l553 641h-523v229h912v-225l-547 -631h553z" />
    <glyph glyph-name="braceleft" unicode="{" horiz-adv-x="880" 
d="M737 1401h-45q-78 0 -104.5 -15t-26.5 -67q0 -36 21 -182q22 -145 22 -211q0 -85 -42.5 -134.5t-131.5 -68.5q174 -42 174 -215q0 -66 -22 -211q-21 -146 -21 -182q0 -52 26.5 -67t104.5 -15h45v-197h-104q-151 0 -214 57t-63 181q0 77 25 243q18 123 18 185
q0 48 -36 79.5t-132 36.5v197q168 10 168 117q0 61 -18 184q-25 166 -25 244q0 124 63 180.5t214 56.5h104v-196z" />
    <glyph glyph-name="bar" unicode="|" horiz-adv-x="638" 
d="M438 -410h-237v2048h237v-2048z" />
    <glyph glyph-name="braceright" unicode="}" horiz-adv-x="880" 
d="M649 815v-197q-96 -5 -132 -36.5t-36 -79.5q0 -55 19 -185q24 -159 24 -243q0 -124 -62.5 -181t-213.5 -57h-105v197h45q78 0 104.5 15t26.5 67q0 43 -20 182q-23 151 -23 211q0 85 43 134.5t132 68.5q-175 43 -175 215q0 60 23 211q20 139 20 182q0 52 -26.5 67
t-104.5 15h-45v196h105q151 0 213.5 -56.5t62.5 -180.5q0 -85 -24 -244q-19 -130 -19 -184q0 -107 168 -117z" />
    <glyph glyph-name="asciitilde" unicode="~" 
d="M983 831h197q0 -374 -271 -374q-61 0 -114.5 19t-143.5 65q-80 42 -117 56.5t-67 14.5q-51 0 -71.5 -37.5t-20.5 -117.5h-197q0 374 271 374q63 0 118 -19.5t140 -63.5q78 -42 114.5 -57t69.5 -15q47 0 69.5 35t22.5 120z" />
    <glyph glyph-name="exclamdown" unicode="&#xa1;" horiz-adv-x="573" 
d="M287 748q-82 0 -133.5 51t-51.5 133q0 81 51.5 131.5t133.5 50.5t133 -50t51 -132t-51 -133t-133 -51zM145 655h283l25 -983h-332z" />
    <glyph glyph-name="cent" unicode="&#xa2;" 
d="M915 401h322q-26 -181 -142.5 -288.5t-299.5 -132.5v-164h-205v161q-205 28 -333 177t-128 376q0 240 127.5 390.5t333.5 183.5v166h205v-162q196 -24 313 -146.5t125 -293.5h-315q-13 126 -123 176v-600q104 53 120 157zM465 553q0 -225 125 -301v584
q-58 -34 -91.5 -106t-33.5 -177z" />
    <glyph glyph-name="sterling" unicode="&#xa3;" 
d="M1229 287v-287h-1102v254q205 36 205 217q0 57 -19 121h-168v180h93q-45 113 -45 227q0 207 140 325t372 118q125 0 222.5 -35.5t156.5 -97.5t91.5 -137t38.5 -162h-368q-5 72 -40.5 116.5t-100.5 44.5q-56 0 -91.5 -41.5t-35.5 -105.5q0 -60 12 -113t47 -139h397v-180
h-336q7 -47 7 -78q0 -70 -41 -130.5t-115 -96.5h680z" />
    <glyph glyph-name="currency" unicode="&#xa4;" 
d="M1047 616q0 -106 -56 -194l107 -107l-117 -116l-107 106q-85 -57 -196 -57q-112 0 -197 57l-106 -106l-117 116l107 107q-56 88 -56 194q0 107 56 195l-107 107l117 116l106 -106q85 57 197 57q111 0 196 -57l107 106l117 -116l-107 -107q56 -88 56 -195zM678 440
q70 0 113 48t43 128t-43 128.5t-113 48.5t-113 -48.5t-43 -128.5t43 -128t113 -48z" />
    <glyph glyph-name="yen" unicode="&#xa5;" 
d="M954 778h215v-196h-307v-117h307v-197h-307v-268h-368v268h-308v197h308v117h-308v196h215l-352 635h381l256 -614l250 614h371z" />
    <glyph glyph-name="brokenbar" unicode="&#xa6;" horiz-adv-x="606" 
d="M406 717h-205v696h205v-696zM406 -328h-205v697h205v-697z" />
    <glyph glyph-name="section" unicode="&#xa7;" horiz-adv-x="1290" 
d="M1243 479q0 -200 -172 -301q45 -65 45 -162q0 -172 -138 -272t-351 -100q-220 0 -361 94t-162 274h363q15 -63 60 -101t104 -38q52 0 84.5 28.5t32.5 80.5q0 69 -65.5 119.5t-250.5 107.5q-99 31 -165.5 62.5t-119.5 77.5t-77.5 109t-24.5 148q0 189 156 297
q-31 60 -31 131q0 180 132.5 294t348.5 114q198 0 316.5 -99t140.5 -266h-363q-12 70 -38.5 102.5t-75.5 32.5q-40 0 -66 -30t-26 -84q0 -80 49 -120.5t203 -80.5q236 -63 344 -160t108 -258zM621 438q140 -47 213 -82q40 32 40 90q0 69 -52.5 115t-180.5 82
q-105 28 -197 68q-30 -30 -30 -93t48.5 -103t158.5 -77z" />
    <glyph glyph-name="dieresis" unicode="&#xa8;" horiz-adv-x="614" 
d="M102 1464q70 0 112 -40.5t42 -108.5q0 -69 -42.5 -109.5t-111.5 -40.5t-111 40.5t-42 109.5t42 109t111 40zM512 1464q70 0 112 -40.5t42 -108.5q0 -69 -42.5 -109.5t-111.5 -40.5t-111.5 40.5t-42.5 109.5q0 68 42 108.5t112 40.5z" />
    <glyph glyph-name="copyright" unicode="&#xa9;" horiz-adv-x="1761" 
d="M881 1554q245 0 438.5 -105t301.5 -294t108 -428t-108 -428t-301.5 -294t-438.5 -105t-438.5 105t-301.5 294t-108 428t108 428t301.5 294t438.5 105zM881 1358q-275 0 -451 -177t-176 -454q0 -275 176 -451t451 -176t450.5 176t175.5 451q0 277 -175.5 454t-450.5 177z
M899 1192q194 0 306 -104t126 -281h-301q-13 176 -143 176q-77 0 -110.5 -64.5t-33.5 -189.5q0 -262 152 -262q56 0 92.5 42.5t40.5 133.5h301q-26 -180 -138 -282.5t-306 -102.5q-206 0 -331.5 125.5t-125.5 343.5q0 210 129 337.5t342 127.5z" />
    <glyph glyph-name="guillemotleft" unicode="&#xab;" horiz-adv-x="1427" 
d="M846 848l-281 -340l281 -340h-264l-281 340l281 340h264zM1337 848l-280 -340l280 -340h-264l-280 340l280 340h264z" />
    <glyph glyph-name="logicalnot" unicode="&#xac;" 
d="M1090 352h-205v266h-639v197h844v-463z" />
    <glyph glyph-name="registered" unicode="&#xae;" horiz-adv-x="995" 
d="M498 1565q190 0 310 -120.5t120 -309.5t-120 -309.5t-310 -120.5t-310 120.5t-120 309.5t120 309.5t310 120.5zM498 819q135 0 221 89t86 227t-86 226.5t-221 88.5t-221.5 -88.5t-86.5 -226.5t86.5 -227t221.5 -89zM608 1133q51 -16 58 -95q7 -67 26 -110h-137
q-7 28 -14 84q-9 59 -60 59h-26v-143h-123v438h157q38 0 56 -2q72 -7 107.5 -40t35.5 -85q0 -41 -22 -68t-58 -38zM514 1167q19 3 30 18t11 34q0 46 -41 53q-14 2 -39 2h-20v-109h18q27 0 41 2z" />
    <glyph glyph-name="macron" unicode="&#xaf;" horiz-adv-x="614" 
d="M614 1200h-614v197h614v-197z" />
    <glyph glyph-name="degree" unicode="&#xb0;" horiz-adv-x="655" 
d="M328 1442q126 0 206 -77.5t80 -199.5t-80 -199t-206 -77t-206.5 77.5t-80.5 198.5q0 122 80.5 199.5t206.5 77.5zM328 1262q-38 0 -66.5 -27.5t-28.5 -69.5q0 -41 28.5 -68.5t66.5 -27.5t66 27t28 69t-28 69.5t-66 27.5z" />
    <glyph glyph-name="plusminus" unicode="&#xb1;" 
d="M780 750h307v-197h-307v-295h-205v295h-307v197h307v290h205v-290zM1087 0h-819v180h819v-180z" />
    <glyph glyph-name="acute" unicode="&#xb4;" horiz-adv-x="614" 
d="M393 1169h-196l186 256h328z" />
    <glyph glyph-name="paragraph" unicode="&#xb6;" horiz-adv-x="1265" 
d="M1155 1413v-1638h-205v1442h-231v-1442h-205v880q-80 0 -115 2q-151 9 -236 116.5t-85 260.5t85 260.5t236 116.5q35 2 115 2h641z" />
    <glyph glyph-name="periodcentered" unicode="&#xb7;" horiz-adv-x="573" 
d="M287 829q91 0 148 -56.5t57 -147.5t-57 -148t-148 -57t-148 57t-57 148t57 147.5t148 56.5z" />
    <glyph glyph-name="cedilla" unicode="&#xb8;" horiz-adv-x="614" 
d="M397 18l-51 -104q195 -21 195 -158q0 -51 -27 -88t-76 -58t-109 -30.5t-134 -9.5q-70 0 -117 12v144q64 -15 119 -15q122 0 122 56q0 33 -44 46.5t-154 6.5l96 198h180z" />
    <glyph glyph-name="guillemotright" unicode="&#xbb;" horiz-adv-x="1359" 
d="M635 508l-281 -340h-264l281 340l-281 340h264zM1126 508l-280 -340h-264l280 340l-280 340h264z" />
    <glyph glyph-name="questiondown" unicode="&#xbf;" horiz-adv-x="1144" 
d="M614 756q-82 0 -133 51t-51 133t51 132t133 50t133.5 -50.5t51.5 -131.5q0 -82 -51.5 -133t-133.5 -51zM600 -348q-237 0 -369.5 103.5t-132.5 291.5q0 118 50 199t167 176q81 66 113 115t41 127h299q-3 -119 -33 -189t-100 -145q-85 -90 -118.5 -144.5t-33.5 -107.5
q0 -156 144 -156q140 0 149 201h369q-6 -221 -151.5 -346t-393.5 -125z" />
    <glyph glyph-name="Agrave" unicode="&#xc0;" horiz-adv-x="1447" 
d="M672 1505l-318 256h328l186 -256h-196zM958 367h-440l-119 -367h-391l510 1413h451l510 -1413h-402zM739 1087l-131 -434h262z" />
    <glyph glyph-name="Aacute" unicode="&#xc1;" horiz-adv-x="1447" 
d="M829 1505h-196l186 256h328zM958 367h-440l-119 -367h-391l510 1413h451l510 -1413h-402zM739 1087l-131 -434h262z" />
    <glyph glyph-name="Acircumflex" unicode="&#xc2;" horiz-adv-x="1447" 
d="M676 1505h-211l127 256h305l127 -256h-213l-70 156zM958 367h-440l-119 -367h-391l510 1413h451l510 -1413h-402zM739 1087l-131 -434h262z" />
    <glyph glyph-name="Atilde" unicode="&#xc3;" horiz-adv-x="1447" 
d="M635 1583q-17 0 -24 -14.5t-7 -48.5h-196q0 142 44.5 208t139.5 66q46 0 80 -7.5t88 -31.5q66 -31 92 -31q17 0 24 15t7 49h196q0 -142 -44.5 -208.5t-139.5 -66.5q-46 0 -79.5 7.5t-88.5 31.5q-76 31 -92 31zM958 367h-440l-119 -367h-391l510 1413h451l510 -1413h-402z
M739 1087l-131 -434h262z" />
    <glyph glyph-name="Adieresis" unicode="&#xc4;" horiz-adv-x="1447" 
d="M539 1479q-70 0 -112 40.5t-42 108.5q0 69 42.5 109.5t111.5 40.5t111 -40.5t42 -109.5t-42 -109t-111 -40zM948 1479q-69 0 -111 40t-42 109t42 109.5t111 40.5t111.5 -40.5t42.5 -109.5q0 -68 -42 -108.5t-112 -40.5zM958 367h-440l-119 -367h-391l510 1413h451
l510 -1413h-402zM739 1087l-131 -434h262z" />
    <glyph glyph-name="Aring" unicode="&#xc5;" horiz-adv-x="1447" 
d="M743 1479q-107 0 -175 60t-68 155t68 155t175 60t175.5 -60t68.5 -155t-68.5 -155t-175.5 -60zM743 1774q-32 0 -52.5 -22.5t-20.5 -57.5t20.5 -57.5t52.5 -22.5t53 22.5t21 57.5t-21 57.5t-53 22.5zM958 367h-440l-119 -367h-391l510 1413h451l510 -1413h-402zM739 1087
l-131 -434h262z" />
    <glyph glyph-name="AE" unicode="&#xc6;" horiz-adv-x="2039" 
d="M1978 287v-287h-1015l-50 428h-405l-203 -428h-391l735 1413h1309v-287h-748l-12 21l35 -295h684v-287h-651l32 -278h680zM881 715l-47 397l-189 -397h236z" />
    <glyph glyph-name="Ccedilla" unicode="&#xc7;" horiz-adv-x="1503" 
d="M1077 506h369l-2 -21q-24 -238 -185.5 -369.5t-416.5 -142.5l-29 -59q195 -21 195 -158q0 -51 -27 -88t-76 -58t-109 -30.5t-134 -9.5q-70 0 -117 12v144q64 -15 119 -15q122 0 122 56q0 33 -44 46.5t-154 6.5l78 162q-120 19 -220.5 73.5t-175.5 142.5t-117 215.5
t-42 282.5q0 180 55 323.5t150.5 235t221.5 139.5t271 48q147 0 265 -37.5t195.5 -105t122.5 -156.5t56 -195l2 -20h-369l-4 20q-45 223 -272 223q-138 0 -223.5 -116t-85.5 -336q0 -104 17 -186t45.5 -136t68.5 -89.5t84.5 -50.5t95.5 -15q107 0 175 62.5t91 180.5z" />
    <glyph glyph-name="Egrave" unicode="&#xc8;" horiz-adv-x="1308" 
d="M625 1505l-318 256h328l186 -256h-196zM1247 287v-287h-1083v1413h1063v-287h-695v-274h654v-287h-654v-278h715z" />
    <glyph glyph-name="Eacute" unicode="&#xc9;" horiz-adv-x="1308" 
d="M782 1505h-196l186 256h328zM1247 287v-287h-1083v1413h1063v-287h-695v-274h654v-287h-654v-278h715z" />
    <glyph glyph-name="Ecircumflex" unicode="&#xca;" horiz-adv-x="1308" 
d="M629 1505h-211l127 256h305l127 -256h-213l-70 156zM1247 287v-287h-1083v1413h1063v-287h-695v-274h654v-287h-654v-278h715z" />
    <glyph glyph-name="Edieresis" unicode="&#xcb;" horiz-adv-x="1308" 
d="M492 1479q-70 0 -112 40.5t-42 108.5q0 69 42.5 109.5t111.5 40.5t111 -40.5t42 -109.5t-42 -109t-111 -40zM901 1479q-69 0 -111 40t-42 109t42 109.5t111 40.5t111.5 -40.5t42.5 -109.5q0 -68 -42 -108.5t-112 -40.5zM1247 287v-287h-1083v1413h1063v-287h-695v-274
h654v-287h-654v-278h715z" />
    <glyph glyph-name="Igrave" unicode="&#xcc;" horiz-adv-x="643" 
d="M473 1505h-197l-317 256h328zM532 0h-368v1413h368v-1413z" />
    <glyph glyph-name="Iacute" unicode="&#xcd;" horiz-adv-x="643" 
d="M434 1505h-196l186 256h328zM532 0h-368v1413h368v-1413z" />
    <glyph glyph-name="Icircumflex" unicode="&#xce;" horiz-adv-x="643" 
d="M281 1505h-211l127 256h305l127 -256h-213l-70 156zM164 1413h368v-1413h-368v1413z" />
    <glyph glyph-name="Idieresis" unicode="&#xcf;" horiz-adv-x="643" 
d="M143 1778q69 0 111.5 -40.5t42.5 -109.5q0 -68 -42 -108.5t-112 -40.5q-69 0 -111 40t-42 109t42 109.5t111 40.5zM553 1778q69 0 111.5 -40.5t42.5 -109.5q0 -68 -42 -108.5t-112 -40.5t-112 40.5t-42 108.5q0 69 42.5 109.5t111.5 40.5zM532 0h-368v1413h368v-1413z
" />
    <glyph glyph-name="Eth" unicode="&#xd0;" horiz-adv-x="1554" 
d="M899 1405q127 -14 232.5 -60.5t189 -127t130 -206t46.5 -286.5t-47 -292.5t-129.5 -219t-189.5 -139.5t-232 -66q-72 -8 -180 -8h-535v600h-121v197h121v616h535q108 0 180 -8zM801 291q140 12 225.5 127t85.5 301q0 184 -84 287.5t-227 115.5q-47 4 -133 4h-115v-329
h209v-197h-209v-313h115q86 0 133 4z" />
    <glyph glyph-name="Ntilde" unicode="&#xd1;" horiz-adv-x="1626" 
d="M678 1794q46 0 80 -7.5t88 -31.5q66 -31 92 -31q17 0 24 15t7 49h196q0 -142 -44.5 -208.5t-139.5 -66.5q-46 0 -79.5 7.5t-88.5 31.5q-76 31 -92 31q-17 0 -24 -14.5t-7 -48.5h-196q0 142 44.5 208t139.5 66zM1516 0h-482l-514 934q12 -143 12 -350v-584h-368v1413h459
l536 -975q-12 172 -12 371v604h369v-1413z" />
    <glyph glyph-name="Ograve" unicode="&#xd2;" horiz-adv-x="1613" 
d="M762 1505l-318 256h328l186 -256h-196zM834 1442q331 0 526.5 -197.5t195.5 -537.5q0 -339 -195.5 -537.5t-526.5 -198.5t-527 198.5t-196 537.5q0 340 196 537.5t527 197.5zM834 242q161 0 253.5 121.5t92.5 343.5q0 223 -92 343.5t-254 120.5t-254.5 -120.5
t-92.5 -343.5q0 -222 92.5 -343.5t254.5 -121.5z" />
    <glyph glyph-name="Oacute" unicode="&#xd3;" horiz-adv-x="1613" 
d="M920 1505h-197l186 256h328zM834 1442q331 0 526.5 -197.5t195.5 -537.5q0 -339 -195.5 -537.5t-526.5 -198.5t-527 198.5t-196 537.5q0 340 196 537.5t527 197.5zM834 242q161 0 253.5 121.5t92.5 343.5q0 223 -92 343.5t-254 120.5t-254.5 -120.5t-92.5 -343.5
q0 -222 92.5 -343.5t254.5 -121.5z" />
    <glyph glyph-name="Ocircumflex" unicode="&#xd4;" horiz-adv-x="1613" 
d="M766 1505h-211l127 256h305l127 -256h-213l-70 156zM834 1442q331 0 526.5 -197.5t195.5 -537.5q0 -339 -195.5 -537.5t-526.5 -198.5t-527 198.5t-196 537.5q0 340 196 537.5t527 197.5zM834 242q161 0 253.5 121.5t92.5 343.5q0 223 -92 343.5t-254 120.5
t-254.5 -120.5t-92.5 -343.5q0 -222 92.5 -343.5t254.5 -121.5z" />
    <glyph glyph-name="Otilde" unicode="&#xd5;" horiz-adv-x="1613" 
d="M725 1583q-17 0 -24 -14.5t-7 -48.5h-196q0 142 44.5 208t139.5 66q46 0 80 -7.5t88 -31.5q66 -31 92 -31q17 0 24 15t7 49h196q0 -142 -44.5 -208.5t-139.5 -66.5q-46 0 -79.5 7.5t-88.5 31.5q-76 31 -92 31zM834 1442q331 0 526.5 -197.5t195.5 -537.5
q0 -339 -195.5 -537.5t-526.5 -198.5t-527 198.5t-196 537.5q0 340 196 537.5t527 197.5zM834 242q161 0 253.5 121.5t92.5 343.5q0 223 -92 343.5t-254 120.5t-254.5 -120.5t-92.5 -343.5q0 -222 92.5 -343.5t254.5 -121.5z" />
    <glyph glyph-name="Odieresis" unicode="&#xd6;" horiz-adv-x="1613" 
d="M629 1479q-70 0 -112 40.5t-42 108.5q0 69 42.5 109.5t111.5 40.5t111 -40.5t42 -109.5t-42 -109t-111 -40zM1038 1479q-69 0 -111 40t-42 109t42 109.5t111 40.5t111.5 -40.5t42.5 -109.5q0 -68 -42 -108.5t-112 -40.5zM834 1442q331 0 526.5 -197.5t195.5 -537.5
q0 -339 -195.5 -537.5t-526.5 -198.5t-527 198.5t-196 537.5q0 340 196 537.5t527 197.5zM834 242q161 0 253.5 121.5t92.5 343.5q0 223 -92 343.5t-254 120.5t-254.5 -120.5t-92.5 -343.5q0 -222 92.5 -343.5t254.5 -121.5z" />
    <glyph glyph-name="multiply" unicode="&#xd7;" 
d="M821 674l316 -316l-144 -143l-315 315l-316 -315l-143 143l316 316l-316 315l143 144l316 -316l315 316l144 -144z" />
    <glyph glyph-name="Oslash" unicode="&#xd8;" horiz-adv-x="1617" 
d="M1569 1296l-137 -137q127 -184 127 -452q0 -339 -196 -537.5t-527 -198.5q-273 0 -455 138l-135 -136l-144 144l138 137q-127 184 -127 453q0 340 196 537.5t527 197.5q270 0 456 -135l133 133zM489 707q0 -103 21 -183l555 555q-86 92 -229 92q-162 0 -254.5 -120.5
t-92.5 -343.5zM1182 707q0 103 -21 182l-555 -555q86 -92 230 -92q161 0 253.5 121.5t92.5 343.5z" />
    <glyph glyph-name="Ugrave" unicode="&#xd9;" horiz-adv-x="1470" 
d="M891 1505h-197l-317 256h328zM1393 1413v-792q0 -101 -7 -199q-6 -93 -43 -171.5t-108.5 -142.5t-191 -100.5t-277.5 -36.5q-127 0 -230 24.5t-172.5 65.5t-118 99.5t-72 123t-28.5 138.5q-6 84 -6 199v792h369v-860q0 -59 2 -84q15 -227 256 -227t256 227q2 25 2 84v860
h369z" />
    <glyph glyph-name="Uacute" unicode="&#xda;" horiz-adv-x="1470" 
d="M852 1505h-197l187 256h327zM1393 1413v-792q0 -101 -7 -199q-6 -93 -43 -171.5t-108.5 -142.5t-191 -100.5t-277.5 -36.5q-127 0 -230 24.5t-172.5 65.5t-118 99.5t-72 123t-28.5 138.5q-6 84 -6 199v792h369v-860q0 -59 2 -84q15 -227 256 -227t256 227q2 25 2 84v860
h369z" />
    <glyph glyph-name="Ucircumflex" unicode="&#xdb;" horiz-adv-x="1470" 
d="M698 1505h-211l127 256h306l127 -256h-213l-70 156zM1393 1413v-792q0 -101 -7 -199q-6 -93 -43 -171.5t-108.5 -142.5t-191 -100.5t-277.5 -36.5q-127 0 -230 24.5t-172.5 65.5t-118 99.5t-72 123t-28.5 138.5q-6 84 -6 199v792h369v-860q0 -59 2 -84q15 -227 256 -227
t256 227q2 25 2 84v860h369z" />
    <glyph glyph-name="Udieresis" unicode="&#xdc;" horiz-adv-x="1470" 
d="M561 1778q69 0 111.5 -40.5t42.5 -109.5q0 -68 -42 -108.5t-112 -40.5q-69 0 -111 40t-42 109t42 109.5t111 40.5zM971 1778q69 0 111 -40.5t42 -109.5t-42 -109t-111 -40q-70 0 -112 40.5t-42 108.5q0 69 42.5 109.5t111.5 40.5zM1393 1413v-792q0 -101 -7 -199
q-6 -93 -43 -171.5t-108.5 -142.5t-191 -100.5t-277.5 -36.5q-127 0 -230 24.5t-172.5 65.5t-118 99.5t-72 123t-28.5 138.5q-6 84 -6 199v792h369v-860q0 -59 2 -84q15 -227 256 -227t256 227q2 25 2 84v860h369z" />
    <glyph glyph-name="Yacute" unicode="&#xdd;" horiz-adv-x="1357" 
d="M797 1505h-197l186 256h328zM895 541v-541h-369v541l-497 872h413l279 -559l268 559h404z" />
    <glyph glyph-name="Thorn" unicode="&#xde;" horiz-adv-x="1337" 
d="M936 1223q165 -20 269 -127.5t104 -300.5t-104 -300.5t-269 -127.5q-104 -11 -221 -11h-183v-356h-368v1413h368v-180h183q126 0 221 -10zM774 645q150 13 150 150q0 136 -150 149q-27 2 -98 2h-144v-303h144q71 0 98 2z" />
    <glyph glyph-name="germandbls" unicode="&#xdf;" horiz-adv-x="1363" 
d="M686 1544q256 0 400.5 -108.5t144.5 -288.5q0 -95 -53 -172q-61 -35 -87 -72.5t-26 -87.5q0 -40 23 -80.5t75 -95.5q59 -63 87 -102.5t44.5 -94t16.5 -131.5q0 -104 -59.5 -178t-150 -107.5t-200.5 -33.5q-183 0 -283 20v277q106 -27 193 -27q55 0 85 25t30 71
q0 75 -90 168q-89 93 -122.5 150t-33.5 139q0 150 139 238q27 36 27 90q0 131 -172 131q-89 0 -137 -48t-54 -136q-4 -58 -4 -193v-897h-368v881q0 139 4 213q14 212 163.5 331t407.5 119z" />
    <glyph glyph-name="agrave" unicode="&#xe0;" horiz-adv-x="1202" 
d="M545 1169l-318 256h328l186 -256h-196zM752 0l-25 160l-45 -115q-118 -74 -270 -74q-92 0 -170.5 36t-129.5 111.5t-51 176.5q0 175 157.5 276t434.5 101h70v16q0 45 -4 80q-5 44 -39.5 74t-91.5 30q-64 0 -100.5 -39t-41.5 -110l-348 -2q1 124 70.5 216.5t182.5 138.5
t253 46q453 0 481 -352q7 -96 7 -186v-308q0 -125 20 -276h-360zM563 221q62 0 111 45t49 125v72q-130 9 -207.5 -25.5t-77.5 -113.5q0 -49 34 -76t91 -27z" />
    <glyph glyph-name="aacute" unicode="&#xe1;" horiz-adv-x="1202" 
d="M686 1169h-197l187 256h328zM752 0l-25 160l-45 -115q-118 -74 -270 -74q-92 0 -170.5 36t-129.5 111.5t-51 176.5q0 175 157.5 276t434.5 101h70v16q0 45 -4 80q-5 44 -39.5 74t-91.5 30q-64 0 -100.5 -39t-41.5 -110l-348 -2q1 124 70.5 216.5t182.5 138.5t253 46
q453 0 481 -352q7 -96 7 -186v-308q0 -125 20 -276h-360zM563 221q62 0 111 45t49 125v72q-130 9 -207.5 -25.5t-77.5 -113.5q0 -49 34 -76t91 -27z" />
    <glyph glyph-name="acircumflex" unicode="&#xe2;" horiz-adv-x="1202" 
d="M532 1169h-210l127 256h305l127 -256h-213l-70 156zM752 0l-25 160l-45 -115q-118 -74 -270 -74q-92 0 -170.5 36t-129.5 111.5t-51 176.5q0 175 157.5 276t434.5 101h70v16q0 45 -4 80q-5 44 -39.5 74t-91.5 30q-64 0 -100.5 -39t-41.5 -110l-348 -2q1 124 70.5 216.5
t182.5 138.5t253 46q453 0 481 -352q7 -96 7 -186v-308q0 -125 20 -276h-360zM563 221q62 0 111 45t49 125v72q-130 9 -207.5 -25.5t-77.5 -113.5q0 -49 34 -76t91 -27z" />
    <glyph glyph-name="atilde" unicode="&#xe3;" horiz-adv-x="1202" 
d="M492 1239q-17 0 -24 -14.5t-7 -48.5h-197q0 142 45 208t140 66q46 0 79.5 -7.5t87.5 -31.5q66 -31 93 -31q17 0 23.5 14.5t6.5 49.5h197q0 -142 -44.5 -208.5t-139.5 -66.5q-46 0 -79.5 7.5t-88.5 31.5q-76 31 -92 31zM752 0l-25 160l-45 -115q-118 -74 -270 -74
q-92 0 -170.5 36t-129.5 111.5t-51 176.5q0 175 157.5 276t434.5 101h70v16q0 45 -4 80q-5 44 -39.5 74t-91.5 30q-64 0 -100.5 -39t-41.5 -110l-348 -2q1 124 70.5 216.5t182.5 138.5t253 46q453 0 481 -352q7 -96 7 -186v-308q0 -125 20 -276h-360zM563 221q62 0 111 45
t49 125v72q-130 9 -207.5 -25.5t-77.5 -113.5q0 -49 34 -76t91 -27z" />
    <glyph glyph-name="adieresis" unicode="&#xe4;" horiz-adv-x="1202" 
d="M395 1165q-69 0 -111 40.5t-42 109.5t42 109t111 40q70 0 112 -40.5t42 -108.5q0 -69 -42.5 -109.5t-111.5 -40.5zM805 1165q-69 0 -111.5 40.5t-42.5 109.5q0 68 42 108.5t112 40.5q69 0 111 -40t42 -109t-42 -109.5t-111 -40.5zM752 0l-25 160l-45 -115
q-118 -74 -270 -74q-92 0 -170.5 36t-129.5 111.5t-51 176.5q0 175 157.5 276t434.5 101h70v16q0 45 -4 80q-5 44 -39.5 74t-91.5 30q-64 0 -100.5 -39t-41.5 -110l-348 -2q1 124 70.5 216.5t182.5 138.5t253 46q453 0 481 -352q7 -96 7 -186v-308q0 -125 20 -276h-360z
M563 221q62 0 111 45t49 125v72q-130 9 -207.5 -25.5t-77.5 -113.5q0 -49 34 -76t91 -27z" />
    <glyph glyph-name="aring" unicode="&#xe5;" horiz-adv-x="1202" 
d="M600 1161q-108 0 -176 60.5t-68 158.5t68 158.5t176 60.5t176 -60.5t68 -158.5t-68 -158.5t-176 -60.5zM600 1464q-33 0 -53.5 -22.5t-20.5 -61.5t20.5 -61.5t53.5 -22.5t53.5 22.5t20.5 61.5t-20.5 61.5t-53.5 22.5zM752 0l-25 160l-45 -115q-118 -74 -270 -74
q-92 0 -170.5 36t-129.5 111.5t-51 176.5q0 175 157.5 276t434.5 101h70v16q0 45 -4 80q-5 44 -39.5 74t-91.5 30q-64 0 -100.5 -39t-41.5 -110l-348 -2q1 124 70.5 216.5t182.5 138.5t253 46q453 0 481 -352q7 -96 7 -186v-308q0 -125 20 -276h-360zM563 221q62 0 111 45
t49 125v72q-130 9 -207.5 -25.5t-77.5 -113.5q0 -49 34 -76t91 -27z" />
    <glyph glyph-name="ae" unicode="&#xe6;" horiz-adv-x="1994" 
d="M1946 561q0 -41 -7 -106h-761q13 -128 65 -181t137 -53q77 0 124.5 36.5t58.5 100.5h362q-47 -185 -192 -286t-357 -101q-314 0 -456 234l-136 -160q-118 -74 -290 -74q-201 0 -317 86t-116 248q0 182 160.5 278.5t431.5 96.5h119v12q0 180 -164 180q-67 0 -112.5 -40.5
t-49.5 -110.5h-348q1 124 70.5 216.5t182.5 138.5t253 46q295 0 391 -190q66 94 176 142t246 48q125 0 227 -47.5t167 -127t100 -179t35 -207.5zM1190 680h371q-13 95 -60 143.5t-123 48.5q-149 0 -188 -192zM774 438v17q-175 9 -255.5 -20t-80.5 -101q0 -113 148 -113
q86 0 137 57t51 160z" />
    <glyph glyph-name="ccedilla" unicode="&#xe7;" horiz-adv-x="1202" 
d="M795 401h362q-27 -191 -157 -300.5t-332 -127.5l-29 -59q195 -21 195 -158q0 -51 -27 -88t-76.5 -58t-109.5 -30.5t-134 -9.5q-69 0 -116 12v144q64 -15 118 -15q123 0 123 56q0 33 -44 46.5t-154 6.5l78 160q-200 33 -321.5 178.5t-121.5 376.5q0 183 77.5 318
t206.5 202t292 67q234 0 377 -127.5t151 -318.5h-356q-11 102 -59 149t-122 47q-190 0 -190 -315q0 -336 195 -336q65 0 112 46.5t62 133.5z" />
    <glyph glyph-name="egrave" unicode="&#xe8;" horiz-adv-x="1230" 
d="M563 1169l-317 256h327l187 -256h-197zM1182 561q0 -51 -6 -106h-762q13 -128 65 -181t137 -53q77 0 124.5 36.5t58.5 100.5h362q-47 -185 -192 -286t-357 -101q-119 0 -220.5 36t-178.5 105t-120.5 179.5t-43.5 251.5q0 120 40.5 225t114 184t184.5 124.5t245 45.5
q106 0 196.5 -31t154.5 -85t109.5 -125.5t67 -152.5t21.5 -167zM614 872q-152 0 -188 -192h371q-30 192 -183 192z" />
    <glyph glyph-name="eacute" unicode="&#xe9;" horiz-adv-x="1230" 
d="M705 1169h-197l186 256h328zM1182 561q0 -51 -6 -106h-762q13 -128 65 -181t137 -53q77 0 124.5 36.5t58.5 100.5h362q-47 -185 -192 -286t-357 -101q-119 0 -220.5 36t-178.5 105t-120.5 179.5t-43.5 251.5q0 120 40.5 225t114 184t184.5 124.5t245 45.5
q106 0 196.5 -31t154.5 -85t109.5 -125.5t67 -152.5t21.5 -167zM614 872q-152 0 -188 -192h371q-30 192 -183 192z" />
    <glyph glyph-name="ecircumflex" unicode="&#xea;" horiz-adv-x="1230" 
d="M551 1169h-211l127 256h305l127 -256h-213l-70 156zM1182 561q0 -51 -6 -106h-762q13 -128 65 -181t137 -53q77 0 124.5 36.5t58.5 100.5h362q-47 -185 -192 -286t-357 -101q-119 0 -220.5 36t-178.5 105t-120.5 179.5t-43.5 251.5q0 120 40.5 225t114 184t184.5 124.5
t245 45.5q106 0 196.5 -31t154.5 -85t109.5 -125.5t67 -152.5t21.5 -167zM614 872q-152 0 -188 -192h371q-30 192 -183 192z" />
    <glyph glyph-name="edieresis" unicode="&#xeb;" horiz-adv-x="1230" 
d="M414 1165q-69 0 -111.5 40.5t-42.5 109.5q0 68 42 108.5t112 40.5q69 0 111 -40t42 -109t-42 -109.5t-111 -40.5zM823 1165q-69 0 -111 40.5t-42 109.5t42 109t111 40q70 0 112 -40.5t42 -108.5q0 -69 -42.5 -109.5t-111.5 -40.5zM1182 561q0 -51 -6 -106h-762
q13 -128 65 -181t137 -53q77 0 124.5 36.5t58.5 100.5h362q-47 -185 -192 -286t-357 -101q-119 0 -220.5 36t-178.5 105t-120.5 179.5t-43.5 251.5q0 120 40.5 225t114 184t184.5 124.5t245 45.5q106 0 196.5 -31t154.5 -85t109.5 -125.5t67 -152.5t21.5 -167zM614 872
q-152 0 -188 -192h371q-30 192 -183 192z" />
    <glyph glyph-name="igrave" unicode="&#xec;" horiz-adv-x="589" 
d="M436 1169h-196l-318 256h328zM479 0h-368v1094h368v-1094z" />
    <glyph glyph-name="iacute" unicode="&#xed;" horiz-adv-x="589" 
d="M381 1169h-197l187 256h327zM479 0h-368v1094h368v-1094z" />
    <glyph glyph-name="icircumflex" unicode="&#xee;" horiz-adv-x="589" 
d="M227 1169h-211l127 256h306l126 -256h-213l-69 156zM111 1094h368v-1094h-368v1094z" />
    <glyph glyph-name="idieresis" unicode="&#xef;" horiz-adv-x="589" 
d="M90 1464q70 0 112 -40.5t42 -108.5q0 -69 -42.5 -109.5t-111.5 -40.5t-111 40.5t-42 109.5t42 109t111 40zM500 1464q69 0 111 -40t42 -109t-42 -109.5t-111 -40.5t-111.5 40.5t-42.5 109.5q0 68 42 108.5t112 40.5zM479 0h-368v1094h368v-1094z" />
    <glyph glyph-name="eth" unicode="&#xf0;" 
d="M1214 1276l-86 -16q140 -216 140 -631q0 -142 -35.5 -256.5t-93.5 -188t-137 -123t-161.5 -70t-170.5 -20.5q-154 0 -273 42t-194.5 119t-114.5 182t-39 233q0 137 42 247.5t115.5 181.5t171.5 108.5t212 37.5q88 0 188 -59l88 -111q-16 132 -102 240l-254 -47l-25 149
l133 25q-46 32 -135 72l318 135q124 -56 213 -133l176 32zM891 532v60q0 117 -59.5 188.5t-159.5 71.5q-118 0 -178 -80.5t-60 -224.5q0 -155 61.5 -230t174.5 -75q112 0 166.5 78.5t54.5 211.5z" />
    <glyph glyph-name="ntilde" unicode="&#xf1;" horiz-adv-x="1318" 
d="M549 1239q-17 0 -24 -14.5t-7 -48.5h-196q0 142 44.5 208t139.5 66q46 0 80 -7.5t88 -31.5q66 -31 92 -31q17 0 24 15t7 49h196q0 -142 -44.5 -208.5t-139.5 -66.5q-46 0 -79.5 7.5t-88.5 31.5q-76 31 -92 31zM1210 825q11 -76 11 -207v-618h-369v557q0 95 -4 150
q-13 165 -176 165q-89 0 -141 -88.5t-52 -267.5v-516h-368v1094h368v-170l99 135q104 63 245 63q168 0 266.5 -76.5t120.5 -220.5z" />
    <glyph glyph-name="ograve" unicode="&#xf2;" horiz-adv-x="1273" 
d="M582 1169l-318 256h328l186 -256h-196zM637 1122q269 0 428.5 -155.5t159.5 -419.5q0 -263 -160 -419.5t-428 -156.5t-428 156.5t-160 419.5q0 264 159.5 419.5t428.5 155.5zM637 221q100 0 155.5 83t55.5 243q0 161 -55.5 243t-155.5 82t-155.5 -82t-55.5 -243
q0 -160 55.5 -243t155.5 -83z" />
    <glyph glyph-name="oacute" unicode="&#xf3;" horiz-adv-x="1273" 
d="M723 1169h-197l187 256h327zM637 1122q269 0 428.5 -155.5t159.5 -419.5q0 -263 -160 -419.5t-428 -156.5t-428 156.5t-160 419.5q0 264 159.5 419.5t428.5 155.5zM637 221q100 0 155.5 83t55.5 243q0 161 -55.5 243t-155.5 82t-155.5 -82t-55.5 -243q0 -160 55.5 -243
t155.5 -83z" />
    <glyph glyph-name="ocircumflex" unicode="&#xf4;" horiz-adv-x="1273" 
d="M569 1169h-211l127 256h306l127 -256h-213l-70 156zM637 1122q269 0 428.5 -155.5t159.5 -419.5q0 -263 -160 -419.5t-428 -156.5t-428 156.5t-160 419.5q0 264 159.5 419.5t428.5 155.5zM637 221q100 0 155.5 83t55.5 243q0 161 -55.5 243t-155.5 82t-155.5 -82
t-55.5 -243q0 -160 55.5 -243t155.5 -83z" />
    <glyph glyph-name="otilde" unicode="&#xf5;" horiz-adv-x="1273" 
d="M528 1239q-17 0 -23.5 -14.5t-6.5 -48.5h-197q0 142 44.5 208t139.5 66q46 0 80 -7.5t88 -31.5q66 -31 92 -31q17 0 24 15t7 49h197q0 -142 -45 -208.5t-140 -66.5q-46 0 -78.5 7.5t-88.5 31.5q-76 31 -93 31zM637 1122q269 0 428.5 -155.5t159.5 -419.5
q0 -263 -160 -419.5t-428 -156.5t-428 156.5t-160 419.5q0 264 159.5 419.5t428.5 155.5zM637 221q100 0 155.5 83t55.5 243q0 161 -55.5 243t-155.5 82t-155.5 -82t-55.5 -243q0 -160 55.5 -243t155.5 -83z" />
    <glyph glyph-name="odieresis" unicode="&#xf6;" horiz-adv-x="1273" 
d="M432 1165q-69 0 -111 40.5t-42 109.5t42 109t111 40q70 0 112 -40.5t42 -108.5q0 -69 -42.5 -109.5t-111.5 -40.5zM842 1165q-69 0 -111.5 40.5t-42.5 109.5q0 68 42 108.5t112 40.5q69 0 111 -40t42 -109t-42 -109.5t-111 -40.5zM637 1122q269 0 428.5 -155.5
t159.5 -419.5q0 -263 -160 -419.5t-428 -156.5t-428 156.5t-160 419.5q0 264 159.5 419.5t428.5 155.5zM637 221q100 0 155.5 83t55.5 243q0 161 -55.5 243t-155.5 82t-155.5 -82t-55.5 -243q0 -160 55.5 -243t155.5 -83z" />
    <glyph glyph-name="divide" unicode="&#xf7;" 
d="M678 1198q69 0 116.5 -47.5t47.5 -116.5t-47.5 -116.5t-116.5 -47.5t-116.5 47.5t-47.5 116.5t47.5 116.5t116.5 47.5zM1180 551h-1004v197h1004v-197zM678 428q69 0 116.5 -47.5t47.5 -116.5t-47.5 -116.5t-116.5 -47.5t-116.5 47.5t-47.5 116.5t47.5 116.5t116.5 47.5z
" />
    <glyph glyph-name="oslash" unicode="&#xf8;" horiz-adv-x="1306" 
d="M1266 1014l-127 -127q94 -139 94 -340q0 -263 -160 -419.5t-428 -156.5q-195 0 -336 86l-123 -123l-145 146l117 117q-101 144 -101 350q0 264 159.5 419.5t428.5 155.5q203 0 346 -92l129 129zM434 547q0 -30 4 -70l340 340q-52 55 -133 55q-100 0 -155.5 -82
t-55.5 -243zM856 547q0 37 -2 55l-334 -334q50 -47 125 -47q100 0 155.5 83t55.5 243z" />
    <glyph glyph-name="ugrave" unicode="&#xf9;" horiz-adv-x="1310" 
d="M590 1169l-318 256h328l186 -256h-196zM1200 1094v-1094h-369v184l-98 -149q-106 -64 -246 -64q-162 0 -264.5 79t-122.5 198q-10 69 -10 207v639h369v-557q0 -77 8 -150q9 -82 51 -124t127 -42q86 0 136 71.5t50 182.5v619h369z" />
    <glyph glyph-name="uacute" unicode="&#xfa;" horiz-adv-x="1310" 
d="M731 1169h-196l186 256h328zM1200 1094v-1094h-369v184l-98 -149q-106 -64 -246 -64q-162 0 -264.5 79t-122.5 198q-10 69 -10 207v639h369v-557q0 -77 8 -150q9 -82 51 -124t127 -42q86 0 136 71.5t50 182.5v619h369z" />
    <glyph glyph-name="ucircumflex" unicode="&#xfb;" horiz-adv-x="1310" 
d="M578 1169h-211l127 256h305l127 -256h-213l-70 156zM1200 1094v-1094h-369v184l-98 -149q-106 -64 -246 -64q-162 0 -264.5 79t-122.5 198q-10 69 -10 207v639h369v-557q0 -77 8 -150q9 -82 51 -124t127 -42q86 0 136 71.5t50 182.5v619h369z" />
    <glyph glyph-name="udieresis" unicode="&#xfc;" horiz-adv-x="1310" 
d="M440 1165q-69 0 -111 40.5t-42 109.5t42 109t111 40q70 0 112 -40.5t42 -108.5q0 -69 -42.5 -109.5t-111.5 -40.5zM850 1165q-69 0 -111.5 40.5t-42.5 109.5q0 68 42 108.5t112 40.5t112 -40.5t42 -108.5q0 -69 -42.5 -109.5t-111.5 -40.5zM1200 1094v-1094h-369v184
l-98 -149q-106 -64 -246 -64q-162 0 -264.5 79t-122.5 198q-10 69 -10 207v639h369v-557q0 -77 8 -150q9 -82 51 -124t127 -42q86 0 136 71.5t50 182.5v619h369z" />
    <glyph glyph-name="yacute" unicode="&#xfd;" horiz-adv-x="1245" 
d="M698 1169h-196l186 256h328zM1262 1094l-433 -1094q-52 -132 -101.5 -213.5t-111 -131t-132 -67.5t-171.5 -18q-89 0 -155 10v238q31 -4 100 -4q67 0 111 24.5t69 81.5l15 31l-453 1143h410l225 -801l223 801h404z" />
    <glyph glyph-name="thorn" unicode="&#xfe;" horiz-adv-x="1370" 
d="M840 1122q220 0 350.5 -152.5t130.5 -398.5q0 -142 -41.5 -257t-112.5 -189.5t-164.5 -114t-199.5 -39.5q-69 0 -140.5 15t-111.5 39l-72 116v-542h-368v1906h368v-571l82 121q91 67 279 67zM702 221q111 0 176.5 85t65.5 247q0 149 -65.5 234t-165.5 85
q-109 0 -171.5 -74t-62.5 -237v-47q0 -152 64.5 -222.5t158.5 -70.5z" />
    <glyph glyph-name="ydieresis" unicode="&#xff;" horiz-adv-x="1245" 
d="M408 1165q-69 0 -111.5 40.5t-42.5 109.5q0 68 42 108.5t112 40.5q69 0 111 -40t42 -109t-42 -109.5t-111 -40.5zM817 1165q-69 0 -111 40.5t-42 109.5t42 109t111 40q70 0 112 -40.5t42 -108.5q0 -69 -42.5 -109.5t-111.5 -40.5zM1262 1094l-433 -1094
q-52 -132 -101.5 -213.5t-111 -131t-132 -67.5t-171.5 -18q-89 0 -155 10v238q31 -4 100 -4q67 0 111 24.5t69 81.5l15 31l-453 1143h410l225 -801l223 801h404z" />
    <glyph glyph-name="Amacron" unicode="&#x100;" horiz-adv-x="1447" 
d="M1051 1556h-615v197h615v-197zM958 367h-440l-119 -367h-391l510 1413h451l510 -1413h-402zM739 1087l-131 -434h262z" />
    <glyph glyph-name="amacron" unicode="&#x101;" horiz-adv-x="1202" 
d="M907 1200h-614v197h614v-197zM752 0l-25 160l-45 -115q-118 -74 -270 -74q-92 0 -170.5 36t-129.5 111.5t-51 176.5q0 175 157.5 276t434.5 101h70v16q0 45 -4 80q-5 44 -39.5 74t-91.5 30q-64 0 -100.5 -39t-41.5 -110l-348 -2q1 124 70.5 216.5t182.5 138.5t253 46
q453 0 481 -352q7 -96 7 -186v-308q0 -125 20 -276h-360zM563 221q62 0 111 45t49 125v72q-130 9 -207.5 -25.5t-77.5 -113.5q0 -49 34 -76t91 -27z" />
    <glyph glyph-name="Abreve" unicode="&#x102;" horiz-adv-x="1447" 
d="M743 1491q-122 0 -199 64t-77 206h184q6 -96 92 -96q87 0 93 96h184q0 -73 -22.5 -127t-62 -84.5t-87.5 -44.5t-105 -14zM958 367h-440l-119 -367h-391l510 1413h451l510 -1413h-402zM739 1087l-131 -434h262z" />
    <glyph glyph-name="abreve" unicode="&#x103;" horiz-adv-x="1202" 
d="M600 1163q-58 0 -105.5 13t-87 41.5t-61.5 81.5t-22 126h184q6 -88 92 -88t92 88h185q0 -73 -22.5 -126t-62.5 -81.5t-87 -41.5t-105 -13zM752 0l-25 160l-45 -115q-118 -74 -270 -74q-92 0 -170.5 36t-129.5 111.5t-51 176.5q0 175 157.5 276t434.5 101h70v16
q0 45 -4 80q-5 44 -39.5 74t-91.5 30q-64 0 -100.5 -39t-41.5 -110l-348 -2q1 124 70.5 216.5t182.5 138.5t253 46q453 0 481 -352q7 -96 7 -186v-308q0 -125 20 -276h-360zM563 221q62 0 111 45t49 125v72q-130 9 -207.5 -25.5t-77.5 -113.5q0 -49 34 -76t91 -27z" />
    <glyph glyph-name="Aogonek" unicode="&#x104;" horiz-adv-x="1447" 
d="M1237 -143q0 -54 24.5 -79.5t59.5 -25.5q44 0 90 43v-149q-103 -103 -276 -103q-234 0 -234 176q0 87 51 168t123 121l-117 359h-440l-119 -367h-391l510 1413h451l510 -1413h-150q-38 0 -65 -42t-27 -101zM739 1087l-131 -434h262z" />
    <glyph glyph-name="aogonek" unicode="&#x105;" horiz-adv-x="1202" 
d="M911 -143q0 -54 24.5 -79.5t59.5 -25.5q44 0 90 43v-149q-103 -103 -276 -103q-234 0 -234 176q0 88 51.5 168.5t123.5 122.5l-23 150l-45 -115q-118 -74 -270 -74q-92 0 -170.5 36t-129.5 111.5t-51 176.5q0 175 157.5 276t434.5 101h70v16q0 45 -4 80q-5 44 -39.5 74
t-91.5 30q-64 0 -100.5 -39t-41.5 -110l-348 -2q1 124 70.5 216.5t182.5 138.5t253 46q453 0 481 -352q7 -96 7 -186v-308q0 -125 20 -276h-108q-38 0 -65.5 -42t-27.5 -101zM563 221q62 0 111 45t49 125v72q-130 9 -207.5 -25.5t-77.5 -113.5q0 -49 34 -76t91 -27z" />
    <glyph glyph-name="Cacute" unicode="&#x106;" horiz-adv-x="1503" 
d="M872 1505h-196l186 256h328zM809 1442q147 0 265 -37.5t195.5 -105t122.5 -156.5t56 -195l2 -20h-369l-4 20q-45 223 -272 223q-138 0 -223.5 -116t-85.5 -336q0 -104 17 -186t45.5 -136t68.5 -89.5t84.5 -50.5t95.5 -15q107 0 175 62.5t91 180.5l4 21h369l-2 -21
q-26 -249 -201 -381.5t-448 -132.5q-144 0 -267 46.5t-216.5 135.5t-147 228.5t-53.5 314.5q0 180 55 323.5t150.5 235t221.5 139.5t271 48z" />
    <glyph glyph-name="cacute" unicode="&#x107;" horiz-adv-x="1202" 
d="M686 1169h-197l187 256h328zM625 1122q234 0 377 -127.5t151 -318.5h-356q-11 102 -59 149t-122 47q-190 0 -190 -315q0 -336 195 -336q65 0 112 46.5t62 133.5h362q-30 -208 -179.5 -319t-377.5 -111q-158 0 -281.5 65t-196.5 194t-73 305q0 183 77.5 318t206.5 202
t292 67z" />
    <glyph glyph-name="Cdotaccent" unicode="&#x10a;" horiz-adv-x="1503" 
d="M786 1845q87 0 139 -48.5t52 -131.5t-52 -131.5t-139 -48.5t-138.5 48.5t-51.5 131.5t51.5 131.5t138.5 48.5zM809 1442q147 0 265 -37.5t195.5 -105t122.5 -156.5t56 -195l2 -20h-369l-4 20q-45 223 -272 223q-138 0 -223.5 -116t-85.5 -336q0 -104 17 -186t45.5 -136
t68.5 -89.5t84.5 -50.5t95.5 -15q107 0 175 62.5t91 180.5l4 21h369l-2 -21q-26 -249 -201 -381.5t-448 -132.5q-144 0 -267 46.5t-216.5 135.5t-147 228.5t-53.5 314.5q0 180 55 323.5t150.5 235t221.5 139.5t271 48z" />
    <glyph glyph-name="cdotaccent" unicode="&#x10b;" horiz-adv-x="1202" 
d="M600 1538q87 0 139 -48.5t52 -131.5t-52 -131.5t-139 -48.5t-138.5 48.5t-51.5 131.5t51.5 131.5t138.5 48.5zM625 1122q234 0 377 -127.5t151 -318.5h-356q-11 102 -59 149t-122 47q-190 0 -190 -315q0 -336 195 -336q65 0 112 46.5t62 133.5h362q-30 -208 -179.5 -319
t-377.5 -111q-158 0 -281.5 65t-196.5 194t-73 305q0 183 77.5 318t206.5 202t292 67z" />
    <glyph glyph-name="Ccaron" unicode="&#x10c;" horiz-adv-x="1503" 
d="M635 1505l-127 256h213l70 -155l65 155h211l-127 -256h-305zM1077 506h369l-2 -21q-26 -249 -201 -381.5t-448 -132.5q-144 0 -267 46.5t-216.5 135.5t-147 228.5t-53.5 314.5q0 180 55 323.5t150.5 235t221.5 139.5t271 48q147 0 265 -37.5t195.5 -105t122.5 -156.5
t56 -195l2 -20h-369l-4 20q-45 223 -272 223q-138 0 -223.5 -116t-85.5 -336q0 -104 17 -186t45.5 -136t68.5 -89.5t84.5 -50.5t95.5 -15q107 0 175 62.5t91 180.5z" />
    <glyph glyph-name="ccaron" unicode="&#x10d;" horiz-adv-x="1202" 
d="M449 1169l-127 256h213l69 -155l66 155h211l-127 -256h-305zM795 401h362q-30 -208 -179.5 -319t-377.5 -111q-158 0 -281.5 65t-196.5 194t-73 305q0 183 77.5 318t206.5 202t292 67q234 0 377 -127.5t151 -318.5h-356q-11 102 -59 149t-122 47q-190 0 -190 -315
q0 -336 195 -336q65 0 112 46.5t62 133.5z" />
    <glyph glyph-name="Dcaron" unicode="&#x10e;" horiz-adv-x="1533" 
d="M637 1505l-127 256h213l70 -155l65 155h211l-127 -256h-305zM879 1405q127 -14 232.5 -60.5t189 -127t130 -206t46.5 -286.5t-47 -292.5t-129.5 -219t-189.5 -139.5t-232 -66q-72 -8 -181 -8h-534v1413h534q109 0 181 -8zM780 291q140 12 226 127t86 301
q0 184 -84.5 287.5t-227.5 115.5q-47 4 -133 4h-115v-839h115q86 0 133 4z" />
    <glyph glyph-name="dcaron" unicode="&#x10f;" horiz-adv-x="1353" 
d="M891 1505h369v-1505h-369v160l-82 -121q-92 -68 -279 -68q-220 0 -350.5 152.5t-130.5 398.5q0 142 41.5 257t112.5 189.5t164.5 114t199.5 39.5q70 0 141 -14.5t111 -38.5l72 -117v553zM1712 1505v-20l-207 -346h-198l172 366h233zM657 221q109 0 171.5 74t62.5 237v48
q0 152 -64.5 222t-158.5 70q-111 0 -176.5 -84.5t-65.5 -246.5q0 -149 65.5 -234.5t165.5 -85.5z" />
    <glyph glyph-name="Dcroat" unicode="&#x110;" horiz-adv-x="1554" 
d="M899 1405q127 -14 232.5 -60.5t189 -127t130 -206t46.5 -286.5t-47 -292.5t-129.5 -219t-189.5 -139.5t-232 -66q-72 -8 -180 -8h-535v600h-121v197h121v616h535q108 0 180 -8zM801 291q140 12 225.5 127t85.5 301q0 184 -84 287.5t-227 115.5q-47 4 -133 4h-115v-329
h209v-197h-209v-313h115q86 0 133 4z" />
    <glyph glyph-name="dcroat" unicode="&#x111;" horiz-adv-x="1370" 
d="M1341 1178h-81v-1178h-369v160l-82 -121q-92 -68 -279 -68q-220 0 -350.5 152.5t-130.5 398.5q0 142 41.5 257t112.5 189.5t164.5 114t199.5 39.5q70 0 141 -14.5t111 -38.5l72 -117v226h-246v196h246v131h369v-131h81v-196zM657 221q109 0 171.5 74t62.5 237v48
q0 152 -64.5 222t-158.5 70q-111 0 -176.5 -84.5t-65.5 -246.5q0 -149 65.5 -234.5t165.5 -85.5z" />
    <glyph glyph-name="Emacron" unicode="&#x112;" horiz-adv-x="1308" 
d="M1004 1556h-615v197h615v-197zM1247 287v-287h-1083v1413h1063v-287h-695v-274h654v-287h-654v-278h715z" />
    <glyph glyph-name="emacron" unicode="&#x113;" horiz-adv-x="1230" 
d="M926 1200h-615v197h615v-197zM1182 561q0 -51 -6 -106h-762q13 -128 65 -181t137 -53q77 0 124.5 36.5t58.5 100.5h362q-47 -185 -192 -286t-357 -101q-119 0 -220.5 36t-178.5 105t-120.5 179.5t-43.5 251.5q0 120 40.5 225t114 184t184.5 124.5t245 45.5
q106 0 196.5 -31t154.5 -85t109.5 -125.5t67 -152.5t21.5 -167zM614 872q-152 0 -188 -192h371q-30 192 -183 192z" />
    <glyph glyph-name="Edotaccent" unicode="&#x116;" horiz-adv-x="1308" 
d="M696 1485q-87 0 -138.5 48.5t-51.5 131.5t51.5 131.5t138.5 48.5t139 -48.5t52 -131.5t-52 -131.5t-139 -48.5zM1247 287v-287h-1083v1413h1063v-287h-695v-274h654v-287h-654v-278h715z" />
    <glyph glyph-name="edotaccent" unicode="&#x117;" horiz-adv-x="1230" 
d="M618 1178q-87 0 -138.5 48.5t-51.5 131.5t51.5 131.5t138.5 48.5t139 -48.5t52 -131.5t-52 -131.5t-139 -48.5zM1182 561q0 -51 -6 -106h-762q13 -128 65 -181t137 -53q77 0 124.5 36.5t58.5 100.5h362q-47 -185 -192 -286t-357 -101q-119 0 -220.5 36t-178.5 105
t-120.5 179.5t-43.5 251.5q0 120 40.5 225t114 184t184.5 124.5t245 45.5q106 0 196.5 -31t154.5 -85t109.5 -125.5t67 -152.5t21.5 -167zM614 872q-152 0 -188 -192h371q-30 192 -183 192z" />
    <glyph glyph-name="Eogonek" unicode="&#x118;" horiz-adv-x="1308" 
d="M1247 0h-102q-38 0 -65 -42t-27 -101q0 -54 24.5 -79.5t59.5 -25.5q44 0 90 43v-149q-103 -103 -277 -103q-233 0 -233 176q0 83 46 160.5t114 120.5h-713v1413h1063v-287h-695v-274h654v-287h-654v-278h715v-287z" />
    <glyph glyph-name="eogonek" unicode="&#x119;" horiz-adv-x="1230" 
d="M1182 561q0 -51 -6 -106h-762q13 -128 65 -181t137 -53q77 0 124.5 36.5t58.5 100.5h362q-35 -135 -123.5 -226.5t-220.5 -131.5q-2 -1 -12.5 -4t-16.5 -4q-27 -15 -44 -52.5t-17 -82.5q0 -54 24.5 -79.5t59.5 -25.5q44 0 90 43v-149q-103 -103 -276 -103
q-234 0 -234 176q0 72 36.5 142t92.5 116q-102 13 -187 54.5t-149 110.5t-99.5 171.5t-35.5 229.5q0 120 40.5 225t114 184t184.5 124.5t245 45.5q106 0 196.5 -31t154.5 -85t109.5 -125.5t67 -152.5t21.5 -167zM614 872q-152 0 -188 -192h371q-30 192 -183 192z" />
    <glyph glyph-name="Ecaron" unicode="&#x11a;" horiz-adv-x="1308" 
d="M545 1505l-127 256h213l69 -155l66 155h211l-127 -256h-305zM1247 287v-287h-1083v1413h1063v-287h-695v-274h654v-287h-654v-278h715z" />
    <glyph glyph-name="ecaron" unicode="&#x11b;" horiz-adv-x="1230" 
d="M467 1169l-127 256h213l70 -155l65 155h211l-127 -256h-305zM1182 561q0 -51 -6 -106h-762q13 -128 65 -181t137 -53q77 0 124.5 36.5t58.5 100.5h362q-47 -185 -192 -286t-357 -101q-119 0 -220.5 36t-178.5 105t-120.5 179.5t-43.5 251.5q0 120 40.5 225t114 184
t184.5 124.5t245 45.5q106 0 196.5 -31t154.5 -85t109.5 -125.5t67 -152.5t21.5 -167zM614 872q-152 0 -188 -192h371q-30 192 -183 192z" />
    <glyph glyph-name="Gbreve" unicode="&#x11e;" horiz-adv-x="1554" 
d="M795 1491q-58 0 -106 14t-87.5 44.5t-61.5 84.5t-22 127h184q6 -96 93 -96q86 0 92 96h184q0 -73 -22.5 -127t-62 -84.5t-87 -44.5t-104.5 -14zM838 754h622v-754h-286l-35 217l-62 -156q-59 -50 -134 -70t-191 -20q-142 0 -259.5 47t-202.5 137t-132 228t-47 313
q0 179 57.5 323t156.5 235t228 139.5t276 48.5t265 -37.5t195.5 -105t122.5 -156.5t56 -195l2 -20h-368l-4 20q-45 223 -273 223q-143 0 -236 -116.5t-93 -335.5q0 -129 26 -224t72.5 -149t103.5 -79t125 -25q108 0 179.5 54.5t109.5 170.5h-274v287z" />
    <glyph glyph-name="gbreve" unicode="&#x11f;" horiz-adv-x="1370" 
d="M676 1163q-59 0 -106 13t-87 41.5t-62 81.5t-22 126h185q6 -88 92 -88t92 88h184q0 -73 -22 -126t-62 -81.5t-87 -41.5t-105 -13zM1260 1094v-815q0 -123 -3 -211q-9 -261 -174.5 -390t-453.5 -129q-247 0 -390 98t-163 285l-2 21h356l2 -21q6 -53 62.5 -82.5
t144.5 -29.5q108 0 174.5 50.5t73.5 156.5q4 66 4 143v31l-82 -121q-92 -68 -258 -68q-225 0 -363.5 143t-138.5 384q0 142 41 254.5t112.5 183.5t164.5 108t200 37q70 0 141 -14.5t111 -38.5l72 -117v142h369zM657 262q109 0 171.5 74t62.5 237v7q0 152 -64.5 222
t-158.5 70q-242 0 -242 -307q0 -148 64.5 -225.5t166.5 -77.5z" />
    <glyph glyph-name="Gdotaccent" unicode="&#x120;" horiz-adv-x="1554" 
d="M795 1485q-87 0 -139 48.5t-52 131.5t52 131.5t139 48.5t138.5 -48.5t51.5 -131.5t-51.5 -131.5t-138.5 -48.5zM838 754h622v-754h-286l-35 217l-62 -156q-59 -50 -134 -70t-191 -20q-142 0 -259.5 47t-202.5 137t-132 228t-47 313q0 179 57.5 323t156.5 235t228 139.5
t276 48.5t265 -37.5t195.5 -105t122.5 -156.5t56 -195l2 -20h-368l-4 20q-45 223 -273 223q-143 0 -236 -116.5t-93 -335.5q0 -129 26 -224t72.5 -149t103.5 -79t125 -25q108 0 179.5 54.5t109.5 170.5h-274v287z" />
    <glyph glyph-name="gdotaccent" unicode="&#x121;" horiz-adv-x="1370" 
d="M676 1178q-87 0 -139 48.5t-52 131.5t52 131.5t139 48.5t138.5 -48.5t51.5 -131.5t-51.5 -131.5t-138.5 -48.5zM1260 1094v-815q0 -123 -3 -211q-9 -261 -174.5 -390t-453.5 -129q-247 0 -390 98t-163 285l-2 21h356l2 -21q6 -53 62.5 -82.5t144.5 -29.5
q108 0 174.5 50.5t73.5 156.5q4 66 4 143v31l-82 -121q-92 -68 -258 -68q-225 0 -363.5 143t-138.5 384q0 142 41 254.5t112.5 183.5t164.5 108t200 37q70 0 141 -14.5t111 -38.5l72 -117v142h369zM657 262q109 0 171.5 74t62.5 237v7q0 152 -64.5 222t-158.5 70
q-242 0 -242 -307q0 -148 64.5 -225.5t166.5 -77.5z" />
    <glyph glyph-name="Gcommaaccent" unicode="&#x122;" horiz-adv-x="1554" 
d="M838 754h622v-754h-286l-35 217l-62 -156q-59 -50 -134 -70t-191 -20q-142 0 -259.5 47t-202.5 137t-132 228t-47 313q0 179 57.5 323t156.5 235t228 139.5t276 48.5t265 -37.5t195.5 -105t122.5 -156.5t56 -195l2 -20h-368l-4 20q-45 223 -273 223q-143 0 -236 -116.5
t-93 -335.5q0 -129 26 -224t72.5 -149t103.5 -79t125 -25q108 0 179.5 54.5t109.5 170.5h-274v287zM733 -76h234v-20l-207 -346h-199z" />
    <glyph glyph-name="gcommaaccent" unicode="&#x123;" horiz-adv-x="1353" 
d="M758 1161h-234v21l207 346h199zM1260 1094v-815q0 -123 -3 -211q-9 -261 -174.5 -390t-453.5 -129q-247 0 -390 98t-163 285l-2 21h356l2 -21q6 -53 62.5 -82.5t144.5 -29.5q108 0 174.5 50.5t73.5 156.5q4 66 4 143v31l-82 -121q-92 -68 -258 -68q-225 0 -363.5 143
t-138.5 384q0 142 41 254.5t112.5 183.5t164.5 108t200 37q70 0 141 -14.5t111 -38.5l72 -117v142h369zM657 262q109 0 171.5 74t62.5 237v7q0 152 -64.5 222t-158.5 70q-242 0 -242 -307q0 -148 64.5 -225.5t166.5 -77.5z" />
    <glyph glyph-name="Hbar" unicode="&#x126;" horiz-adv-x="1576" 
d="M1548 987h-82v-987h-368v549h-566v-549h-368v987h-82v197h82v229h368v-229h566v229h368v-229h82v-197zM1098 987h-566v-151h566v151z" />
    <glyph glyph-name="hbar" unicode="&#x127;" horiz-adv-x="1343" 
d="M1235 825q10 -69 10 -207v-618h-368v557q0 81 -5 150q-13 165 -176 165q-89 0 -140.5 -88.5t-51.5 -267.5v-516h-369v1178h-106v196h106v142h369v-142h221v-196h-221v-254l98 135q104 63 246 63q168 0 266.5 -76.5t120.5 -220.5z" />
    <glyph glyph-name="Imacron" unicode="&#x12a;" horiz-adv-x="643" 
d="M655 1556h-614v197h614v-197zM532 0h-368v1413h368v-1413z" />
    <glyph glyph-name="imacron" unicode="&#x12b;" horiz-adv-x="589" 
d="M602 1200h-614v197h614v-197zM479 0h-368v1094h368v-1094z" />
    <glyph glyph-name="Iogonek" unicode="&#x12e;" horiz-adv-x="643" 
d="M532 0h-116q-38 0 -65 -42t-27 -101q0 -54 24.5 -79.5t59.5 -25.5q44 0 90 43v-149q-103 -103 -277 -103q-233 0 -233 176q0 89 51.5 170t124.5 121v1403h368v-1413z" />
    <glyph glyph-name="iogonek" unicode="&#x12f;" horiz-adv-x="589" 
d="M295 1178q-87 0 -139 48.5t-52 131.5t52 131.5t139 48.5t138.5 -48.5t51.5 -131.5t-51.5 -131.5t-138.5 -48.5zM111 1094h368v-1094h-117q-38 0 -65 -42t-27 -101q0 -54 24.5 -79.5t59.5 -25.5q44 0 90 43v-149q-103 -103 -276 -103q-234 0 -234 176q0 88 52 169.5
t125 121.5v1084z" />
    <glyph glyph-name="Idotaccent" unicode="&#x130;" horiz-adv-x="643" 
d="M348 1845q87 0 139 -48.5t52 -131.5t-52 -131.5t-139 -48.5t-138.5 48.5t-51.5 131.5t51.5 131.5t138.5 48.5zM532 0h-368v1413h368v-1413z" />
    <glyph glyph-name="dotlessi" unicode="&#x131;" horiz-adv-x="589" 
d="M479 0h-368v1094h368v-1094z" />
    <glyph glyph-name="IJ" unicode="&#x132;" horiz-adv-x="1949" 
d="M532 0h-368v1413h368v-1413zM1843 1413v-801q0 -111 -6 -215q-11 -196 -145 -311t-398 -115q-276 0 -409.5 133.5t-141.5 374.5l-2 62h369l4 -62q8 -130 57 -183.5t134 -53.5q149 0 165 178q5 59 5 135v858h368z" />
    <glyph glyph-name="ij" unicode="&#x133;" horiz-adv-x="1167" 
d="M295 1538q87 0 138.5 -48.5t51.5 -131.5t-51.5 -131.5t-138.5 -48.5t-139 48.5t-52 131.5t52 131.5t139 48.5zM881 1538q99 0 144.5 -42.5t45.5 -137.5t-45.5 -137.5t-144.5 -42.5t-145 42.5t-46 137.5t46 137.5t145 42.5zM479 0h-368v1094h368v-1094zM1065 1094v-1061
q0 -57 -4 -131q-11 -162 -117 -247t-334 -85q-74 0 -123 8v248q103 -9 150.5 13.5t54.5 92.5q4 58 4 99v1063h369z" />
    <glyph glyph-name="Kcommaaccent" unicode="&#x136;" horiz-adv-x="1521" 
d="M901 748l592 -748h-461l-399 545l-101 -111v-434h-368v1413h368v-625l539 625h440zM666 -76h233v-20l-207 -346h-198z" />
    <glyph glyph-name="kcommaaccent" unicode="&#x137;" horiz-adv-x="1294" 
d="M1303 0h-453l-293 406l-78 -87v-319h-368v1505h368v-870l385 459h432l-462 -502zM578 -76h233v-20l-207 -346h-198z" />
    <glyph glyph-name="Lacute" unicode="&#x139;" horiz-adv-x="1286" 
d="M434 1505h-196l186 256h328zM1247 311v-311h-1083v1413h368v-1102h715z" />
    <glyph glyph-name="lacute" unicode="&#x13a;" horiz-adv-x="624" 
d="M358 1595h-196l186 256h328zM471 1505v-1112q0 -73 4 -100q5 -34 28 -45t93 -8v-250q-113 -10 -215 -10q-263 0 -275 213q-4 57 -4 194v1118h369z" />
    <glyph glyph-name="Lcommaaccent" unicode="&#x13b;" horiz-adv-x="1286" 
d="M1247 311v-311h-1083v1413h368v-1102h715zM612 -76h234v-20l-207 -346h-199z" />
    <glyph glyph-name="lcommaaccent" unicode="&#x13c;" horiz-adv-x="624" 
d="M471 1505v-1112q0 -73 4 -100q5 -34 28 -45t93 -8v-250q-113 -10 -215 -10q-263 0 -275 213q-4 57 -4 194v1118h369zM483 -96l-207 -346h-198l172 366h233v-20z" />
    <glyph glyph-name="Lcaron" unicode="&#x13d;" horiz-adv-x="1286" 
d="M1247 311v-311h-1083v1413h368v-1102h715z" />
    <glyph glyph-name="lcaron" unicode="&#x13e;" horiz-adv-x="624" 
d="M471 1505v-1112q0 -73 4 -100q5 -34 28 -45t93 -8v-250q-113 -10 -215 -10q-263 0 -275 213q-4 57 -4 194v1118h369z" />
    <glyph glyph-name="Ldot" unicode="&#x13f;" horiz-adv-x="1286" 
d="M1247 311v-311h-1083v1413h368v-1102h715zM922 614q-88 0 -146.5 58.5t-58.5 146.5t58.5 146.5t146.5 58.5t146 -58.5t58 -146.5t-58 -146.5t-146 -58.5z" />
    <glyph glyph-name="ldot" unicode="&#x140;" horiz-adv-x="983" 
d="M471 1505v-1112q0 -73 4 -100q5 -34 28 -45t93 -8v-250q-113 -10 -215 -10q-263 0 -275 213q-4 57 -4 194v1118h369zM778 999q84 0 137.5 -50.5t53.5 -129.5t-53.5 -129.5t-137.5 -50.5q-83 0 -136.5 50.5t-53.5 129.5t53.5 129.5t136.5 50.5z" />
    <glyph glyph-name="Lslash" unicode="&#x141;" horiz-adv-x="1368" 
d="M1329 311v-311h-1083v584l-193 -103v232l193 102v598h368v-403l177 92v-232l-177 -92v-467h715z" />
    <glyph glyph-name="lslash" unicode="&#x142;" horiz-adv-x="690" 
d="M520 293q5 -34 28 -45t93 -8v-250q-113 -10 -215 -10q-262 0 -274 213q-5 71 -5 194v35l-122 -78v244l122 78v839h369v-606l123 78v-244l-123 -78v-262q0 -73 4 -100z" />
    <glyph glyph-name="Nacute" unicode="&#x143;" horiz-adv-x="1626" 
d="M915 1505h-196l186 256h328zM1516 0h-482l-514 934q12 -143 12 -350v-584h-368v1413h459l536 -975q-12 172 -12 371v604h369v-1413z" />
    <glyph glyph-name="nacute" unicode="&#x144;" horiz-adv-x="1318" 
d="M743 1169h-196l186 256h328zM1210 825q11 -76 11 -207v-618h-369v557q0 95 -4 150q-13 165 -176 165q-89 0 -141 -88.5t-52 -267.5v-516h-368v1094h368v-170l99 135q104 63 245 63q168 0 266.5 -76.5t120.5 -220.5z" />
    <glyph glyph-name="Ncommaaccent" unicode="&#x145;" horiz-adv-x="1626" 
d="M1516 0h-482l-514 934q12 -143 12 -350v-584h-368v1413h459l536 -975q-12 172 -12 371v604h369v-1413zM981 -96l-207 -346h-199l173 366h233v-20z" />
    <glyph glyph-name="ncommaaccent" unicode="&#x146;" horiz-adv-x="1318" 
d="M1210 825q11 -76 11 -207v-618h-369v557q0 95 -4 150q-13 165 -176 165q-89 0 -141 -88.5t-52 -267.5v-516h-368v1094h368v-170l99 135q104 63 245 63q168 0 266.5 -76.5t120.5 -220.5zM575 -76h234v-20l-207 -346h-199z" />
    <glyph glyph-name="Ncaron" unicode="&#x147;" horiz-adv-x="1626" 
d="M678 1505l-127 256h213l70 -155l65 155h211l-127 -256h-305zM1516 1413v-1413h-482l-514 934q12 -143 12 -350v-584h-368v1413h459l536 -975q-12 172 -12 371v604h369z" />
    <glyph glyph-name="ncaron" unicode="&#x148;" horiz-adv-x="1318" 
d="M506 1169l-127 256h213l70 -155l65 155h211l-127 -256h-305zM1210 825q11 -76 11 -207v-618h-369v557q0 95 -4 150q-13 165 -176 165q-89 0 -141 -88.5t-52 -267.5v-516h-368v1094h368v-170l99 135q104 63 245 63q168 0 266.5 -76.5t120.5 -220.5z" />
    <glyph glyph-name="Eng" unicode="&#x14a;" horiz-adv-x="1626" 
d="M1516 1413v-1530q0 -41 -3 -84q-14 -136 -133.5 -196t-386.5 -60v271q88 9 121 36.5t33 81.5v27l-627 975q12 -143 12 -350v-584h-368v1413h459l536 -893q-12 172 -12 371v522h369z" />
    <glyph glyph-name="eng" unicode="&#x14b;" horiz-adv-x="1318" 
d="M1210 825q11 -76 11 -207v-688q0 -55 -2 -84q-7 -71 -33 -119.5t-83.5 -85.5t-157 -54t-247.5 -17v270q73 0 109.5 19t42.5 69q2 18 2 66v563q0 95 -4 150q-13 165 -176 165q-89 0 -141 -88.5t-52 -267.5v-516h-368v1094h368v-170l99 135q104 63 245 63
q168 0 266.5 -76.5t120.5 -220.5z" />
    <glyph glyph-name="Omacron" unicode="&#x14c;" horiz-adv-x="1613" 
d="M1141 1556h-615v197h615v-197zM834 1442q331 0 526.5 -197.5t195.5 -537.5q0 -339 -195.5 -537.5t-526.5 -198.5t-527 198.5t-196 537.5q0 340 196 537.5t527 197.5zM834 242q161 0 253.5 121.5t92.5 343.5q0 223 -92 343.5t-254 120.5t-254.5 -120.5t-92.5 -343.5
q0 -222 92.5 -343.5t254.5 -121.5z" />
    <glyph glyph-name="omacron" unicode="&#x14d;" horiz-adv-x="1273" 
d="M944 1200h-614v197h614v-197zM637 1122q269 0 428.5 -155.5t159.5 -419.5q0 -263 -160 -419.5t-428 -156.5t-428 156.5t-160 419.5q0 264 159.5 419.5t428.5 155.5zM637 221q100 0 155.5 83t55.5 243q0 161 -55.5 243t-155.5 82t-155.5 -82t-55.5 -243q0 -160 55.5 -243
t155.5 -83z" />
    <glyph glyph-name="Ohungarumlaut" unicode="&#x150;" horiz-adv-x="1613" 
d="M668 1507h-197l186 256h328zM883 1507l186 256h328l-318 -256h-196zM834 1442q331 0 526.5 -197.5t195.5 -537.5q0 -339 -195.5 -537.5t-526.5 -198.5t-527 198.5t-196 537.5q0 340 196 537.5t527 197.5zM834 242q161 0 253.5 121.5t92.5 343.5q0 223 -92 343.5
t-254 120.5t-254.5 -120.5t-92.5 -343.5q0 -222 92.5 -343.5t254.5 -121.5z" />
    <glyph glyph-name="ohungarumlaut" unicode="&#x151;" horiz-adv-x="1273" 
d="M481 1169h-196l186 256h328zM676 1169l186 256h328l-318 -256h-196zM637 1122q269 0 428.5 -155.5t159.5 -419.5q0 -263 -160 -419.5t-428 -156.5t-428 156.5t-160 419.5q0 264 159.5 419.5t428.5 155.5zM637 221q100 0 155.5 83t55.5 243q0 161 -55.5 243t-155.5 82
t-155.5 -82t-55.5 -243q0 -160 55.5 -243t155.5 -83z" />
    <glyph glyph-name="OE" unicode="&#x152;" horiz-adv-x="2324" 
d="M2263 287v-287h-1083v211l-66 -137q-78 -61 -151.5 -82t-210.5 -21q-134 0 -251 52t-203.5 145.5t-136.5 233t-50 305.5q0 167 50 306t136.5 232.5t203.5 145t251 51.5q135 0 210.5 -20.5t151.5 -78.5l66 -139v209h1063v-287h-695v-274h654v-287h-654v-278h715zM834 242
q161 0 253.5 121.5t92.5 343.5q0 223 -92 343.5t-254 120.5t-254.5 -120.5t-92.5 -343.5q0 -222 92.5 -343.5t254.5 -121.5z" />
    <glyph glyph-name="oe" unicode="&#x153;" horiz-adv-x="2029" 
d="M1980 561q0 -51 -6 -106h-762q13 -128 65.5 -181t137.5 -53q77 0 124 36.5t58 100.5h363q-47 -184 -190.5 -285.5t-348.5 -101.5q-259 0 -391 191q-133 -191 -393 -191q-268 0 -428 156.5t-160 419.5q0 264 159.5 419.5t428.5 155.5q125 0 229 -51t174 -156
q136 207 410 207q101 0 187.5 -31t148.5 -85t106.5 -125.5t66 -152.5t21.5 -167zM637 221q100 0 155.5 83t55.5 243q0 161 -55.5 243t-155.5 82t-155.5 -82t-55.5 -243q0 -160 55.5 -243t155.5 -83zM1225 680h370q-13 95 -60 143.5t-122 48.5q-149 0 -188 -192z" />
    <glyph glyph-name="Racute" unicode="&#x154;" horiz-adv-x="1396" 
d="M823 1505h-196l186 256h328zM1266 344q25 -220 106 -344h-401q-50 153 -66 283q-14 117 -59 182.5t-115 69.5q-41 2 -117 2h-82v-537h-368v1413h561q126 0 221 -10q81 -10 147 -34.5t120.5 -68t85 -113t30.5 -159.5q0 -269 -285 -352q106 -38 156 -118t66 -214zM532 803
h134q71 0 98 2q180 15 180 160q0 82 -45 117t-125 42q-27 2 -98 2h-144v-323z" />
    <glyph glyph-name="racute" unicode="&#x155;" horiz-adv-x="860" 
d="M522 1169h-196l186 256h328zM772 1122q44 0 84 -6v-301q-209 14 -293 -77t-84 -337v-401h-368v1094h368v-222l78 154q42 47 100.5 71.5t114.5 24.5z" />
    <glyph glyph-name="Rcommaaccent" unicode="&#x156;" horiz-adv-x="1396" 
d="M1266 344q25 -220 106 -344h-401q-50 153 -66 283q-14 117 -59 182.5t-115 69.5q-41 2 -117 2h-82v-537h-368v1413h561q126 0 221 -10q81 -10 147 -34.5t120.5 -68t85 -113t30.5 -159.5q0 -269 -285 -352q106 -38 156 -118t66 -214zM532 803h134q71 0 98 2
q180 15 180 160q0 82 -45 117t-125 42q-27 2 -98 2h-144v-323zM641 -76h233v-20l-206 -346h-199z" />
    <glyph glyph-name="rcommaaccent" unicode="&#x157;" horiz-adv-x="860" 
d="M772 1122q44 0 84 -6v-301q-209 14 -293 -77t-84 -337v-401h-368v1094h368v-222l78 154q42 47 100.5 71.5t114.5 24.5zM213 -76h233v-20l-206 -346h-199z" />
    <glyph glyph-name="Rcaron" unicode="&#x158;" horiz-adv-x="1396" 
d="M586 1505l-127 256h213l69 -155l66 155h211l-127 -256h-305zM1266 344q25 -220 106 -344h-401q-50 153 -66 283q-14 117 -59 182.5t-115 69.5q-41 2 -117 2h-82v-537h-368v1413h561q126 0 221 -10q81 -10 147 -34.5t120.5 -68t85 -113t30.5 -159.5q0 -269 -285 -352
q106 -38 156 -118t66 -214zM532 803h134q71 0 98 2q180 15 180 160q0 82 -45 117t-125 42q-27 2 -98 2h-144v-323z" />
    <glyph glyph-name="rcaron" unicode="&#x159;" horiz-adv-x="860" 
d="M285 1169l-127 256h213l69 -155l66 155h211l-127 -256h-305zM772 1122q44 0 84 -6v-301q-209 14 -293 -77t-84 -337v-401h-368v1094h368v-222l78 154q42 47 100.5 71.5t114.5 24.5z" />
    <glyph glyph-name="Sacute" unicode="&#x15a;" horiz-adv-x="1282" 
d="M754 1505h-197l186 256h328zM659 1442q109 0 198 -23.5t151.5 -64.5t107 -100.5t69 -127.5t34.5 -149h-369q-13 91 -62 142.5t-137 51.5q-65 0 -103 -32t-38 -95q0 -70 64.5 -115t234.5 -85q438 -104 438 -447q0 -103 -46.5 -185.5t-124.5 -134t-176.5 -79t-207.5 -27.5
q-277 0 -441 115t-181 346h368q18 -94 86 -142t158 -48q77 0 128.5 36.5t51.5 94.5q0 60 -51.5 104.5t-175.5 75.5q-103 26 -177.5 52t-140.5 64t-106 85t-63 112.5t-23 149.5q0 99 44 181t118 134.5t170 81.5t202 29z" />
    <glyph glyph-name="sacute" unicode="&#x15b;" horiz-adv-x="1081" 
d="M637 1169h-197l187 256h327zM561 1122q197 0 316.5 -96.5t142.5 -251.5h-363q-25 119 -118 119q-38 0 -63 -22.5t-25 -57.5q0 -48 54 -82.5t204 -71.5q80 -20 138 -46t105.5 -66t72 -98.5t24.5 -135.5q0 -112 -67 -191t-174 -115t-243 -36q-228 0 -367.5 94t-160.5 275
h362q15 -63 60 -101t104 -38q52 0 84.5 21.5t32.5 62.5q0 52 -58.5 85.5t-205.5 67.5q-164 38 -249 117.5t-85 214.5q0 162 130 257t349 95z" />
    <glyph glyph-name="Scedilla" unicode="&#x15e;" horiz-adv-x="1282" 
d="M1247 397q0 -101 -45 -183t-121 -133.5t-171.5 -79.5t-202.5 -30l-29 -57q194 -21 194 -158q0 -51 -27 -88t-76 -58t-109 -30.5t-134 -9.5q-69 0 -116 12v144q64 -15 118 -15q123 0 123 56q0 33 -44 46.5t-154 6.5l77 162q-207 30 -327 142.5t-133 307.5h368
q18 -94 86 -142t158 -48q77 0 128.5 36.5t51.5 94.5q0 60 -51.5 104.5t-175.5 75.5q-103 26 -177.5 52t-140.5 64t-106 85t-63 112.5t-23 149.5q0 99 44 181t118 134.5t170 81.5t202 29q109 0 198 -23.5t151.5 -64.5t107 -100.5t69 -127.5t34.5 -149h-369q-13 91 -62 142.5
t-137 51.5q-65 0 -103 -32t-38 -95q0 -70 64.5 -115t234.5 -85q438 -104 438 -447z" />
    <glyph glyph-name="scedilla" unicode="&#x15f;" horiz-adv-x="1081" 
d="M1049 313q0 -156 -120.5 -243t-310.5 -97l-28 -59q194 -21 194 -158q0 -51 -27 -88t-76 -58t-109 -30.5t-134 -9.5q-69 0 -116 12v144q64 -15 118 -15q123 0 123 56q0 33 -44 46.5t-154 6.5l77 160q-176 24 -281.5 114.5t-123.5 245.5h362q15 -63 60 -101t104 -38
q52 0 84.5 21.5t32.5 62.5q0 52 -58.5 85.5t-205.5 67.5q-164 38 -249 117.5t-85 214.5q0 162 130 257t349 95q197 0 316.5 -96.5t142.5 -251.5h-363q-25 119 -118 119q-38 0 -63 -22.5t-25 -57.5q0 -48 54 -82.5t204 -71.5q80 -20 138 -46t105.5 -66t72 -98.5t24.5 -135.5z
" />
    <glyph glyph-name="Scaron" unicode="&#x160;" horiz-adv-x="1282" 
d="M516 1505l-127 256h213l70 -155l65 155h211l-127 -256h-305zM809 844q438 -104 438 -447q0 -103 -46.5 -185.5t-124.5 -134t-176.5 -79t-207.5 -27.5q-277 0 -441 115t-181 346h368q18 -94 86 -142t158 -48q77 0 128.5 36.5t51.5 94.5q0 60 -51.5 104.5t-175.5 75.5
q-103 26 -177.5 52t-140.5 64t-106 85t-63 112.5t-23 149.5q0 99 44 181t118 134.5t170 81.5t202 29q109 0 198 -23.5t151.5 -64.5t107 -100.5t69 -127.5t34.5 -149h-369q-13 91 -62 142.5t-137 51.5q-65 0 -103 -32t-38 -95q0 -70 64.5 -115t234.5 -85z" />
    <glyph glyph-name="scaron" unicode="&#x161;" horiz-adv-x="1081" 
d="M399 1169l-127 256h213l70 -155l66 155h210l-126 -256h-306zM709 659q80 -20 138 -46t105.5 -66t72 -98.5t24.5 -135.5q0 -112 -67 -191t-174 -115t-243 -36q-228 0 -367.5 94t-160.5 275h362q15 -63 60 -101t104 -38q52 0 84.5 21.5t32.5 62.5q0 52 -58.5 85.5
t-205.5 67.5q-164 38 -249 117.5t-85 214.5q0 162 130 257t349 95q197 0 316.5 -96.5t142.5 -251.5h-363q-25 119 -118 119q-38 0 -63 -22.5t-25 -57.5q0 -48 54 -82.5t204 -71.5z" />
    <glyph glyph-name="Tcedilla" unicode="&#x162;" horiz-adv-x="1294" 
d="M752 0l-41 -86q194 -21 194 -158q0 -51 -27 -88t-76 -58t-109 -30.5t-134 -9.5q-70 0 -117 12v144q64 -15 119 -15q123 0 123 56q0 33 -44.5 46.5t-154.5 6.5l88 180h-86v1126h-458v287h1286v-287h-459v-1126h-104z" />
    <glyph glyph-name="tcedilla" unicode="&#x163;" horiz-adv-x="819" 
d="M553 856v-403q0 -78 2 -107q6 -84 47 -108.5t170 -18.5v-229q-114 -19 -217 -19h-25l-28 -57q194 -21 194 -158q0 -51 -27 -88t-76 -58t-109 -30.5t-134 -9.5q-70 0 -117 12v144q64 -15 119 -15q123 0 123 56q0 33 -44.5 46.5t-154.5 6.5l84 174q-88 25 -127 80.5
t-45 148.5q-4 63 -4 176v457h-174v229h174v283h369v-283h242v-229h-242z" />
    <glyph glyph-name="Tcaron" unicode="&#x164;" horiz-adv-x="1294" 
d="M520 1505l-127 256h213l70 -155l65 155h211l-127 -256h-305zM1315 1126h-459v-1126h-369v1126h-458v287h1286v-287z" />
    <glyph glyph-name="tcaron" unicode="&#x165;" horiz-adv-x="808" 
d="M1006 1505v-20l-207 -346h-199l172 366h234zM553 1085h242v-229h-242v-403q0 -78 2 -107q6 -84 47 -108.5t170 -18.5v-229q-114 -19 -217 -19q-197 0 -277.5 60t-89.5 192q-4 63 -4 176v457h-174v229h174v283h369v-283z" />
    <glyph glyph-name="Tbar" unicode="&#x166;" horiz-adv-x="1294" 
d="M856 1126v-329h184v-197h-184v-600h-369v600h-184v197h184v329h-458v287h1286v-287h-459z" />
    <glyph glyph-name="tbar" unicode="&#x167;" horiz-adv-x="819" 
d="M553 856v-151h135v-197h-135v-55q0 -78 2 -107q6 -84 47 -108.5t170 -18.5v-229q-114 -19 -217 -19q-197 0 -277.5 60t-89.5 192q-4 63 -4 176v109h-110v197h110v151h-174v229h174v283h369v-283h242v-229h-242z" />
    <glyph glyph-name="Umacron" unicode="&#x16a;" horiz-adv-x="1470" 
d="M1073 1556h-614v197h614v-197zM1393 1413v-792q0 -101 -7 -199q-6 -93 -43 -171.5t-108.5 -142.5t-191 -100.5t-277.5 -36.5q-127 0 -230 24.5t-172.5 65.5t-118 99.5t-72 123t-28.5 138.5q-6 84 -6 199v792h369v-860q0 -59 2 -84q15 -227 256 -227t256 227q2 25 2 84
v860h369z" />
    <glyph glyph-name="umacron" unicode="&#x16b;" horiz-adv-x="1310" 
d="M952 1200h-614v197h614v-197zM1200 1094v-1094h-369v184l-98 -149q-106 -64 -246 -64q-162 0 -264.5 79t-122.5 198q-10 69 -10 207v639h369v-557q0 -77 8 -150q9 -82 51 -124t127 -42q86 0 136 71.5t50 182.5v619h369z" />
    <glyph glyph-name="Uring" unicode="&#x16e;" horiz-adv-x="1470" 
d="M766 1909q107 0 175.5 -60t68.5 -155t-68.5 -155t-175.5 -60t-175.5 60t-68.5 155t68.5 155t175.5 60zM766 1774q-32 0 -53 -22.5t-21 -57.5t21 -57.5t53 -22.5t53 22.5t21 57.5t-21 57.5t-53 22.5zM1393 1413v-792q0 -101 -7 -199q-6 -93 -43 -171.5t-108.5 -142.5
t-191 -100.5t-277.5 -36.5q-127 0 -230 24.5t-172.5 65.5t-118 99.5t-72 123t-28.5 138.5q-6 84 -6 199v792h369v-860q0 -59 2 -84q15 -227 256 -227t256 227q2 25 2 84v860h369z" />
    <glyph glyph-name="uring" unicode="&#x16f;" horiz-adv-x="1310" 
d="M645 1161q-108 0 -176 60.5t-68 158.5t68 158.5t176 60.5t176 -60.5t68 -158.5t-68 -158.5t-176 -60.5zM645 1464q-33 0 -53.5 -22.5t-20.5 -61.5t20.5 -61.5t53.5 -22.5t53.5 22.5t20.5 61.5t-20.5 61.5t-53.5 22.5zM1200 1094v-1094h-369v184l-98 -149
q-106 -64 -246 -64q-162 0 -264.5 79t-122.5 198q-10 69 -10 207v639h369v-557q0 -77 8 -150q9 -82 51 -124t127 -42q86 0 136 71.5t50 182.5v619h369z" />
    <glyph glyph-name="Uhungarumlaut" unicode="&#x170;" horiz-adv-x="1470" 
d="M600 1507h-197l187 256h328zM1012 1507h-197l186 256h328zM1393 1413v-792q0 -101 -7 -199q-6 -93 -43 -171.5t-108.5 -142.5t-191 -100.5t-277.5 -36.5q-127 0 -230 24.5t-172.5 65.5t-118 99.5t-72 123t-28.5 138.5q-6 84 -6 199v792h369v-860q0 -59 2 -84
q15 -227 256 -227t256 227q2 25 2 84v860h369z" />
    <glyph glyph-name="uhungarumlaut" unicode="&#x171;" horiz-adv-x="1310" 
d="M489 1169h-196l186 256h328zM684 1169l186 256h328l-317 -256h-197zM1200 1094v-1094h-369v184l-98 -149q-106 -64 -246 -64q-162 0 -264.5 79t-122.5 198q-10 69 -10 207v639h369v-557q0 -77 8 -150q9 -82 51 -124t127 -42q86 0 136 71.5t50 182.5v619h369z" />
    <glyph glyph-name="Uogonek" unicode="&#x172;" horiz-adv-x="1470" 
d="M1393 1413v-792q0 -101 -7 -199q-10 -150 -100.5 -262.5t-269.5 -159.5q-15 -3 -27 -6q-29 -13 -47 -51.5t-18 -85.5q0 -54 24.5 -79.5t59.5 -25.5q44 0 90 43v-149q-103 -103 -277 -103q-233 0 -233 176q0 71 34 138.5t89 115.5q-143 6 -252 44.5t-174 101.5
t-99.5 138.5t-40.5 164.5q-6 84 -6 199v792h369v-860q0 -59 2 -84q15 -227 256 -227t256 227q2 25 2 84v860h369z" />
    <glyph glyph-name="uogonek" unicode="&#x173;" horiz-adv-x="1310" 
d="M1200 0h-117q-38 0 -65 -42t-27 -101q0 -54 24.5 -79.5t59.5 -25.5q44 0 90 43v-149q-103 -103 -276 -103q-234 0 -234 176q0 89 51.5 170t124.5 121v174l-98 -149q-106 -64 -246 -64q-162 0 -264.5 79t-122.5 198q-10 69 -10 207v639h369v-557q0 -77 8 -150
q9 -82 51 -124t127 -42q86 0 136 71.5t50 182.5v619h369v-1094z" />
    <glyph glyph-name="Wcircumflex" unicode="&#x174;" horiz-adv-x="2080" 
d="M1014 1505h-211l127 256h305l127 -256h-213l-70 156zM2107 1413l-360 -1413h-492l-178 1100l-190 -1100h-494l-340 1413h391l189 -1126l186 1106h529l178 -1110l205 1130h376z" />
    <glyph glyph-name="wcircumflex" unicode="&#x175;" horiz-adv-x="1777" 
d="M829 1169h-211l127 256h306l127 -256h-213l-70 156zM1794 1094l-346 -1094h-412l-139 737l-139 -737h-412l-346 1094h406l143 -783l131 774h438l139 -776l140 785h397z" />
    <glyph glyph-name="Ycircumflex" unicode="&#x176;" horiz-adv-x="1357" 
d="M643 1505h-211l127 256h305l127 -256h-213l-69 156zM895 541v-541h-369v541l-497 872h413l279 -559l268 559h404z" />
    <glyph glyph-name="ycircumflex" unicode="&#x177;" horiz-adv-x="1245" 
d="M545 1169h-211l127 256h305l127 -256h-213l-70 156zM1262 1094l-433 -1094q-52 -132 -101.5 -213.5t-111 -131t-132 -67.5t-171.5 -18q-89 0 -155 10v238q31 -4 100 -4q67 0 111 24.5t69 81.5l15 31l-453 1143h410l225 -801l223 801h404z" />
    <glyph glyph-name="Ydieresis" unicode="&#x178;" horiz-adv-x="1357" 
d="M506 1479q-70 0 -112 40.5t-42 108.5q0 69 42.5 109.5t111.5 40.5t111 -40.5t42 -109.5t-42 -109t-111 -40zM915 1479q-69 0 -111 40t-42 109t42 109.5t111 40.5t111.5 -40.5t42.5 -109.5q0 -68 -42 -108.5t-112 -40.5zM895 541v-541h-369v541l-497 872h413l279 -559
l268 559h404z" />
    <glyph glyph-name="Zacute" unicode="&#x179;" horiz-adv-x="1327" 
d="M784 1505h-196l186 256h328zM1266 287v-287h-1157v279l698 847h-641v287h1091v-285l-692 -841h701z" />
    <glyph glyph-name="zacute" unicode="&#x17a;" horiz-adv-x="1077" 
d="M651 1169h-196l186 256h328zM1018 229v-229h-948v215l553 641h-523v229h912v-225l-547 -631h553z" />
    <glyph glyph-name="Zdotaccent" unicode="&#x17b;" horiz-adv-x="1327" 
d="M698 1485q-87 0 -138.5 48.5t-51.5 131.5t51.5 131.5t138.5 48.5t139 -48.5t52 -131.5t-52 -131.5t-139 -48.5zM1266 287v-287h-1157v279l698 847h-641v287h1091v-285l-692 -841h701z" />
    <glyph glyph-name="zdotaccent" unicode="&#x17c;" horiz-adv-x="1077" 
d="M565 1178q-87 0 -138.5 48.5t-51.5 131.5t51.5 131.5t138.5 48.5t139 -48.5t52 -131.5t-52 -131.5t-139 -48.5zM1018 229v-229h-948v215l553 641h-523v229h912v-225l-547 -631h553z" />
    <glyph glyph-name="Zcaron" unicode="&#x17d;" horiz-adv-x="1327" 
d="M547 1505l-127 256h213l69 -155l66 155h211l-127 -256h-305zM1266 287v-287h-1157v279l698 847h-641v287h1091v-285l-692 -841h701z" />
    <glyph glyph-name="zcaron" unicode="&#x17e;" horiz-adv-x="1077" 
d="M414 1169l-127 256h213l69 -155l66 155h211l-127 -256h-305zM1018 229v-229h-948v215l553 641h-523v229h912v-225l-547 -631h553z" />
    <glyph glyph-name="Scommaaccent" unicode="&#x218;" horiz-adv-x="1282" 
d="M659 1442q109 0 198 -23.5t151.5 -64.5t107 -100.5t69 -127.5t34.5 -149h-369q-13 91 -62 142.5t-137 51.5q-65 0 -103 -32t-38 -95q0 -70 64.5 -115t234.5 -85q438 -104 438 -447q0 -103 -46.5 -185.5t-124.5 -134t-176.5 -79t-207.5 -27.5q-277 0 -441 115t-181 346
h368q18 -94 86 -142t158 -48q77 0 128.5 36.5t51.5 94.5q0 60 -51.5 104.5t-175.5 75.5q-103 26 -177.5 52t-140.5 64t-106 85t-63 112.5t-23 149.5q0 99 44 181t118 134.5t170 81.5t202 29zM791 -96l-207 -346h-199l172 366h234v-20z" />
    <glyph glyph-name="scommaaccent" unicode="&#x219;" horiz-adv-x="1081" 
d="M561 1122q197 0 316.5 -96.5t142.5 -251.5h-363q-25 119 -118 119q-38 0 -63 -22.5t-25 -57.5q0 -48 54 -82.5t204 -71.5q80 -20 138 -46t105.5 -66t72 -98.5t24.5 -135.5q0 -112 -67 -191t-174 -115t-243 -36q-228 0 -367.5 94t-160.5 275h362q15 -63 60 -101t104 -38
q52 0 84.5 21.5t32.5 62.5q0 52 -58.5 85.5t-205.5 67.5q-164 38 -249 117.5t-85 214.5q0 162 130 257t349 95zM702 -96l-206 -346h-199l172 366h233v-20z" />
    <glyph glyph-name="uni021A" unicode="&#x21a;" horiz-adv-x="1294" 
d="M1315 1126h-459v-1126h-369v1126h-458v287h1286v-287zM590 -76h233v-20l-207 -346h-198z" />
    <glyph glyph-name="uni021B" unicode="&#x21b;" horiz-adv-x="819" 
d="M553 856v-403q0 -78 2 -107q6 -84 47 -108.5t170 -18.5v-229q-114 -19 -217 -19q-197 0 -277.5 60t-89.5 192q-4 63 -4 176v457h-174v229h174v283h369v-283h242v-229h-242zM381 -76h233v-20l-206 -346h-199z" />
    <glyph glyph-name="circumflex" unicode="&#x2c6;" horiz-adv-x="614" 
d="M375 1169l-70 156l-65 -156h-211l127 256h305l127 -256h-213z" />
    <glyph glyph-name="caron" unicode="&#x2c7;" horiz-adv-x="614" 
d="M588 1425l-127 -256h-305l-127 256h213l69 -155l66 155h211z" />
    <glyph glyph-name="breve" unicode="&#x2d8;" horiz-adv-x="614" 
d="M399 1425h185q0 -73 -22.5 -126t-62.5 -81.5t-87 -41.5t-105 -13t-105.5 13t-87 41.5t-61.5 81.5t-22 126h184q6 -88 92 -88t92 88z" />
    <glyph glyph-name="dotaccent" unicode="&#x2d9;" horiz-adv-x="614" 
d="M307 1538q87 0 139 -48.5t52 -131.5t-52 -131.5t-139 -48.5t-138.5 48.5t-51.5 131.5t51.5 131.5t138.5 48.5z" />
    <glyph glyph-name="ring" unicode="&#x2da;" horiz-adv-x="614" 
d="M307 1599q108 0 176 -60.5t68 -158.5t-68 -158.5t-176 -60.5t-176 60.5t-68 158.5t68 158.5t176 60.5zM307 1464q-33 0 -53.5 -22.5t-20.5 -61.5t20.5 -61.5t53.5 -22.5t53.5 22.5t20.5 61.5t-20.5 61.5t-53.5 22.5z" />
    <glyph glyph-name="ogonek" unicode="&#x2db;" horiz-adv-x="614" 
d="M307 10l252 -10q-38 0 -65 -42t-27 -101q0 -54 24.5 -79.5t59.5 -25.5q44 0 90 43v-149q-103 -103 -276 -103q-234 0 -234 176q0 89 51.5 170t124.5 121z" />
    <glyph glyph-name="tilde" unicode="&#x2dc;" horiz-adv-x="614" 
d="M156 1450q46 0 80 -7.5t88 -31.5q66 -31 92 -31q17 0 23.5 14.5t6.5 49.5h197q0 -142 -44.5 -208.5t-139.5 -66.5q-46 0 -79.5 7.5t-88.5 31.5q-76 31 -92 31q-17 0 -24 -14.5t-7 -48.5h-197q0 142 45 208t140 66z" />
    <glyph glyph-name="hungarumlaut" unicode="&#x2dd;" horiz-adv-x="614" 
d="M152 1169h-197l186 256h328zM543 1169h-197l186 256h328z" />
    <glyph glyph-name="uni0326" unicode="&#x326;" horiz-adv-x="0" 
d="M459 -96l-207 -346h-199l172 366h234v-20z" />
    <glyph glyph-name="Wgrave" unicode="&#x1e80;" horiz-adv-x="2080" 
d="M1010 1505l-318 256h328l186 -256h-196zM2107 1413l-360 -1413h-492l-178 1100l-190 -1100h-494l-340 1413h391l189 -1126l186 1106h529l178 -1110l205 1130h376z" />
    <glyph glyph-name="wgrave" unicode="&#x1e81;" horiz-adv-x="1777" 
d="M842 1169l-318 256h328l186 -256h-196zM1794 1094l-346 -1094h-412l-139 737l-139 -737h-412l-346 1094h406l143 -783l131 774h438l139 -776l140 785h397z" />
    <glyph glyph-name="Wacute" unicode="&#x1e82;" horiz-adv-x="2080" 
d="M1167 1505h-196l186 256h328zM2107 1413l-360 -1413h-492l-178 1100l-190 -1100h-494l-340 1413h391l189 -1126l186 1106h529l178 -1110l205 1130h376z" />
    <glyph glyph-name="wacute" unicode="&#x1e83;" horiz-adv-x="1777" 
d="M983 1169h-197l187 256h327zM1794 1094l-346 -1094h-412l-139 737l-139 -737h-412l-346 1094h406l143 -783l131 774h438l139 -776l140 785h397z" />
    <glyph glyph-name="Wdieresis" unicode="&#x1e84;" horiz-adv-x="2080" 
d="M877 1479q-70 0 -112 40.5t-42 108.5q0 69 42.5 109.5t111.5 40.5t111 -40.5t42 -109.5t-42 -109t-111 -40zM1286 1479q-69 0 -111 40t-42 109t42 109.5t111 40.5t111.5 -40.5t42.5 -109.5q0 -68 -42 -108.5t-112 -40.5zM2107 1413l-360 -1413h-492l-178 1100l-190 -1100
h-494l-340 1413h391l189 -1126l186 1106h529l178 -1110l205 1130h376z" />
    <glyph glyph-name="wdieresis" unicode="&#x1e85;" horiz-adv-x="1777" 
d="M692 1165q-69 0 -111 40.5t-42 109.5t42 109t111 40q70 0 112 -40.5t42 -108.5q0 -69 -42.5 -109.5t-111.5 -40.5zM1102 1165q-69 0 -111.5 40.5t-42.5 109.5q0 68 42 108.5t112 40.5q69 0 111 -40t42 -109t-42 -109.5t-111 -40.5zM1794 1094l-346 -1094h-412l-139 737
l-139 -737h-412l-346 1094h406l143 -783l131 774h438l139 -776l140 785h397z" />
    <glyph glyph-name="Ygrave" unicode="&#x1ef2;" horiz-adv-x="1357" 
d="M639 1505l-317 256h327l187 -256h-197zM895 541v-541h-369v541l-497 872h413l279 -559l268 559h404z" />
    <glyph glyph-name="ygrave" unicode="&#x1ef3;" horiz-adv-x="1245" 
d="M557 1169l-317 256h327l187 -256h-197zM1262 1094l-433 -1094q-52 -132 -101.5 -213.5t-111 -131t-132 -67.5t-171.5 -18q-89 0 -155 10v238q31 -4 100 -4q67 0 111 24.5t69 81.5l15 31l-453 1143h410l225 -801l223 801h404z" />
    <glyph glyph-name="endash" unicode="&#x2013;" horiz-adv-x="1024" 
d="M840 496h-656v196h656v-196z" />
    <glyph glyph-name="emdash" unicode="&#x2014;" horiz-adv-x="2048" 
d="M1864 496h-1680v196h1680v-196z" />
    <glyph glyph-name="quoteleft" unicode="&#x2018;" horiz-adv-x="659" 
d="M119 920l223 585h283l-164 -606h-342v21z" />
    <glyph glyph-name="quoteright" unicode="&#x2019;" horiz-adv-x="659" 
d="M541 1485l-224 -586h-282l164 606h342v-20z" />
    <glyph glyph-name="quotesinglbase" unicode="&#x201a;" horiz-adv-x="544" 
d="M453 332l-224 -586h-282l164 606h342v-20z" />
    <glyph glyph-name="quotedblleft" unicode="&#x201c;" horiz-adv-x="1150" 
d="M119 920l223 585h283l-164 -606h-342v21zM610 920l224 585h282l-164 -606h-342v21z" />
    <glyph glyph-name="quotedblright" unicode="&#x201d;" horiz-adv-x="1150" 
d="M541 1485l-224 -586h-282l164 606h342v-20zM1032 1485l-223 -586h-283l164 606h342v-20z" />
    <glyph glyph-name="quotedblbase" unicode="&#x201e;" horiz-adv-x="1036" 
d="M453 332l-224 -586h-282l164 606h342v-20zM944 332l-223 -586h-283l164 606h342v-20z" />
    <glyph glyph-name="dagger" unicode="&#x2020;" horiz-adv-x="1167" 
d="M1094 692l-367 8l23 -1028h-332l22 1028l-366 -8v307l364 -8l-20 422h332l-21 -422l365 8v-307z" />
    <glyph glyph-name="daggerdbl" unicode="&#x2021;" horiz-adv-x="1167" 
d="M725 700v-315l369 8v-307l-365 8l21 -422h-332l20 422l-364 -8v307l368 -8v315l-368 -8v307l364 -8l-20 422h332l-21 -422l365 8v-307z" />
    <glyph glyph-name="bullet" unicode="&#x2022;" horiz-adv-x="802" 
d="M401 891q120 0 193.5 -73t73.5 -193t-73.5 -193.5t-193.5 -73.5t-193 73.5t-73 193.5t73 193t193 73z" />
    <glyph glyph-name="ellipsis" unicode="&#x2026;" horiz-adv-x="1691" 
d="M287 381q91 0 148 -57t57 -148t-57 -148t-148 -57t-148 57t-57 148t57 148t148 57zM860 381q91 0 148 -57t57 -148t-57 -148t-148 -57t-148 57t-57 148t57 148t148 57zM1434 381q91 0 147.5 -57t56.5 -148t-56.5 -148t-147.5 -57t-148 57t-57 148t57 148t148 57z" />
    <glyph glyph-name="perthousand" unicode="&#x2030;" horiz-adv-x="2318" 
d="M719 1096q0 -164 -87 -255t-241 -91t-241 91t-87 255q0 165 86.5 255.5t241.5 90.5t241.5 -90.5t86.5 -255.5zM1395 1413l-916 -1413h-252l916 1413h252zM285 1096q0 -174 106 -174q107 0 107 174t-107 174q-106 0 -106 -174zM1210 664q154 0 241 -91t87 -256
q0 -164 -87 -255t-241 -91t-240.5 91t-86.5 255q0 165 86.5 256t240.5 91zM1927 664q154 0 241 -91t87 -256q0 -164 -87 -255t-241 -91t-241 91t-87 255q0 165 87 256t241 91zM1210 143q107 0 107 174q0 175 -107 175q-106 0 -106 -175q0 -174 106 -174zM1927 143
q107 0 107 174q0 175 -107 175q-106 0 -106 -175q0 -174 106 -174z" />
    <glyph glyph-name="guilsinglleft" unicode="&#x2039;" horiz-adv-x="935" 
d="M846 848l-281 -340l281 -340h-264l-281 340l281 340h264z" />
    <glyph glyph-name="guilsinglright" unicode="&#x203a;" horiz-adv-x="868" 
d="M635 508l-281 -340h-264l281 340l-281 340h264z" />
    <glyph glyph-name="fraction" unicode="&#x2044;" horiz-adv-x="757" 
d="M47 0h-252l916 1413h252z" />
    <glyph glyph-name="Euro" unicode="&#x20ac;" 
d="M1008 459h-367q31 -121 98 -169t174 -48q165 0 301 80v-265q-80 -46 -165 -66t-230 -20q-479 0 -567 488h-176l41 196h114v45q0 40 2 58h-94l41 196h80q58 242 223.5 365t395.5 123q285 0 415 -127l-127 -228q-66 46 -126.5 65t-143.5 19q-190 0 -252 -217h467l-43 -196
h-453v-49v-54h431z" />
    <glyph glyph-name="trademark" unicode="&#x2122;" horiz-adv-x="1099" 
d="M463 1352v-92h-148v-326h-122v326h-148v92h418zM1012 1350v-416h-123l4 291l-66 -283h-127l-67 281l2 -289h-123v416h186l68 -291l68 291h178z" />
    <glyph glyph-name="partialdiff" unicode="&#x2202;" 
d="M639 1552q306 0 463.5 -214.5t157.5 -614.5q0 -374 -158 -563t-445 -189q-122 0 -224 32.5t-180.5 96.5t-122.5 168t-44 238q0 136 40.5 242.5t112.5 172.5t166.5 100t206.5 34q180 0 256 -97q-17 169 -85 246.5t-201 77.5q-132 0 -256 -80l-111 236q104 62 199.5 88
t224.5 26zM672 242q108 0 159 100.5t52 339.5q-52 102 -195 102q-102 0 -159.5 -71.5t-57.5 -196.5q0 -130 53.5 -202t147.5 -72z" />
    <glyph glyph-name="emptyset" unicode="&#x2205;" horiz-adv-x="1716" 
d="M1694 1380l-162 -161q158 -221 158 -492q0 -174 -67 -329.5t-179.5 -266.5t-265.5 -175.5t-320 -64.5q-270 0 -491 162l-203 -203l-141 142l198 198q-93 109 -143.5 246.5t-50.5 290.5q0 174 67 329.5t179 265.5t265 174.5t320 64.5q150 0 288 -51.5t249 -145.5l157 158z
M248 727q0 -223 123 -387l878 879q-167 145 -391 145q-165 0 -304.5 -82t-222.5 -229t-83 -326zM1468 727q0 181 -90 338l-866 -866q153 -109 346 -109q165 0 304.5 82t222.5 229t83 326z" />
    <glyph glyph-name="product" unicode="&#x220f;" 
d="M1280 1126h-117v-1351h-368v1351h-234v-1351h-368v1351h-117v287h1204v-287z" />
    <glyph glyph-name="summation" unicode="&#x2211;" 
d="M1251 61v-286h-1145v229l502 612l-440 568v229h1071v-287h-608l403 -512l-461 -553h678z" />
    <glyph glyph-name="minus" unicode="&#x2212;" 
d="M1139 551h-922v197h922v-197z" />
    <glyph glyph-name="radical" unicode="&#x221a;" 
d="M1262 1597l-463 -1925h-275l-260 783h-168v180h334l227 -739l387 1701h218z" />
    <glyph glyph-name="infinity" unicode="&#x221e;" horiz-adv-x="2093" 
d="M1518 1114q111 0 207.5 -40t167 -113t111 -181t40.5 -237q0 -259 -153 -415.5t-394 -156.5q-162 0 -275.5 52.5t-193.5 179.5q-75 -127 -183.5 -179.5t-269.5 -52.5q-111 0 -207.5 40.5t-167 113.5t-111 181t-40.5 237q0 260 153 415.5t394 155.5q163 0 279 -52.5
t196 -178.5q75 128 181 179.5t266 51.5zM618 221q171 0 203 322q-24 174 -72.5 247.5t-130.5 73.5q-89 0 -140.5 -86t-51.5 -235q0 -148 51.5 -235t140.5 -87zM1475 221q89 0 140.5 87t51.5 235q0 149 -51.5 235t-140.5 86q-82 0 -130 -75.5t-65 -245.5q24 -176 69 -249
t126 -73z" />
    <glyph glyph-name="integral" unicode="&#x222b;" horiz-adv-x="1353" 
d="M774 1544q125 0 193 -45l-31 -184q-57 33 -133 33q-64 0 -107 -37.5t-43 -114.5q0 -100 25 -215.5t110 -357.5q78 -225 106 -350.5t28 -241.5q0 -156 -93 -257.5t-249 -101.5q-125 0 -193 45l31 185q57 -33 133 -33q64 0 106.5 37t42.5 114q0 101 -25 216.5t-110 357.5
q-78 223 -105.5 349t-27.5 243q0 156 93 257t249 101z" />
    <glyph glyph-name="approxequal" unicode="&#x2248;" 
d="M455 1016q59 0 107.5 -17.5t142.5 -66.5q86 -45 120 -58.5t68 -13.5q96 0 178 94l119 -129q-60 -99 -131.5 -139.5t-159.5 -40.5q-59 0 -107.5 17.5t-142.5 66.5q-86 45 -120 58.5t-68 13.5q-96 0 -178 -94l-119 129q60 99 131.5 139.5t159.5 40.5zM455 606
q59 0 107.5 -17.5t142.5 -66.5q85 -44 119.5 -57.5t68.5 -13.5q96 0 178 94l119 -129q-60 -99 -131.5 -139.5t-159.5 -40.5q-59 0 -108 17.5t-142 65.5q-86 45 -120 58.5t-68 13.5q-96 0 -178 -94l-119 129q60 99 131.5 139.5t159.5 40.5z" />
    <glyph glyph-name="notequal" unicode="&#x2260;" 
d="M842 764l-113 -229h451v-181h-539l-113 -227h-215l113 227h-250v181h338l113 229h-451v180h539l112 227h215l-112 -227h250v-180h-338z" />
    <glyph glyph-name="lessequal" unicode="&#x2264;" 
d="M1147 840l-696 -185l696 -196v-213l-901 270v279l901 270v-225zM246 197h901v-197h-901v197z" />
    <glyph glyph-name="greaterequal" unicode="&#x2265;" 
d="M1090 795v-279l-881 -270v225l678 184l-678 197v213zM209 197h881v-197h-881v197z" />
    <glyph glyph-name="lozenge" unicode="&#x25ca;" horiz-adv-x="1134" 
d="M1044 707l-321 -707h-311l-322 707l322 706h311zM774 707l-207 473l-207 -473l207 -474z" />
    </font>
</defs>
</svg>
