<?xml version="1.0" standalone="no"?>
<!DOCTYPE svg PUBLIC "-//W3C//DTD SVG 1.1//EN" "http://www.w3.org/Graphics/SVG/1.1/DTD/svg11.dtd" >
<svg xmlns="http://www.w3.org/2000/svg" xmlns:xlink="http://www.w3.org/1999/xlink" version="1.1">
<metadata>
Created by FontForge 20170731 at Wed Dec 14 12:20:09 2022
 By Aleksey,,,
No Rights Reserved.
</metadata>
<defs>
<font id="Aileron-BlackItalic" horiz-adv-x="1355" >
  <font-face 
    font-family="Aileron Black"
    font-weight="900"
    font-style="italic"
    font-stretch="normal"
    units-per-em="2048"
    panose-1="0 0 10 0 0 0 0 0 0 0"
    ascent="1577"
    descent="-471"
    x-height="1085"
    cap-height="1413"
    bbox="-403 -457 2425 1909"
    underline-thickness="102"
    underline-position="-307"
    slope="-10"
    unicode-range="U+0020-FB02"
  />
<missing-glyph horiz-adv-x="1181" 
d="M158 0v1434h1024v-1434h-1024zM670 809l348 522h-696zM731 717l348 -522v1044zM322 102h696l-348 523zM260 1239v-1044l348 522z" />
    <glyph glyph-name="fi" unicode="fi" horiz-adv-x="1292" 
d="M1274 1085l-191 -1085h-368l149 856h-317l-152 -856h-368l151 856h-98l41 229h96l2 9q13 73 23 118q41 157 183.5 244.5t375.5 87.5q94 0 182 -16l-43 -240q-292 43 -336 -112q-8 -30 -16 -82l-2 -9h688z" />
    <glyph glyph-name="fl" unicode="fl" horiz-adv-x="1353" 
d="M1159 283q0 -42 23.5 -54.5t85.5 -9.5l-41 -227q-85 -12 -197 -12q-133 0 -194.5 39.5t-61.5 127.5q0 76 29 240l160 891q-63 16 -144 16q-185 0 -215 -118q-8 -30 -16 -82l-2 -9h223l-41 -229h-223l-152 -856h-368l151 856h-96l41 229h96l2 9q3 26 23 118
q40 163 190 247.5t451 84.5q255 0 465 -49h22l-196 -1102q-15 -84 -15 -110z" />
    <glyph glyph-name=".notdef" horiz-adv-x="1181" 
d="M158 0v1434h1024v-1434h-1024zM670 809l348 522h-696zM731 717l348 -522v1044zM322 102h696l-348 523zM260 1239v-1044l348 522z" />
    <glyph glyph-name=".null" horiz-adv-x="0" 
 />
    <glyph glyph-name="nonmarkingreturn" horiz-adv-x="682" 
 />
    <glyph glyph-name="space" unicode=" " horiz-adv-x="262" 
 />
    <glyph glyph-name="exclam" unicode="!" horiz-adv-x="636" 
d="M436 430h-282l182 983h332zM270 336q78 0 123 -42t45 -114q0 -82 -56 -145.5t-157 -63.5q-78 0 -123 42t-45 114q0 83 56.5 146t156.5 63z" />
    <glyph glyph-name="quotedbl" unicode="&#x22;" horiz-adv-x="858" 
d="M334 899h-242l115 606h287zM723 899h-242l115 606h287z" />
    <glyph glyph-name="numbersign" unicode="#" 
d="M1042 805l-75 -197h194l-35 -196h-237l-160 -412h-209l160 412h-178l-160 -412h-209l160 412h-170l35 196h213l75 197h-194l35 196h237l160 412h209l-160 -412h178l160 412h209l-160 -412h170l-35 -196h-213zM834 805h-179l-75 -197h178z" />
    <glyph glyph-name="dollar" unicode="$" 
d="M893 1157l-57 -326q108 -48 177 -89.5t121.5 -93.5t75.5 -114.5t23 -144.5q0 -188 -151.5 -299t-399.5 -119l-27 -155h-204l28 168q-107 16 -185.5 53.5t-126 95t-72.5 125.5t-32 154h349q9 -128 114 -170l60 336q-193 75 -284 173t-91 250q0 178 142.5 298.5
t383.5 140.5l29 157h205l-29 -165q178 -30 278 -146t111 -289h-348q1 51 -23 92.5t-67 67.5zM551 1026q0 -84 90 -133l51 291q-66 -12 -103.5 -52.5t-37.5 -105.5zM776 500l-49 -275q152 22 152 133q0 92 -103 142z" />
    <glyph glyph-name="percent" unicode="%" horiz-adv-x="1642" 
d="M440 750q-135 0 -215 76.5t-80 215.5q0 105 42 194.5t129.5 147.5t205.5 58q134 0 214.5 -77t80.5 -216q0 -105 -42 -194.5t-129.5 -147t-205.5 -57.5zM1579 1413l-1163 -1413h-293l1163 1413h293zM502 1270q-59 0 -97 -65.5t-38 -157.5q0 -63 25.5 -94t68.5 -31
q59 0 97 65.5t38 157.5q0 63 -25.5 94t-68.5 31zM1260 664q134 0 214 -77t80 -216q0 -105 -41.5 -194.5t-129 -147.5t-205.5 -58q-134 0 -214.5 77t-80.5 216q0 105 42 194.5t129.5 147.5t205.5 58zM1198 143q59 0 97 66t38 158q0 63 -25.5 94t-68.5 31q-59 0 -97 -66
t-38 -158q0 -63 25.5 -94t68.5 -31z" />
    <glyph glyph-name="ampersand" unicode="&#x26;" horiz-adv-x="1406" 
d="M1423 860l-49 -287h-188l-96 -546q-275 -56 -570 -56q-518 0 -518 324q0 180 113.5 290.5t302.5 139.5q-96 29 -152.5 102.5t-56.5 169.5q0 208 165.5 326.5t463.5 118.5q120 0 202 -21l-47 -268q-92 18 -192 18q-209 0 -209 -182q0 -59 34 -91.5t91 -35.5q37 -2 114 -2
h35l29 158h369l-29 -158h188zM397 375q0 -73 47.5 -103t133.5 -30q89 0 182 14l57 317h-67q-66 0 -107 -2q-118 -5 -182 -54t-64 -142z" />
    <glyph glyph-name="quotesingle" unicode="'" horiz-adv-x="468" 
d="M334 899h-242l115 606h287z" />
    <glyph glyph-name="parenleft" unicode="(" horiz-adv-x="825" 
d="M627 -164h-183q-190 227 -190 637q0 140 28 283t85.5 290.5t157 290.5t231.5 260h182q-241 -273 -352 -559.5t-111 -560.5q0 -380 152 -641z" />
    <glyph glyph-name="parenright" unicode=")" horiz-adv-x="825" 
d="M260 1597h182q191 -228 191 -636q0 -140 -28 -283.5t-85.5 -291t-157 -290.5t-231.5 -260h-182q241 273 352 559.5t111 560.5q0 380 -152 641z" />
    <glyph glyph-name="asterisk" unicode="*" horiz-adv-x="1146" 
d="M686 678l270 113l33 -228l-282 -59l161 -230l-217 -139l-104 250l-199 -250l-168 139l244 230l-262 59l110 228l234 -113l22 295h238z" />
    <glyph glyph-name="plus" unicode="+" 
d="M1145 559h-359l-69 -403h-205l70 403h-359l33 180h358l70 404h205l-70 -404h359z" />
    <glyph glyph-name="comma" unicode="," horiz-adv-x="579" 
d="M406 332l-330 -586h-283l270 606h343v-20z" />
    <glyph glyph-name="hyphen" unicode="-" horiz-adv-x="643" 
d="M561 481h-512l33 197h512z" />
    <glyph glyph-name="period" unicode="." horiz-adv-x="579" 
d="M223 381q74 0 123 -41.5t49 -116.5q0 -115 -67.5 -183.5t-177.5 -68.5q-73 0 -123 41.5t-50 116.5q0 115 68 183.5t178 68.5z" />
    <glyph glyph-name="slash" unicode="/" horiz-adv-x="708" 
d="M70 -61h-215l784 1536h215z" />
    <glyph glyph-name="zero" unicode="0" 
d="M776 1442q273 0 411 -145t138 -404q0 -86 -10 -173t-34 -179t-60 -173.5t-91 -155t-124 -126.5t-162.5 -84t-202.5 -31q-273 0 -411 145t-138 404q0 127 20.5 250.5t71.5 247t127 216t196 150.5t269 58zM641 242q65 0 117.5 52.5t84.5 130.5t54 175.5t30.5 181t8.5 152.5
q0 237 -160 237q-65 0 -117.5 -51.5t-84.5 -128.5t-54 -174t-30.5 -181.5t-8.5 -156.5q0 -237 160 -237z" />
    <glyph glyph-name="one" unicode="1" 
d="M1169 1413l-247 -1413h-369l180 1028l-469 -225l58 330l385 200q157 80 303 80h159z" />
    <glyph glyph-name="two" unicode="2" 
d="M641 287h522l-51 -287h-1096l29 160l518 418q207 168 285 265.5t78 200.5q0 63 -35.5 97.5t-99.5 34.5q-79 0 -130.5 -52.5t-80.5 -162.5l-7 -21h-368l6 21q65 241 222 363t435 122q216 0 332.5 -92t116.5 -258q0 -96 -37.5 -179.5t-136 -190t-281.5 -257.5z" />
    <glyph glyph-name="three" unicode="3" 
d="M993 743q248 -56 248 -264q0 -224 -183 -366t-478 -142q-265 0 -398.5 121t-118.5 336l3 21h368v-21q2 -81 51 -133.5t148 -52.5q92 0 155.5 56.5t63.5 141.5q0 74 -53.5 113.5t-151.5 44.5l-55 2l41 238l55 4q114 9 177 66.5t63 142.5q0 56 -35 88t-100 32
q-76 0 -125 -51.5t-70 -128.5l-4 -20h-369l4 20q129 451 648 451q220 0 332 -92t112 -234q0 -146 -81.5 -241.5t-246.5 -131.5z" />
    <glyph glyph-name="four" unicode="4" 
d="M1241 315h-172l-55 -315h-369l55 315h-663l35 203l805 895h401l-156 -811h168zM754 602l82 414q-52 -74 -93 -117l-272 -297h283z" />
    <glyph glyph-name="five" unicode="5" 
d="M653 1126l-98 -309l70 94q101 52 227 52q185 0 289 -103t104 -287q0 -144 -55 -260.5t-148 -190t-211 -112.5t-249 -39q-248 0 -375.5 103.5t-110.5 322.5v21h369v-21q-6 -73 29.5 -114t109.5 -41q117 0 182.5 78.5t65.5 191.5q0 81 -41.5 130.5t-120.5 49.5
q-69 0 -117.5 -30.5t-85.5 -96.5h-340l261 848h935l-49 -287h-641z" />
    <glyph glyph-name="six" unicode="6" 
d="M877 1442q231 0 342 -108t102 -302l-2 -20h-369v20q-9 73 -42.5 106t-98.5 33q-104 0 -177 -103.5t-120 -322.5l88 127q61 42 122 58t140 16q100 0 176 -28.5t121.5 -79.5t68.5 -116t23 -142q0 -115 -37.5 -214.5t-102 -171t-150 -122.5t-181.5 -76t-196 -25
q-233 0 -355.5 129.5t-122.5 362.5q0 219 59 403t161.5 310t244.5 196t306 70zM698 676q-91 0 -159 -72t-68 -190q0 -79 41 -125.5t115 -46.5q104 0 166.5 77t62.5 183q0 81 -41.5 127.5t-116.5 46.5z" />
    <glyph glyph-name="seven" unicode="7" 
d="M1407 1413l-37 -205l-868 -1208h-404l822 1126h-713l51 287h1149z" />
    <glyph glyph-name="eight" unicode="8" 
d="M1018 750q94 -35 153.5 -109t59.5 -184q0 -123 -51 -218t-141.5 -153t-208.5 -87.5t-259 -29.5q-501 0 -501 355q0 88 29 162t79 124.5t107.5 84.5t124.5 55q-156 62 -156 233q0 201 162 330t440 129q220 0 337.5 -93t117.5 -247q0 -266 -293 -352zM748 872
q77 0 129.5 48.5t52.5 132.5q0 56 -34 87t-95 31q-71 0 -121.5 -47.5t-50.5 -130.5q0 -59 31.5 -90t87.5 -31zM623 240q116 0 171.5 57.5t55.5 155.5q0 73 -42.5 114t-121.5 41q-94 0 -160.5 -60.5t-66.5 -160.5q0 -70 43 -108.5t121 -38.5z" />
    <glyph glyph-name="nine" unicode="9" 
d="M821 1442q233 0 355 -129t122 -363q0 -219 -58.5 -403t-161 -310t-244.5 -196t-306 -70q-231 0 -342 108t-102 302l2 20h369v-20q9 -73 42.5 -106t98.5 -33q104 0 177 103.5t120 322.5l-88 -127q-61 -42 -122 -58t-140 -16q-100 0 -176 28.5t-121.5 79.5t-68.5 116.5
t-23 142.5q0 115 37.5 214.5t102 170.5t150 122t181.5 76t196 25zM707 737q91 0 159 72t68 190q0 79 -41 125.5t-115 46.5q-104 0 -166.5 -77t-62.5 -183q0 -81 41.5 -127.5t116.5 -46.5z" />
    <glyph glyph-name="colon" unicode=":" horiz-adv-x="579" 
d="M381 1122q74 0 123 -41t49 -116q0 -115 -68 -183.5t-178 -68.5q-73 0 -122.5 41t-49.5 116q0 115 68 183.5t178 68.5zM250 381q74 0 123 -41.5t49 -116.5q0 -115 -68 -183.5t-178 -68.5q-73 0 -122.5 41.5t-49.5 116.5q0 115 68 183.5t178 68.5z" />
    <glyph glyph-name="semicolon" unicode=";" horiz-adv-x="579" 
d="M381 1122q74 0 123 -41t49 -116q0 -115 -68 -183.5t-178 -68.5q-73 0 -122.5 41t-49.5 116q0 115 68 183.5t178 68.5zM401 311l-323 -565h-283l271 606h342z" />
    <glyph glyph-name="less" unicode="&#x3c;" 
d="M1227 803l-772 -260l682 -258l-43 -244l-901 362l49 279l1028 362z" />
    <glyph glyph-name="equal" unicode="=" 
d="M1223 764h-1004l31 180h1003zM1151 354h-1004l31 181h1004z" />
    <glyph glyph-name="greater" unicode="&#x3e;" 
d="M1122 682l-49 -279l-1028 -362l43 242l772 260l-682 258l43 243z" />
    <glyph glyph-name="question" unicode="?" horiz-adv-x="1310" 
d="M856 1442q210 0 324 -86.5t114 -243.5q0 -140 -62 -231t-228 -209q-91 -66 -132 -114.5t-65 -127.5h-299q25 119 67 189t125 145q119 106 160 164t41 127q0 116 -121 116q-139 0 -184 -200h-369q44 220 212.5 345.5t416.5 125.5zM637 336q78 0 123 -42t45 -114
q0 -82 -56 -145.5t-157 -63.5q-78 0 -123 42t-45 114q0 83 56.5 146t156.5 63z" />
    <glyph glyph-name="at" unicode="@" horiz-adv-x="1904" 
d="M1417 967l-65 -273q-39 -164 -39 -225q0 -133 84 -133q80 0 133 96t53 268q0 253 -154.5 397t-424.5 144q-109 0 -212.5 -28.5t-194 -87.5t-159 -142t-108 -200.5t-39.5 -254.5q0 -282 158 -444t458 -162q272 0 457 133l76 -172q-124 -80 -270.5 -118.5t-290.5 -38.5
q-115 0 -225.5 25.5t-217.5 86t-187.5 149t-129.5 224.5t-49 303q0 197 74.5 369.5t201 293.5t300 191t366.5 70q152 0 282 -39.5t222.5 -108t158.5 -159.5t97.5 -195t31.5 -215q0 -125 -25.5 -224t-69.5 -165.5t-106 -110t-133 -63t-153 -19.5q-243 0 -311 203l-64 -129
q-77 -61 -180 -61q-45 0 -84 10t-75 35t-61.5 64t-41 99.5t-15.5 137.5q0 221 109 363.5t280 142.5q57 0 98 -16.5t60 -41.5l35 -108l41 129h309zM891 401q67 0 92 107l33 145q9 45 -4.5 73t-50.5 28q-58 0 -99 -65.5t-41 -166.5q0 -121 70 -121z" />
    <glyph glyph-name="A" unicode="A" horiz-adv-x="1447" 
d="M928 367h-445l-180 -367h-391l745 1413h478l247 -1413h-401zM887 653l-60 418l-204 -418h264z" />
    <glyph glyph-name="B" unicode="B" horiz-adv-x="1376" 
d="M1092 764q213 -72 213 -309q0 -82 -30.5 -153t-79.5 -120.5t-113.5 -87t-131 -58t-133.5 -28.5q-74 -8 -211 -8h-563l250 1413h579q109 0 181 -8q146 -18 225.5 -102t79.5 -205q0 -120 -67.5 -206.5t-198.5 -127.5zM610 1126l-47 -270h166q49 0 92 6q140 20 140 156
q0 89 -93 102q-40 6 -92 6h-166zM754 289q61 3 111 51t50 123q0 56 -33 88t-85 37q-27 2 -92 2h-189l-53 -303h199q63 0 92 2z" />
    <glyph glyph-name="C" unicode="C" horiz-adv-x="1570" 
d="M954 1442q148 0 262 -38t183.5 -105t102 -156t24.5 -195l-2 -20h-369v20q-6 223 -233 223q-82 0 -155 -38.5t-129 -111t-89 -186.5t-33 -255q0 -175 67.5 -256.5t176.5 -81.5q107 0 186.5 63t122.5 180l8 21h369l-6 -21q-69 -251 -258.5 -382.5t-460.5 -131.5
t-431.5 151.5t-160.5 432.5q0 201 67 370t180.5 281t263 174t314.5 62z" />
    <glyph glyph-name="D" unicode="D" horiz-adv-x="1519" 
d="M1004 1405q223 -26 357 -174t134 -418q0 -157 -46 -294t-135.5 -246t-232 -179.5t-323.5 -87.5q-74 -6 -183 -6h-532l250 1413h514q127 0 197 -8zM721 291q96 9 171 53.5t121 114t69.5 157t23.5 187.5q0 155 -61 231.5t-179 87.5q-47 4 -133 4h-123l-147 -839h125
q86 0 133 4z" />
    <glyph glyph-name="E" unicode="E" horiz-adv-x="1286" 
d="M610 1126l-47 -274h654l-52 -287h-653l-49 -278h715l-52 -287h-1083l250 1413h1063l-51 -287h-695z" />
    <glyph glyph-name="F" unicode="F" horiz-adv-x="1236" 
d="M610 1126l-47 -274h633l-51 -287h-633l-100 -565h-369l250 1413h1063l-51 -287h-695z" />
    <glyph glyph-name="G" unicode="G" horiz-adv-x="1593" 
d="M995 1442q147 0 258.5 -37.5t177.5 -105t95.5 -156.5t21.5 -195l-2 -20h-368v20q-6 223 -234 223q-83 0 -158.5 -37.5t-135.5 -108.5t-96 -185t-36 -256q0 -177 71.5 -259.5t188.5 -82.5q216 0 328 225h-275l52 287h622l-133 -754h-287l5 219l-91 -158q-66 -50 -145 -70
t-195 -20q-247 0 -389.5 148t-142.5 422q0 172 48 319.5t131 253t193.5 180.5t236.5 111.5t259 36.5z" />
    <glyph glyph-name="H" unicode="H" horiz-adv-x="1560" 
d="M1595 1413l-249 -1413h-369l96 549h-565l-96 -549h-369l250 1413h369l-103 -577h565l103 577h368z" />
    <glyph glyph-name="I" unicode="I" horiz-adv-x="626" 
d="M412 0h-369l250 1413h369z" />
    <glyph glyph-name="J" unicode="J" horiz-adv-x="1300" 
d="M1303 1413l-142 -801q-15 -98 -43 -215q-98 -426 -618 -426q-253 0 -373.5 137t-87.5 371l8 62h369l-6 -62q-14 -130 25.5 -183.5t123.5 -53.5q148 0 197 178q11 42 28 135l150 858h369z" />
    <glyph glyph-name="K" unicode="K" horiz-adv-x="1464" 
d="M893 731l479 -731h-457l-309 545l-119 -111l-75 -434h-369l250 1413h369l-111 -625l649 625h440z" />
    <glyph glyph-name="L" unicode="L" horiz-adv-x="1261" 
d="M1182 311l-56 -311h-1083l250 1413h369l-195 -1102h715z" />
    <glyph glyph-name="M" unicode="M" horiz-adv-x="1873" 
d="M1909 1413l-250 -1413h-369l187 1036l-412 -1036h-428l-45 1036l-180 -1036h-369l250 1413h600l33 -1016l368 1016h615z" />
    <glyph glyph-name="N" unicode="N" horiz-adv-x="1609" 
d="M1645 1413l-250 -1413h-482l-338 936l-163 -936h-369l250 1413h459l354 -977l170 977h369z" />
    <glyph glyph-name="O" unicode="O" horiz-adv-x="1654" 
d="M956 1442q159 0 287.5 -46.5t213 -129t130 -194t45.5 -243.5q0 -195 -64 -357.5t-175 -271.5t-261.5 -169t-322.5 -60q-159 0 -287.5 46.5t-213 129t-130 194t-45.5 243.5q0 195 64 357.5t175 271.5t261.5 169t322.5 60zM821 242q82 0 152.5 34.5t119.5 92.5t83.5 133
t50.5 155.5t16 161.5q0 160 -77.5 256t-221.5 96q-82 0 -152.5 -34.5t-119.5 -92.5t-83.5 -133t-50.5 -155.5t-16 -161.5q0 -160 77.5 -256t221.5 -96z" />
    <glyph glyph-name="P" unicode="P" horiz-adv-x="1329" 
d="M1026 1403q91 -10 166.5 -53.5t124.5 -125.5t49 -190q0 -118 -41 -215.5t-109.5 -161.5t-152.5 -102.5t-176 -48.5q-97 -10 -223 -10h-164l-88 -496h-369l250 1413h512q126 0 221 -10zM793 784q87 8 135.5 61t48.5 146q0 61 -32 94.5t-91 38.5q-27 2 -100 2h-142
l-61 -344h143q70 0 99 2z" />
    <glyph glyph-name="Q" unicode="Q" horiz-adv-x="1634" 
d="M1610 850q0 -199 -71 -360t-191 -240q87 -32 190 -115l-176 -233q-101 62 -163.5 86t-127.5 24q-71 0 -149 -22q-71 -19 -146 -19q-152 0 -274 43.5t-203 121.5t-124.5 187t-43.5 240q0 203 63 370t174.5 278t264.5 171t332 60q152 0 274 -43.5t203 -121.5t124.5 -187
t43.5 -240zM520 573q0 -157 69 -244t199 -87q88 0 161.5 37t123 97.5t83.5 139t49.5 160.5t15.5 164q0 157 -69 244t-200 87q-109 0 -195 -55.5t-136 -145.5t-75.5 -191.5t-25.5 -205.5z" />
    <glyph glyph-name="R" unicode="R" horiz-adv-x="1366" 
d="M1399 1094q0 -161 -92.5 -268.5t-270.5 -153.5q93 -40 130.5 -134t37.5 -266q0 -169 47 -272h-401q-14 106 -14 313q0 102 -33.5 160t-97.5 62q-41 2 -115 2h-84l-94 -537h-369l250 1413h561q126 0 219 -10q69 -8 126 -29t103 -57t71.5 -93t25.5 -130zM553 803h135
q71 0 98 2q211 15 211 192q0 64 -38.5 93t-106.5 34q-27 2 -98 2h-144z" />
    <glyph glyph-name="S" unicode="S" horiz-adv-x="1284" 
d="M778 1442q136 0 236.5 -35.5t158 -99.5t83 -146.5t20.5 -183.5h-369q3 92 -36.5 143t-127.5 51q-75 0 -121.5 -39t-46.5 -110q0 -59 60 -100.5t207 -77.5q368 -90 368 -377q0 -120 -53 -216t-143 -156t-203.5 -92t-239.5 -32q-130 0 -233.5 28t-177 83.5t-107.5 144.5
t-22 205h368q0 -94 60.5 -142t150.5 -48q86 0 145.5 42.5t59.5 108.5q0 51 -50 94.5t-155 71.5q-217 56 -323.5 143.5t-106.5 239.5q0 117 50 213.5t133.5 158t190.5 95t224 33.5z" />
    <glyph glyph-name="T" unicode="T" horiz-adv-x="1294" 
d="M1415 1126h-457l-198 -1126h-369l199 1126h-461l53 287h1286z" />
    <glyph glyph-name="U" unicode="U" horiz-adv-x="1472" 
d="M1546 1413l-131 -751q-20 -115 -45 -220q-21 -87 -54 -155.5t-86.5 -129t-125 -100.5t-173.5 -63t-229 -23q-281 0 -427 115t-146 299q0 95 35 297l129 731h369l-152 -860q-12 -67 -12 -119q0 -92 65.5 -142t165.5 -50q114 0 182 51t99 176q9 36 16 84l152 860h368z" />
    <glyph glyph-name="V" unicode="V" horiz-adv-x="1519" 
d="M944 0h-477l-248 1413h402l139 -1128l538 1128h392z" />
    <glyph glyph-name="W" unicode="W" horiz-adv-x="2080" 
d="M2261 1413l-604 -1413h-492v1034l-360 -1034h-494l-104 1413h379l26 -1096l355 1076h530l-31 -1094l387 1114h408z" />
    <glyph glyph-name="X" unicode="X" horiz-adv-x="1441" 
d="M928 702l407 -702h-420l-251 473l-363 -473h-444l649 721l-365 692h416l211 -467l369 467h424z" />
    <glyph glyph-name="Y" unicode="Y" horiz-adv-x="1398" 
d="M913 530l-94 -530h-368l96 543l-344 870h393l195 -565l368 565h408z" />
    <glyph glyph-name="Z" unicode="Z" horiz-adv-x="1327" 
d="M1360 1128l-838 -841h699l-52 -287h-1157l49 279l844 847h-637l51 287h1092z" />
    <glyph glyph-name="bracketleft" unicode="[" horiz-adv-x="839" 
d="M395 1597h559l-34 -196h-355l-241 -1368h354l-35 -197h-559z" />
    <glyph glyph-name="backslash" unicode="\" horiz-adv-x="708" 
d="M584 -61h-215l-244 1536h215z" />
    <glyph glyph-name="bracketright" unicode="]" horiz-adv-x="839" 
d="M492 -164h-560l35 197h355l241 1368h-354l35 196h559z" />
    <glyph glyph-name="asciicircum" unicode="^" 
d="M877 440l-132 621l-344 -621h-227l483 822h242l203 -822h-225z" />
    <glyph glyph-name="underscore" unicode="_" horiz-adv-x="1024" 
d="M905 -180h-819l33 196h819z" />
    <glyph glyph-name="grave" unicode="`" horiz-adv-x="614" 
d="M426 1165h-197l-272 256h328z" />
    <glyph glyph-name="a" unicode="a" horiz-adv-x="1206" 
d="M702 1122q227 0 331 -82.5t104 -222.5q0 -64 -31 -242l-53 -299q-22 -126 -29 -276h-360l4 162l-66 -117q-115 -74 -270 -74q-135 0 -221 75.5t-86 217.5q0 193 193 309t536 99l2 8q8 46 8 92q0 44 -25 72t-80 28q-64 0 -109.5 -39t-62.5 -110l-348 -2q23 125 105 217
t200.5 138t257.5 46zM514 221q62 0 119.5 45t71.5 125l12 74q-141 17 -226 -24t-85 -126q0 -94 108 -94z" />
    <glyph glyph-name="b" unicode="b" horiz-adv-x="1390" 
d="M924 1122q207 0 318.5 -109.5t111.5 -322.5q0 -113 -25.5 -218t-78.5 -196.5t-128.5 -159t-182 -106.5t-232.5 -39q-69 0 -137.5 15t-104.5 39l-53 122l-27 -147h-369l267 1505h368l-102 -573l106 123q101 67 269 67zM670 221q126 0 210.5 121.5t84.5 288.5
q0 121 -51 181t-140 60q-108 0 -184 -75t-105 -236l2 23l-4 -23l-8 -47l-4 -18l6 18q-6 -45 -7 -87t11.5 -79.5t34 -65.5t61.5 -44.5t93 -16.5z" />
    <glyph glyph-name="c" unicode="c" horiz-adv-x="1241" 
d="M719 1114q249 0 373.5 -122t124.5 -324h-357q0 97 -44.5 146.5t-123.5 49.5q-80 0 -140.5 -61.5t-90 -157.5t-29.5 -209q0 -101 43 -158t111 -57q161 0 223 180h362q-149 -430 -614 -430q-113 0 -205 27.5t-162 83t-108.5 146.5t-38.5 212q0 190 84 343.5t239 242
t353 88.5z" />
    <glyph glyph-name="d" unicode="d" horiz-adv-x="1390" 
d="M1448 1505l-266 -1505h-369l29 160l-105 -121q-103 -68 -268 -68q-207 0 -318.5 109.5t-111.5 322.5q0 113 25.5 218t78.5 196.5t128.5 159t182 106.5t232.5 39q70 0 138 -14.5t104 -38.5l53 -121l98 557h369zM907 532l8 48q12 55 6.5 107.5t-24 93.5t-63.5 66t-111 25
q-126 0 -210.5 -121t-84.5 -288q0 -122 51 -182t139 -60q108 0 184 75t105 236z" />
    <glyph glyph-name="e" unicode="e" horiz-adv-x="1253" 
d="M412 455v-31q0 -203 163 -203q77 0 131 36.5t76 100.5h363q-65 -187 -217.5 -287t-374.5 -100q-107 0 -196 25t-161 77.5t-112.5 143t-40.5 211.5q0 156 51 287t139.5 219.5t210.5 138t263 49.5q126 0 224 -36.5t157 -100t88.5 -143.5t29.5 -172q0 -106 -37 -215h-757z
M676 872q-70 0 -128 -50.5t-93 -141.5h374q2 12 2 22q0 80 -38 125t-117 45z" />
    <glyph glyph-name="f" unicode="f" horiz-adv-x="714" 
d="M606 1176q-12 -45 -18 -80l-2 -11h223l-39 -229h-223l-150 -856h-368l151 856h-98l39 229h98l2 9q10 55 27 118q84 332 416 332q155 0 243 -16l-43 -240q-38 6 -67 6q-73 0 -123.5 -30t-67.5 -88z" />
    <glyph glyph-name="g" unicode="g" horiz-adv-x="1392" 
d="M1376 1094l-143 -815q-13 -71 -41 -211q-57 -270 -227 -394.5t-492 -124.5q-247 0 -372.5 98t-112.5 285l2 21h356l-2 -21q-3 -53 47.5 -82.5t138.5 -29.5q108 0 183 50.5t102 156.5q16 65 29 143l2 6l-109 -125q-101 -67 -268 -67q-204 0 -317 110.5t-113 308.5
q0 113 25.5 218t78.5 196.5t128.5 159t182 106.5t232.5 39q70 0 138 -14.5t104 -38.5l53 -123l27 148h368zM618 233q235 0 289 299v-10l11 66l-3 -8q12 55 6.5 107.5t-24 93.5t-63.5 66t-111 25q-126 0 -210.5 -121t-84.5 -288q0 -230 190 -230z" />
    <glyph glyph-name="h" unicode="h" horiz-adv-x="1316" 
d="M930 1122q162 0 246 -76.5t84 -203.5q0 -67 -25 -211l-113 -631h-368l98 549q20 120 20 170q0 153 -145 153q-90 0 -155.5 -91t-98.5 -273l-88 -508h-369l267 1516h368l-102 -578l123 121q117 63 258 63z" />
    <glyph glyph-name="i" unicode="i" horiz-adv-x="593" 
d="M471 1538q78 0 123 -41t45 -113q0 -82 -55.5 -144t-157.5 -62q-78 0 -123 40.5t-45 112.5q0 82 56 144.5t157 62.5zM385 0h-369l195 1094h369z" />
    <glyph glyph-name="j" unicode="j" horiz-adv-x="552" 
d="M420 1538q88 0 135 -39.5t47 -109.5q0 -211 -207 -211q-88 0 -135 39.5t-47 109.5q0 211 207 211zM545 1094l-187 -1061q-9 -60 -28 -131q-39 -162 -159.5 -247t-348.5 -85q-74 0 -121 8l43 248q101 -11 152 12.5t71 93.5q13 47 23 99l186 1063h369z" />
    <glyph glyph-name="k" unicode="k" horiz-adv-x="1312" 
d="M842 584l403 -584h-448l-248 410l-109 -93l-55 -317h-369l267 1505h368l-153 -868l465 457h432z" />
    <glyph glyph-name="l" unicode="l" horiz-adv-x="626" 
d="M645 1505l-199 -1112q-14 -79 -14 -110q0 -42 23.5 -54.5t85.5 -9.5l-41 -227q-86 -12 -197 -12q-133 0 -194.5 39.5t-61.5 127.5q0 76 29 240l200 1118h369z" />
    <glyph glyph-name="m" unicode="m" horiz-adv-x="1978" 
d="M1587 1122q169 0 253.5 -76.5t84.5 -195.5q0 -59 -27 -211l-112 -639h-369l99 557q18 110 18 170q0 70 -29.5 107.5t-87.5 37.5q-78 0 -142 -81t-87 -213l-103 -578h-368l98 557q19 135 19 170q0 145 -129 145q-75 0 -134.5 -78.5t-83.5 -215.5l-102 -578h-369l193 1094
h369l-27 -152l108 117q117 63 248 63q128 0 206 -53.5t101 -142.5l105 116q63 45 125.5 62.5t142.5 17.5z" />
    <glyph glyph-name="n" unicode="n" horiz-adv-x="1316" 
d="M930 1122q162 0 246 -76.5t84 -203.5q0 -67 -25 -211l-113 -631h-368l98 549q20 120 20 170q0 153 -145 153q-90 0 -155.5 -91t-98.5 -273l-88 -508h-369l193 1094h369l-29 -156l123 121q117 63 258 63z" />
    <glyph glyph-name="o" unicode="o" horiz-adv-x="1308" 
d="M727 1122q259 0 398 -132t139 -355q0 -134 -44 -252.5t-127 -211t-214.5 -146.5t-294.5 -54q-259 0 -398 132.5t-139 355.5q0 134 44 252.5t127 210.5t214.5 146t294.5 54zM610 221q84 0 145.5 59.5t90 149.5t28.5 197q0 112 -44 178.5t-130 66.5q-84 0 -145.5 -59
t-90 -149t-28.5 -197q0 -112 44 -179t130 -67z" />
    <glyph glyph-name="p" unicode="p" horiz-adv-x="1390" 
d="M924 1122q207 0 318.5 -109.5t111.5 -322.5q0 -113 -25.5 -218t-78.5 -196.5t-128.5 -159t-182 -106.5t-232.5 -39q-69 0 -137.5 15t-104.5 39l-53 122l-99 -548h-368l266 1495h369l-29 -160l104 121q101 67 269 67zM670 221q126 0 210.5 121.5t84.5 288.5q0 121 -51 181
t-140 60q-108 0 -184 -75t-105 -236l-8 -47q-6 -45 -7 -87t11.5 -79.5t34 -65.5t61.5 -44.5t93 -16.5z" />
    <glyph glyph-name="q" unicode="q" horiz-adv-x="1390" 
d="M1376 1094l-266 -1495h-369l101 561l-105 -121q-103 -68 -268 -68q-207 0 -318.5 109.5t-111.5 322.5q0 113 25.5 218t78.5 196.5t128.5 159t182 106.5t232.5 39q70 0 138 -14.5t104 -38.5l53 -123l27 148h368zM907 532l8 48q12 55 6.5 107.5t-24 93.5t-63.5 66t-111 25
q-126 0 -210.5 -121t-84.5 -288q0 -122 51 -182t139 -60q108 0 184 75t105 236z" />
    <glyph glyph-name="r" unicode="r" horiz-adv-x="851" 
d="M877 1122q43 0 81 -6l-51 -301q-49 7 -97 3.5t-91.5 -14t-83.5 -40.5t-73 -75.5t-60 -118.5t-45 -169l-72 -401h-369l191 1085h368l-36 -215l106 156q50 47 113 71.5t119 24.5z" />
    <glyph glyph-name="s" unicode="s" horiz-adv-x="1054" 
d="M578 1114q225 0 336.5 -94.5t121.5 -253.5h-360q-8 57 -36.5 88t-74.5 31q-42 0 -67 -21t-25 -55q0 -52 42 -82t179 -76q162 -56 232.5 -132.5t70.5 -199.5q0 -170 -143.5 -265t-374.5 -95q-230 0 -362.5 94t-141.5 275h363q7 -71 49 -105.5t105 -34.5q55 0 87.5 24
t32.5 69q0 48 -48.5 84t-188.5 86q-72 26 -120.5 51t-88 61t-58 85t-18.5 114q0 149 128.5 250.5t359.5 101.5z" />
    <glyph glyph-name="t" unicode="t" horiz-adv-x="808" 
d="M594 856l-72 -403q-14 -77 -14 -125q0 -69 49 -91t162 -8l-41 -231q-129 -27 -256 -27q-163 0 -233 51t-70 160q0 78 24 217l82 457h-166l41 229h164l51 283h369l-49 -283h237l-41 -229h-237z" />
    <glyph glyph-name="u" unicode="u" horiz-adv-x="1308" 
d="M1292 1094l-192 -1094h-369l29 156l-123 -121q-119 -64 -258 -64q-161 0 -245.5 77t-84.5 204q0 67 25 211l112 631h369l-98 -549q-21 -126 -21 -170q0 -154 146 -154q90 0 155.5 91.5t98.5 273.5l88 508h368z" />
    <glyph glyph-name="v" unicode="v" horiz-adv-x="1196" 
d="M1325 1094l-620 -1094h-408l-234 1094h410l86 -783l363 783h403z" />
    <glyph glyph-name="w" unicode="w" horiz-adv-x="1728" 
d="M1858 1094l-539 -1094h-412l-10 743l-268 -743h-412l-154 1094h406l12 -764l260 755h439l8 -759l272 768h398z" />
    <glyph glyph-name="x" unicode="x" horiz-adv-x="1185" 
d="M780 545l312 -545h-430l-136 301l-223 -301h-424l490 545l-283 549h430l111 -303l229 303h424z" />
    <glyph glyph-name="y" unicode="y" horiz-adv-x="1196" 
d="M1325 1094l-620 -1094q-135 -237 -265.5 -333.5t-316.5 -96.5q-80 0 -154 12l39 234q50 -9 103 -9q124 0 188 125l8 19l-244 1143h410l86 -785l363 785h403z" />
    <glyph glyph-name="z" unicode="z" horiz-adv-x="1112" 
d="M1100 860l-660 -631h566l-39 -229h-1010l37 215l665 641h-503l39 229h944z" />
    <glyph glyph-name="braceleft" unicode="{" horiz-adv-x="880" 
d="M864 1597l-35 -196h-45q-36 0 -59 -5t-43.5 -20.5t-31.5 -45t-17 -76.5t-6 -117q0 -204 -45.5 -298.5t-175.5 -119.5q137 -36 137 -160q0 -109 -62 -262q-42 -106 -52.5 -138t-10.5 -61q0 -40 27.5 -52.5t97.5 -12.5h45l-35 -197h-104q-122 0 -181 60.5t-59 154.5
q0 55 13 99.5t61 166.5q51 128 51 209q0 85 -148 92l33 197q53 3 86.5 12.5t58 28t36.5 54t17 83.5t5 123q1 191 32 293t102 145t204 43h104z" />
    <glyph glyph-name="bar" unicode="|" horiz-adv-x="681" 
d="M272 -410h-237l360 2048h238z" />
    <glyph glyph-name="braceright" unicode="}" horiz-adv-x="880" 
d="M549 907q0 -85 147 -92l-32 -197q-53 -3 -86.5 -12.5t-58 -28t-36.5 -54t-17 -83.5t-5 -123q-1 -191 -32 -293t-102 -145t-204 -43h-105l35 197h45q61 0 92 17t48.5 75t17.5 172q0 204 45.5 298.5t175.5 119.5q-137 36 -137 159q0 112 61 263q4 11 12 30q47 118 51 147
q1 10 1 21q0 41 -28 53.5t-97 12.5h-45l35 196h104q122 0 181 -60.5t59 -154.5q0 -55 -13 -99.5t-61 -166.5q-51 -128 -51 -209z" />
    <glyph glyph-name="asciitilde" unicode="~" 
d="M1014 831h196q-66 -374 -336 -374q-60 0 -109.5 18.5t-133.5 65.5q-72 41 -107 56t-65 15q-51 0 -78 -37.5t-41 -117.5h-197q65 374 336 374q63 0 114 -19t130 -64q72 -42 105.5 -57t66.5 -15q48 0 76 35t43 120z" />
    <glyph glyph-name="exclamdown" unicode="&#xa1;" horiz-adv-x="573" 
d="M303 758q-78 0 -123 41.5t-45 113.5q0 82 56 145.5t157 63.5q78 0 123 -41.5t45 -113.5q0 -83 -56.5 -146t-156.5 -63zM137 664h283l-182 -983h-332z" />
    <glyph glyph-name="cent" unicode="&#xa2;" 
d="M840 831l-105 -583q81 46 117 153h362q-134 -389 -526 -426l-29 -159h-204l28 164q-184 26 -290.5 140.5t-106.5 319.5q0 270 165 457t433 213l29 160h205l-29 -166q186 -30 278.5 -146t92.5 -290h-357q0 115 -63 163zM475 436q0 -119 57 -176l103 576
q-75 -46 -117.5 -156.5t-42.5 -243.5z" />
    <glyph glyph-name="sterling" unicode="&#xa3;" horiz-adv-x="1290" 
d="M653 592v-8q0 -88 -49.5 -169t-148.5 -128h692l-51 -287h-1116l45 254q74 13 127 42t81.5 69.5t41 83t12.5 90.5q0 13 -4 53h-181l31 180h100q-30 95 -30 189q0 100 38 187.5t108.5 153t177.5 103t237 37.5q106 0 189 -25t135 -65.5t87 -98.5t50 -116.5t20 -126.5h-368
q-2 70 -36 115.5t-93 45.5q-79 0 -121.5 -56t-42.5 -134q0 -91 41 -209h397l-31 -180h-338z" />
    <glyph glyph-name="currency" unicode="&#xa4;" 
d="M1149 911l-127 -110q33 -78 33 -160q0 -119 -86 -235l86 -107l-123 -104l-88 102q-87 -49 -195 -49q-123 0 -207 65l-123 -100l-92 113l123 106q-33 67 -33 160q0 122 80 231l-84 105l133 112l84 -98q87 46 193 43q122 -3 205 -67l129 106zM668 440q87 0 132.5 59
t45.5 132q0 74 -36 118t-105 44q-60 0 -102 -31t-59.5 -73t-17.5 -87q0 -74 36.5 -118t105.5 -44z" />
    <glyph glyph-name="yen" unicode="&#xa5;" 
d="M977 778h213l-35 -196h-307l-21 -117h308l-35 -197h-307l-48 -268h-368l47 268h-307l35 197h307l20 117h-307l35 196h215l-240 635h381l148 -614l358 614h371z" />
    <glyph glyph-name="brokenbar" unicode="&#xa6;" horiz-adv-x="649" 
d="M438 717h-205l123 696h205zM254 -328h-205l123 697h205z" />
    <glyph glyph-name="section" unicode="&#xa7;" 
d="M1268 496q0 -95 -63 -184.5t-181 -145.5q37 -64 37 -141q0 -173 -145.5 -277t-387.5 -104q-210 0 -339.5 93.5t-149.5 274.5h362q4 -63 42.5 -101t97.5 -38q62 0 100.5 28t38.5 91q0 66 -59.5 113.5t-219.5 103.5q-163 56 -245 139t-82 211q0 110 56.5 205t170.5 154
q-27 64 -27 145q0 65 33 130.5t93.5 121.5t157.5 91.5t212 35.5q213 0 323.5 -97t131.5 -268h-363q-3 67 -28.5 101t-67.5 34q-57 0 -84 -41t-27 -94q0 -69 47.5 -104.5t180.5 -75.5q199 -61 292 -155t93 -246zM631 438q111 -38 192 -86q64 40 64 123q0 55 -44 91.5
t-155 76.5q-113 41 -178 76q-55 -40 -55 -119q0 -100 176 -162z" />
    <glyph glyph-name="dieresis" unicode="&#xa8;" horiz-adv-x="614" 
d="M100 1464q65 0 101.5 -32t36.5 -93q0 -80 -51.5 -127t-116.5 -47q-67 0 -103.5 32.5t-36.5 92.5q0 80 52 127t118 47zM510 1464q65 0 101 -32t36 -93q0 -80 -51.5 -127t-116.5 -47q-67 0 -103 32.5t-36 92.5q0 80 52 127t118 47z" />
    <glyph glyph-name="copyright" unicode="&#xa9;" horiz-adv-x="1761" 
d="M881 1554q245 0 438.5 -105t301.5 -294t108 -428t-108 -428t-301.5 -294t-438.5 -105t-438.5 105t-301.5 294t-108 428t108 428t301.5 294t438.5 105zM881 1358q-275 0 -451 -177t-176 -454q0 -275 176 -451t451 -176t450.5 176t175.5 451q0 277 -175.5 454t-450.5 177z
M899 1192q194 0 306 -104t126 -281h-301q-13 176 -143 176q-77 0 -110.5 -64.5t-33.5 -189.5q0 -262 152 -262q56 0 92.5 42.5t40.5 133.5h301q-26 -180 -138 -282.5t-306 -102.5q-206 0 -331.5 125.5t-125.5 343.5q0 210 129 337.5t342 127.5z" />
    <glyph glyph-name="guillemotleft" unicode="&#xab;" horiz-adv-x="1390" 
d="M492 487l208 -319h-256l-221 340l340 340h289zM983 487l209 -319h-256l-221 340l340 340h288z" />
    <glyph glyph-name="logicalnot" unicode="&#xac;" 
d="M1059 352h-205l47 266h-639l35 197h844z" />
    <glyph glyph-name="registered" unicode="&#xae;" horiz-adv-x="995" 
d="M553 1565q177 0 281 -110.5t104 -270.5q0 -201 -140 -340t-356 -139q-177 0 -281 110t-104 270q0 97 36.5 185t101 153t158 103.5t200.5 38.5zM463 819q164 0 257 101.5t93 259.5q0 122 -75 196t-206 74q-164 0 -257 -101.5t-93 -258.5q0 -122 75 -196.5t206 -74.5z
M565 1364q64 -6 99.5 -36.5t35.5 -80.5q0 -44 -28.5 -73.5t-81.5 -40.5q53 -16 53 -95q0 -56 25 -110h-140q-13 44 -10 92q3 51 -47 51h-29l-24 -143h-123l78 438h137q37 0 55 -2zM524 1167q21 4 34 21t13 39q0 38 -32 45q-14 2 -39 2h-21l-18 -109h22q27 0 41 2z" />
    <glyph glyph-name="macron" unicode="&#xaf;" horiz-adv-x="614" 
d="M598 1194h-614l32 197h615z" />
    <glyph glyph-name="degree" unicode="&#xb0;" horiz-adv-x="665" 
d="M487 1534q121 0 192 -69.5t71 -180.5q0 -135 -93 -219t-223 -84q-124 0 -195 69.5t-71 180.5q0 135 93.5 219t225.5 84zM471 1354q-47 0 -78 -31t-31 -74q0 -41 23.5 -64.5t60.5 -23.5q47 0 78 31t31 74q0 41 -23.5 64.5t-60.5 23.5z" />
    <glyph glyph-name="plusminus" unicode="&#xb1;" 
d="M1120 750l-35 -197h-307l-53 -295h-205l53 295h-307l35 197h307l51 290h205l-51 -290h307zM201 180h819l-33 -180h-819z" />
    <glyph glyph-name="acute" unicode="&#xb4;" horiz-adv-x="614" 
d="M371 1165h-197l232 256h327z" />
    <glyph glyph-name="paragraph" unicode="&#xb6;" horiz-adv-x="1271" 
d="M1313 1413l-291 -1638h-205l256 1442h-231l-256 -1442h-205l156 880q-80 0 -115 2q-83 5 -144 54.5t-89.5 120.5t-28.5 153q0 54 14 109.5t45 111t76 99t112.5 72.5t147.5 34q37 2 117 2h641z" />
    <glyph glyph-name="periodcentered" unicode="&#xb7;" horiz-adv-x="573" 
d="M342 829q74 0 123 -41t49 -116q0 -115 -68 -183.5t-178 -68.5q-73 0 -122.5 41.5t-49.5 116.5q0 114 68 182.5t178 68.5z" />
    <glyph glyph-name="cedilla" unicode="&#xb8;" horiz-adv-x="614" 
d="M451 18l-72 -104q172 -24 172 -141q0 -99 -92 -151t-230 -52q-121 0 -176 14l27 142q56 -15 117 -15q131 0 131 60q0 63 -189 49l131 198h181z" />
    <glyph glyph-name="guillemotright" unicode="&#xbb;" horiz-adv-x="1415" 
d="M662 508l-340 -340h-289l360 360l-209 320h256zM1153 508l-340 -340h-289l361 360l-209 320h256z" />
    <glyph glyph-name="questiondown" unicode="&#xbf;" horiz-adv-x="1044" 
d="M492 758q-78 0 -123 41.5t-45 113.5q0 82 56 145.5t157 63.5q78 0 123 -41.5t45 -113.5q0 -83 -56.5 -146t-156.5 -63zM272 -348q-210 0 -324 86.5t-114 243.5q0 140 62.5 231t228.5 209q91 66 132 114.5t65 127.5h299q-25 -119 -67.5 -189t-125.5 -145
q-119 -106 -160 -164t-41 -127q0 -117 121 -117q139 0 184 201h369q-44 -220 -212.5 -345.5t-416.5 -125.5z" />
    <glyph glyph-name="Agrave" unicode="&#xc0;" horiz-adv-x="1447" 
d="M842 1505l-273 256h328l141 -256h-196zM928 367h-445l-180 -367h-391l745 1413h478l247 -1413h-401zM887 653l-60 418l-204 -418h264z" />
    <glyph glyph-name="Aacute" unicode="&#xc1;" horiz-adv-x="1447" 
d="M999 1505h-196l231 256h328zM928 367h-445l-180 -367h-391l745 1413h478l247 -1413h-401zM887 653l-60 418l-204 -418h264z" />
    <glyph glyph-name="Acircumflex" unicode="&#xc2;" horiz-adv-x="1447" 
d="M846 1505h-211l172 256h305l82 -256h-213l-39 148zM928 367h-445l-180 -367h-391l745 1413h478l247 -1413h-401zM887 653l-60 418l-204 -418h264z" />
    <glyph glyph-name="Atilde" unicode="&#xc3;" horiz-adv-x="1447" 
d="M823 1583q-36 0 -47 -63h-196q27 147 73.5 210.5t139.5 63.5q74 0 172 -43q63 -27 96 -27q32 0 43 64h196q-27 -148 -74 -211.5t-139 -63.5q-73 0 -172 43q-65 27 -92 27zM928 367h-445l-180 -367h-391l745 1413h478l247 -1413h-401zM887 653l-60 418l-204 -418h264z" />
    <glyph glyph-name="Adieresis" unicode="&#xc4;" horiz-adv-x="1447" 
d="M713 1479q-67 0 -103.5 32.5t-36.5 92.5q0 80 52 127t118 47q65 0 101.5 -32t36.5 -93q0 -80 -51.5 -127t-116.5 -47zM1122 1479q-67 0 -103 32.5t-36 92.5q0 80 52 127t118 47q65 0 101 -32t36 -93q0 -80 -51.5 -127t-116.5 -47zM928 367h-445l-180 -367h-391l745 1413
h478l247 -1413h-401zM887 653l-60 418l-204 -418h264z" />
    <glyph glyph-name="Aring" unicode="&#xc5;" horiz-adv-x="1447" 
d="M911 1479q-94 0 -153.5 53.5t-59.5 134.5q0 108 77.5 175t203.5 67q94 0 154.5 -54t60.5 -135q0 -107 -78.5 -174t-204.5 -67zM961 1774q-36 0 -63.5 -28.5t-27.5 -70.5q0 -28 17 -44.5t45 -16.5q36 0 63 28t27 70q0 28 -16.5 45t-44.5 17zM928 367h-445l-180 -367h-391
l745 1413h478l247 -1413h-401zM887 653l-60 418l-204 -418h264z" />
    <glyph glyph-name="AE" unicode="&#xc6;" horiz-adv-x="2041" 
d="M1303 1126l-17 -274h686l-51 -287h-651l-17 -278h680l-51 -287h-1016l27 428h-406l-278 -428h-391l985 1413h1308l-51 -287h-757zM911 715l23 397l-258 -397h235z" />
    <glyph glyph-name="Ccedilla" unicode="&#xc7;" horiz-adv-x="1570" 
d="M954 1442q148 0 262 -38t183.5 -105t102 -156t24.5 -195l-2 -20h-369v20q-6 223 -233 223q-82 0 -155 -38.5t-129 -111t-89 -186.5t-33 -255q0 -175 67.5 -256.5t176.5 -81.5q107 0 186.5 63t122.5 180l8 21h369l-6 -21q-66 -240 -243 -371.5t-431 -142.5l-41 -57
q172 -24 172 -141q0 -99 -92 -151t-230 -52q-121 0 -176 14l27 142q56 -15 117 -15q131 0 131 60q0 63 -189 49l107 162q-216 33 -339.5 180.5t-123.5 392.5q0 201 67 370t180.5 281t263 174t314.5 62z" />
    <glyph glyph-name="Egrave" unicode="&#xc8;" horiz-adv-x="1286" 
d="M770 1505l-272 256h327l142 -256h-197zM610 1126l-47 -274h654l-52 -287h-653l-49 -278h715l-52 -287h-1083l250 1413h1063l-51 -287h-695z" />
    <glyph glyph-name="Eacute" unicode="&#xc9;" horiz-adv-x="1286" 
d="M928 1505h-197l232 256h327zM610 1126l-47 -274h654l-52 -287h-653l-49 -278h715l-52 -287h-1083l250 1413h1063l-51 -287h-695z" />
    <glyph glyph-name="Ecircumflex" unicode="&#xca;" horiz-adv-x="1286" 
d="M774 1505h-211l172 256h305l82 -256h-213l-39 148zM610 1126l-47 -274h654l-52 -287h-653l-49 -278h715l-52 -287h-1083l250 1413h1063l-51 -287h-695z" />
    <glyph glyph-name="Edieresis" unicode="&#xcb;" horiz-adv-x="1286" 
d="M641 1479q-67 0 -103 32.5t-36 92.5q0 80 52 127t118 47q65 0 101 -32t36 -93q0 -80 -51.5 -127t-116.5 -47zM1051 1479q-67 0 -103.5 32.5t-36.5 92.5q0 80 52 127t118 47q65 0 101.5 -32t36.5 -93q0 -80 -51.5 -127t-116.5 -47zM610 1126l-47 -274h654l-52 -287h-653
l-49 -278h715l-52 -287h-1083l250 1413h1063l-51 -287h-695z" />
    <glyph glyph-name="Igrave" unicode="&#xcc;" horiz-adv-x="626" 
d="M618 1505h-196l-272 256h327zM412 0h-369l250 1413h369z" />
    <glyph glyph-name="Iacute" unicode="&#xcd;" horiz-adv-x="626" 
d="M580 1505h-197l231 256h328zM412 0h-369l250 1413h369z" />
    <glyph glyph-name="Icircumflex" unicode="&#xce;" horiz-adv-x="626" 
d="M426 1505h-211l172 256h305l82 -256h-213l-39 148zM293 1413h369l-250 -1413h-369z" />
    <glyph glyph-name="Idieresis" unicode="&#xcf;" horiz-adv-x="626" 
d="M324 1778q65 0 101 -32t36 -93q0 -80 -51.5 -127t-116.5 -47q-67 0 -103 32.5t-36 92.5q0 80 52 127t118 47zM733 1778q65 0 101 -32t36 -93q0 -80 -51.5 -127t-116.5 -47q-67 0 -103 32.5t-36 92.5q0 80 52 127t118 47zM412 0h-369l250 1413h369z" />
    <glyph glyph-name="Eth" unicode="&#xd0;" horiz-adv-x="1519" 
d="M1004 1405q223 -26 357 -174t134 -418q0 -157 -46 -294t-135.5 -246t-232 -179.5t-323.5 -87.5q-74 -6 -183 -6h-532l107 600h-123l34 197h123l109 616h514q127 0 197 -8zM721 291q96 9 171 53.5t121 114t69.5 157t23.5 187.5q0 155 -61 231.5t-179 87.5q-47 4 -133 4
h-123l-57 -329h205l-35 -197h-205l-55 -313h125q86 0 133 4z" />
    <glyph glyph-name="Ntilde" unicode="&#xd1;" horiz-adv-x="1609" 
d="M905 1583q-36 0 -47 -63h-196q27 148 73.5 211t138.5 63q75 0 173 -43q63 -27 96 -27q32 0 43 64h196q-27 -148 -74 -211.5t-139 -63.5q-73 0 -172 43q-64 27 -92 27zM1645 1413l-250 -1413h-482l-338 936l-163 -936h-369l250 1413h459l354 -977l170 977h369z" />
    <glyph glyph-name="Ograve" unicode="&#xd2;" horiz-adv-x="1654" 
d="M963 1505l-273 256h328l141 -256h-196zM956 1442q159 0 287.5 -46.5t213 -129t130 -194t45.5 -243.5q0 -195 -64 -357.5t-175 -271.5t-261.5 -169t-322.5 -60q-159 0 -287.5 46.5t-213 129t-130 194t-45.5 243.5q0 195 64 357.5t175 271.5t261.5 169t322.5 60zM821 242
q82 0 152.5 34.5t119.5 92.5t83.5 133t50.5 155.5t16 161.5q0 160 -77.5 256t-221.5 96q-82 0 -152.5 -34.5t-119.5 -92.5t-83.5 -133t-50.5 -155.5t-16 -161.5q0 -160 77.5 -256t221.5 -96z" />
    <glyph glyph-name="Oacute" unicode="&#xd3;" horiz-adv-x="1654" 
d="M1120 1505h-196l231 256h328zM956 1442q159 0 287.5 -46.5t213 -129t130 -194t45.5 -243.5q0 -195 -64 -357.5t-175 -271.5t-261.5 -169t-322.5 -60q-159 0 -287.5 46.5t-213 129t-130 194t-45.5 243.5q0 195 64 357.5t175 271.5t261.5 169t322.5 60zM821 242
q82 0 152.5 34.5t119.5 92.5t83.5 133t50.5 155.5t16 161.5q0 160 -77.5 256t-221.5 96q-82 0 -152.5 -34.5t-119.5 -92.5t-83.5 -133t-50.5 -155.5t-16 -161.5q0 -160 77.5 -256t221.5 -96z" />
    <glyph glyph-name="Ocircumflex" unicode="&#xd4;" horiz-adv-x="1654" 
d="M967 1505h-211l172 256h305l82 -256h-213l-39 148zM956 1442q159 0 287.5 -46.5t213 -129t130 -194t45.5 -243.5q0 -195 -64 -357.5t-175 -271.5t-261.5 -169t-322.5 -60q-159 0 -287.5 46.5t-213 129t-130 194t-45.5 243.5q0 195 64 357.5t175 271.5t261.5 169t322.5 60
zM821 242q82 0 152.5 34.5t119.5 92.5t83.5 133t50.5 155.5t16 161.5q0 160 -77.5 256t-221.5 96q-82 0 -152.5 -34.5t-119.5 -92.5t-83.5 -133t-50.5 -155.5t-16 -161.5q0 -160 77.5 -256t221.5 -96z" />
    <glyph glyph-name="Otilde" unicode="&#xd5;" horiz-adv-x="1654" 
d="M944 1583q-36 0 -47 -63h-197q27 147 73.5 210.5t139.5 63.5q74 0 172 -43q63 -27 97 -27q32 0 43 64h196q-27 -148 -74 -211.5t-139 -63.5q-73 0 -172 43q-64 27 -92 27zM956 1442q159 0 287.5 -46.5t213 -129t130 -194t45.5 -243.5q0 -195 -64 -357.5t-175 -271.5
t-261.5 -169t-322.5 -60q-159 0 -287.5 46.5t-213 129t-130 194t-45.5 243.5q0 195 64 357.5t175 271.5t261.5 169t322.5 60zM821 242q82 0 152.5 34.5t119.5 92.5t83.5 133t50.5 155.5t16 161.5q0 160 -77.5 256t-221.5 96q-82 0 -152.5 -34.5t-119.5 -92.5t-83.5 -133
t-50.5 -155.5t-16 -161.5q0 -160 77.5 -256t221.5 -96z" />
    <glyph glyph-name="Odieresis" unicode="&#xd6;" horiz-adv-x="1654" 
d="M834 1479q-67 0 -103.5 32.5t-36.5 92.5q0 80 52 127t118 47q65 0 101 -32t36 -93q0 -80 -51 -127t-116 -47zM1243 1479q-67 0 -103 32.5t-36 92.5q0 80 52 127t118 47q65 0 101 -32t36 -93q0 -80 -51.5 -127t-116.5 -47zM956 1442q159 0 287.5 -46.5t213 -129t130 -194
t45.5 -243.5q0 -195 -64 -357.5t-175 -271.5t-261.5 -169t-322.5 -60q-159 0 -287.5 46.5t-213 129t-130 194t-45.5 243.5q0 195 64 357.5t175 271.5t261.5 169t322.5 60zM821 242q82 0 152.5 34.5t119.5 92.5t83.5 133t50.5 155.5t16 161.5q0 160 -77.5 256t-221.5 96
q-82 0 -152.5 -34.5t-119.5 -92.5t-83.5 -133t-50.5 -155.5t-16 -161.5q0 -160 77.5 -256t221.5 -96z" />
    <glyph glyph-name="multiply" unicode="&#xd7;" 
d="M850 662l233 -283l-170 -143l-233 282l-346 -295l-137 166l346 295l-234 285l170 143l234 -285l346 295l137 -166z" />
    <glyph glyph-name="Oslash" unicode="&#xd8;" horiz-adv-x="1644" 
d="M1702 1296l-160 -137q88 -145 88 -330q0 -195 -64 -357.5t-175 -271.5t-261.5 -169t-322.5 -60q-296 0 -479 156l-183 -154l-118 144l182 155q-78 138 -78 312q0 195 64 357.5t175 271.5t261.5 169t322.5 60q282 0 463 -144l166 142zM520 594q0 -37 2 -55l637 540
q-76 92 -217 92q-82 0 -152.5 -34.5t-119.5 -92.5t-83.5 -133t-50.5 -155.5t-16 -161.5zM1241 819q0 43 -6 80l-647 -549q78 -108 231 -108q82 0 152.5 34.5t119.5 92.5t83.5 133t50.5 155.5t16 161.5z" />
    <glyph glyph-name="Ugrave" unicode="&#xd9;" horiz-adv-x="1472" 
d="M1061 1505h-197l-272 256h328zM1546 1413l-131 -751q-20 -115 -45 -220q-21 -87 -54 -155.5t-86.5 -129t-125 -100.5t-173.5 -63t-229 -23q-281 0 -427 115t-146 299q0 95 35 297l129 731h369l-152 -860q-12 -67 -12 -119q0 -92 65.5 -142t165.5 -50q114 0 182 51t99 176
q9 36 16 84l152 860h368z" />
    <glyph glyph-name="Uacute" unicode="&#xda;" horiz-adv-x="1472" 
d="M1022 1505h-197l232 256h327zM1546 1413l-131 -751q-20 -115 -45 -220q-21 -87 -54 -155.5t-86.5 -129t-125 -100.5t-173.5 -63t-229 -23q-281 0 -427 115t-146 299q0 95 35 297l129 731h369l-152 -860q-12 -67 -12 -119q0 -92 65.5 -142t165.5 -50q114 0 182 51t99 176
q9 36 16 84l152 860h368z" />
    <glyph glyph-name="Ucircumflex" unicode="&#xdb;" horiz-adv-x="1472" 
d="M868 1505h-211l172 256h306l82 -256h-213l-39 148zM1546 1413l-131 -751q-20 -115 -45 -220q-21 -87 -54 -155.5t-86.5 -129t-125 -100.5t-173.5 -63t-229 -23q-281 0 -427 115t-146 299q0 95 35 297l129 731h369l-152 -860q-12 -67 -12 -119q0 -92 65.5 -142t165.5 -50
q114 0 182 51t99 176q9 36 16 84l152 860h368z" />
    <glyph glyph-name="Udieresis" unicode="&#xdc;" horiz-adv-x="1472" 
d="M766 1778q65 0 101 -32t36 -93q0 -80 -51.5 -127t-116.5 -47q-67 0 -103 32.5t-36 92.5q0 80 52 127t118 47zM1176 1778q65 0 101 -32t36 -93q0 -80 -51.5 -127t-116.5 -47q-67 0 -103 32.5t-36 92.5q0 80 52 127t118 47zM1546 1413l-131 -751q-20 -115 -45 -220
q-21 -87 -54 -155.5t-86.5 -129t-125 -100.5t-173.5 -63t-229 -23q-281 0 -427 115t-146 299q0 95 35 297l129 731h369l-152 -860q-12 -67 -12 -119q0 -92 65.5 -142t165.5 -50q114 0 182 51t99 176q9 36 16 84l152 860h368z" />
    <glyph glyph-name="Yacute" unicode="&#xdd;" horiz-adv-x="1398" 
d="M987 1505h-196l231 256h328zM913 530l-94 -530h-368l96 543l-344 870h393l195 -565l368 565h408z" />
    <glyph glyph-name="Thorn" unicode="&#xde;" horiz-adv-x="1327" 
d="M1030 1223q139 -16 223 -99t84 -231q0 -51 -8 -98q-35 -193 -157.5 -300.5t-290.5 -127.5q-107 -11 -224 -11h-182l-63 -356h-369l250 1413h369l-33 -180h182q127 0 219 -10zM944 795q4 24 4 34q0 106 -129 115q-25 2 -96 2h-143l-54 -303h144q71 0 98 2q150 13 176 150z
" />
    <glyph glyph-name="germandbls" unicode="&#xdf;" horiz-adv-x="1320" 
d="M858 1544q226 0 350.5 -97.5t124.5 -252.5q0 -65 -21.5 -123t-74.5 -125q-68 -31 -100.5 -66.5t-32.5 -88.5q0 -75 74 -158q63 -70 85.5 -132t22.5 -136q0 -163 -123.5 -268t-357.5 -105q-162 0 -279 24l49 273q101 -27 177 -27q70 0 107.5 32t37.5 89q0 65 -63 143
q-59 75 -85 132.5t-26 129.5q0 87 46.5 149.5t141.5 115.5q33 57 33 100q0 121 -141 121q-103 0 -163 -83.5t-97 -293.5l-158 -897h-369l156 881q23 139 55 239t84 183.5t125.5 134.5t178 78.5t243.5 27.5z" />
    <glyph glyph-name="agrave" unicode="&#xe0;" horiz-adv-x="1206" 
d="M662 1165l-273 256h328l141 -256h-196zM702 1122q227 0 331 -82.5t104 -222.5q0 -64 -31 -242l-53 -299q-22 -126 -29 -276h-360l4 162l-66 -117q-115 -74 -270 -74q-135 0 -221 75.5t-86 217.5q0 193 193 309t536 99l2 8q8 46 8 92q0 44 -25 72t-80 28q-64 0 -109.5 -39
t-62.5 -110l-348 -2q23 125 105 217t200.5 138t257.5 46zM514 221q62 0 119.5 45t71.5 125l12 74q-141 17 -226 -24t-85 -126q0 -94 108 -94z" />
    <glyph glyph-name="aacute" unicode="&#xe1;" horiz-adv-x="1206" 
d="M803 1165h-197l232 256h327zM702 1122q227 0 331 -82.5t104 -222.5q0 -64 -31 -242l-53 -299q-22 -126 -29 -276h-360l4 162l-66 -117q-115 -74 -270 -74q-135 0 -221 75.5t-86 217.5q0 193 193 309t536 99l2 8q8 46 8 92q0 44 -25 72t-80 28q-64 0 -109.5 -39
t-62.5 -110l-348 -2q23 125 105 217t200.5 138t257.5 46zM514 221q62 0 119.5 45t71.5 125l12 74q-141 17 -226 -24t-85 -126q0 -94 108 -94z" />
    <glyph glyph-name="acircumflex" unicode="&#xe2;" horiz-adv-x="1206" 
d="M657 1165h-211l172 256h306l82 -256h-213l-39 156zM702 1122q227 0 331 -82.5t104 -222.5q0 -64 -31 -242l-53 -299q-22 -126 -29 -276h-360l4 162l-66 -117q-115 -74 -270 -74q-135 0 -221 75.5t-86 217.5q0 193 193 309t536 99l2 8q8 46 8 92q0 44 -25 72t-80 28
q-64 0 -109.5 -39t-62.5 -110l-348 -2q23 125 105 217t200.5 138t257.5 46zM514 221q62 0 119.5 45t71.5 125l12 74q-141 17 -226 -24t-85 -126q0 -94 108 -94z" />
    <glyph glyph-name="atilde" unicode="&#xe3;" horiz-adv-x="1206" 
d="M625 1235q-36 0 -47 -64h-197q27 148 74 211.5t139 63.5q74 0 172 -43q63 -27 96 -27q32 0 43 64h197q-27 -148 -74 -211.5t-139 -63.5q-73 0 -172 43q-65 27 -92 27zM702 1122q227 0 331 -82.5t104 -222.5q0 -64 -31 -242l-53 -299q-22 -126 -29 -276h-360l4 162
l-66 -117q-115 -74 -270 -74q-135 0 -221 75.5t-86 217.5q0 193 193 309t536 99l2 8q8 46 8 92q0 44 -25 72t-80 28q-64 0 -109.5 -39t-62.5 -110l-348 -2q23 125 105 217t200.5 138t257.5 46zM514 221q62 0 119.5 45t71.5 125l12 74q-141 17 -226 -24t-85 -126
q0 -94 108 -94z" />
    <glyph glyph-name="adieresis" unicode="&#xe4;" horiz-adv-x="1206" 
d="M512 1165q-67 0 -103 32.5t-36 92.5q0 80 52 127t118 47q65 0 101 -32t36 -93q0 -80 -51.5 -127t-116.5 -47zM922 1165q-67 0 -103.5 32.5t-36.5 92.5q0 80 52 127t118 47q65 0 101.5 -32t36.5 -93q0 -80 -51.5 -127t-116.5 -47zM702 1122q227 0 331 -82.5t104 -222.5
q0 -64 -31 -242l-53 -299q-22 -126 -29 -276h-360l4 162l-66 -117q-115 -74 -270 -74q-135 0 -221 75.5t-86 217.5q0 193 193 309t536 99l2 8q8 46 8 92q0 44 -25 72t-80 28q-64 0 -109.5 -39t-62.5 -110l-348 -2q23 125 105 217t200.5 138t257.5 46zM514 221q62 0 119.5 45
t71.5 125l12 74q-141 17 -226 -24t-85 -126q0 -94 108 -94z" />
    <glyph glyph-name="aring" unicode="&#xe5;" horiz-adv-x="1206" 
d="M723 1161q-102 0 -159.5 50t-57.5 139q0 109 77 179t205 70q99 0 156 -49.5t57 -138.5q0 -109 -76 -179.5t-202 -70.5zM768 1464q-47 0 -68.5 -34.5t-21.5 -71.5q0 -29 16.5 -45.5t44.5 -16.5q47 0 68.5 35t21.5 72q0 29 -16.5 45t-44.5 16zM702 1122q227 0 331 -82.5
t104 -222.5q0 -64 -31 -242l-53 -299q-22 -126 -29 -276h-360l4 162l-66 -117q-115 -74 -270 -74q-135 0 -221 75.5t-86 217.5q0 193 193 309t536 99l2 8q8 46 8 92q0 44 -25 72t-80 28q-64 0 -109.5 -39t-62.5 -110l-348 -2q23 125 105 217t200.5 138t257.5 46zM514 221
q62 0 119.5 45t71.5 125l12 74q-141 17 -226 -24t-85 -126q0 -94 108 -94z" />
    <glyph glyph-name="ae" unicode="&#xe6;" horiz-adv-x="2017" 
d="M1933 455h-762q0 -7 -1 -20t-1 -19q0 -107 42.5 -151t121.5 -44q77 0 131 36.5t76 100.5h363q-79 -185 -242 -286t-375 -101q-308 0 -412 226l-139 -150q-135 -76 -311 -76q-189 0 -294 77t-105 212q0 84 37 157t113 133t207.5 95t305.5 35h111q8 47 8 70q0 60 -31.5 87
t-99.5 27q-67 0 -119.5 -40.5t-69.5 -110.5h-348q23 124 108.5 216.5t206.5 138.5t261 46q293 0 360 -182q162 182 453 182q109 0 194.5 -35.5t139 -96.5t81 -140t27.5 -170q0 -108 -37 -217zM1446 864q-153 0 -221 -184h370q6 184 -149 184zM762 420l6 35q-29 2 -80 2
q-144 0 -211 -36.5t-67 -113.5q0 -86 129 -86q84 0 146 54.5t77 144.5z" />
    <glyph glyph-name="ccedilla" unicode="&#xe7;" horiz-adv-x="1241" 
d="M586 221q161 0 223 180h362q-140 -404 -559 -428l-41 -59q172 -24 172 -141q0 -99 -91.5 -151t-229.5 -52q-121 0 -176 14l26 142q56 -15 117 -15q131 0 131 60q0 63 -188 49l106 160q-184 28 -289.5 142t-105.5 318q0 190 84 343.5t239 242t353 88.5q249 0 373.5 -122
t124.5 -324h-357q0 97 -44.5 146.5t-123.5 49.5q-80 0 -140.5 -61.5t-90 -157.5t-29.5 -209q0 -101 43 -158t111 -57z" />
    <glyph glyph-name="egrave" unicode="&#xe8;" horiz-adv-x="1253" 
d="M688 1165l-272 256h327l142 -256h-197zM412 455v-31q0 -203 163 -203q77 0 131 36.5t76 100.5h363q-65 -187 -217.5 -287t-374.5 -100q-107 0 -196 25t-161 77.5t-112.5 143t-40.5 211.5q0 156 51 287t139.5 219.5t210.5 138t263 49.5q126 0 224 -36.5t157 -100
t88.5 -143.5t29.5 -172q0 -106 -37 -215h-757zM676 872q-70 0 -128 -50.5t-93 -141.5h374q2 12 2 22q0 80 -38 125t-117 45z" />
    <glyph glyph-name="eacute" unicode="&#xe9;" horiz-adv-x="1253" 
d="M829 1165h-196l231 256h328zM412 455v-31q0 -203 163 -203q77 0 131 36.5t76 100.5h363q-65 -187 -217.5 -287t-374.5 -100q-107 0 -196 25t-161 77.5t-112.5 143t-40.5 211.5q0 156 51 287t139.5 219.5t210.5 138t263 49.5q126 0 224 -36.5t157 -100t88.5 -143.5
t29.5 -172q0 -106 -37 -215h-757zM676 872q-70 0 -128 -50.5t-93 -141.5h374q2 12 2 22q0 80 -38 125t-117 45z" />
    <glyph glyph-name="ecircumflex" unicode="&#xea;" horiz-adv-x="1253" 
d="M684 1165h-211l172 256h305l82 -256h-213l-39 156zM412 455v-31q0 -203 163 -203q77 0 131 36.5t76 100.5h363q-65 -187 -217.5 -287t-374.5 -100q-107 0 -196 25t-161 77.5t-112.5 143t-40.5 211.5q0 156 51 287t139.5 219.5t210.5 138t263 49.5q126 0 224 -36.5
t157 -100t88.5 -143.5t29.5 -172q0 -106 -37 -215h-757zM676 872q-70 0 -128 -50.5t-93 -141.5h374q2 12 2 22q0 80 -38 125t-117 45z" />
    <glyph glyph-name="edieresis" unicode="&#xeb;" horiz-adv-x="1253" 
d="M539 1165q-67 0 -103.5 32.5t-36.5 92.5q0 80 52 127t118 47q65 0 101.5 -32t36.5 -93q0 -80 -51.5 -127t-116.5 -47zM948 1165q-67 0 -103 32.5t-36 92.5q0 80 52 127t118 47q65 0 101 -32t36 -93q0 -80 -51.5 -127t-116.5 -47zM412 455v-31q0 -203 163 -203
q77 0 131 36.5t76 100.5h363q-65 -187 -217.5 -287t-374.5 -100q-107 0 -196 25t-161 77.5t-112.5 143t-40.5 211.5q0 156 51 287t139.5 219.5t210.5 138t263 49.5q126 0 224 -36.5t157 -100t88.5 -143.5t29.5 -172q0 -106 -37 -215h-757zM676 872q-70 0 -128 -50.5
t-93 -141.5h374q2 12 2 22q0 80 -38 125t-117 45z" />
    <glyph glyph-name="igrave" unicode="&#xec;" horiz-adv-x="593" 
d="M553 1165h-197l-272 256h328zM385 0h-369l195 1094h369z" />
    <glyph glyph-name="iacute" unicode="&#xed;" horiz-adv-x="593" 
d="M498 1165h-197l231 256h328zM385 0h-369l195 1094h369z" />
    <glyph glyph-name="icircumflex" unicode="&#xee;" horiz-adv-x="593" 
d="M352 1165h-211l172 256h305l82 -256h-213l-38 156zM211 1094h369l-195 -1094h-369z" />
    <glyph glyph-name="idieresis" unicode="&#xef;" horiz-adv-x="593" 
d="M238 1464q65 0 101 -32t36 -93q0 -80 -51.5 -127t-116.5 -47q-67 0 -103 32.5t-36 92.5q0 80 52 127t118 47zM647 1464q65 0 101 -32t36 -93q0 -80 -51.5 -127t-116.5 -47q-67 0 -103 32.5t-36 92.5q0 80 52 127t118 47zM385 0h-369l195 1094h369z" />
    <glyph glyph-name="eth" unicode="&#xf0;" horiz-adv-x="1372" 
d="M1370 1282l-164 -29q82 -200 82 -473q0 -119 -22.5 -231t-75.5 -218t-131.5 -185t-199 -127t-269.5 -48q-257 0 -401 127.5t-144 333.5q0 105 23.5 203.5t73.5 187t122 155t177 105.5t231 39q61 0 104 -13t94 -46l78 -127q-7 153 -63 258l-242 -43l-25 143l166 31
q-54 48 -131 98l322 103q87 -43 158 -140l213 39zM616 242q67 0 119.5 28t84 70.5t52 97.5t28 104t7.5 95q0 91 -48.5 153t-131.5 62q-67 0 -120.5 -27t-86.5 -68.5t-55 -95.5t-30.5 -104t-8.5 -98q0 -217 190 -217z" />
    <glyph glyph-name="ntilde" unicode="&#xf1;" horiz-adv-x="1316" 
d="M674 1235q-36 0 -47 -64h-197q27 148 74 211.5t139 63.5q74 0 172 -43q63 -27 96 -27q32 0 43 64h197q-27 -148 -74 -211.5t-139 -63.5q-73 0 -172 43q-64 27 -92 27zM930 1122q162 0 246 -76.5t84 -203.5q0 -67 -25 -211l-113 -631h-368l98 549q20 120 20 170
q0 153 -145 153q-90 0 -155.5 -91t-98.5 -273l-88 -508h-369l193 1094h369l-29 -156l123 121q117 63 258 63z" />
    <glyph glyph-name="ograve" unicode="&#xf2;" horiz-adv-x="1308" 
d="M709 1165l-273 256h328l141 -256h-196zM727 1122q259 0 398 -132t139 -355q0 -134 -44 -252.5t-127 -211t-214.5 -146.5t-294.5 -54q-259 0 -398 132.5t-139 355.5q0 134 44 252.5t127 210.5t214.5 146t294.5 54zM610 221q84 0 145.5 59.5t90 149.5t28.5 197
q0 112 -44 178.5t-130 66.5q-84 0 -145.5 -59t-90 -149t-28.5 -197q0 -112 44 -179t130 -67z" />
    <glyph glyph-name="oacute" unicode="&#xf3;" horiz-adv-x="1308" 
d="M850 1165h-197l232 256h327zM727 1122q259 0 398 -132t139 -355q0 -134 -44 -252.5t-127 -211t-214.5 -146.5t-294.5 -54q-259 0 -398 132.5t-139 355.5q0 134 44 252.5t127 210.5t214.5 146t294.5 54zM610 221q84 0 145.5 59.5t90 149.5t28.5 197q0 112 -44 178.5
t-130 66.5q-84 0 -145.5 -59t-90 -149t-28.5 -197q0 -112 44 -179t130 -67z" />
    <glyph glyph-name="ocircumflex" unicode="&#xf4;" horiz-adv-x="1308" 
d="M705 1165h-211l172 256h305l82 -256h-213l-39 156zM727 1122q259 0 398 -132t139 -355q0 -134 -44 -252.5t-127 -211t-214.5 -146.5t-294.5 -54q-259 0 -398 132.5t-139 355.5q0 134 44 252.5t127 210.5t214.5 146t294.5 54zM610 221q84 0 145.5 59.5t90 149.5t28.5 197
q0 112 -44 178.5t-130 66.5q-84 0 -145.5 -59t-90 -149t-28.5 -197q0 -112 44 -179t130 -67z" />
    <glyph glyph-name="otilde" unicode="&#xf5;" horiz-adv-x="1308" 
d="M672 1235q-36 0 -47 -64h-197q27 148 74 211.5t139 63.5q74 0 172 -43q63 -27 96 -27q32 0 43 64h197q-27 -148 -74 -211.5t-139 -63.5q-73 0 -172 43q-64 27 -92 27zM727 1122q259 0 398 -132t139 -355q0 -134 -44 -252.5t-127 -211t-214.5 -146.5t-294.5 -54
q-259 0 -398 132.5t-139 355.5q0 134 44 252.5t127 210.5t214.5 146t294.5 54zM610 221q84 0 145.5 59.5t90 149.5t28.5 197q0 112 -44 178.5t-130 66.5q-84 0 -145.5 -59t-90 -149t-28.5 -197q0 -112 44 -179t130 -67z" />
    <glyph glyph-name="odieresis" unicode="&#xf6;" horiz-adv-x="1308" 
d="M559 1165q-67 0 -103 32.5t-36 92.5q0 80 52 127t118 47q65 0 101 -32t36 -93q0 -80 -51.5 -127t-116.5 -47zM969 1165q-67 0 -103.5 32.5t-36.5 92.5q0 80 52 127t118 47q65 0 101.5 -32t36.5 -93q0 -80 -51.5 -127t-116.5 -47zM727 1122q259 0 398 -132t139 -355
q0 -134 -44 -252.5t-127 -211t-214.5 -146.5t-294.5 -54q-259 0 -398 132.5t-139 355.5q0 134 44 252.5t127 210.5t214.5 146t294.5 54zM610 221q84 0 145.5 59.5t90 149.5t28.5 197q0 112 -44 178.5t-130 66.5q-84 0 -145.5 -59t-90 -149t-28.5 -197q0 -112 44 -179
t130 -67z" />
    <glyph glyph-name="divide" unicode="&#xf7;" 
d="M797 1198q61 0 99 -37.5t38 -95.5q0 -79 -59 -137t-136 -58q-61 0 -99 38t-38 96q0 79 59 136.5t136 57.5zM1186 551h-1004l33 197h1004zM662 428q61 0 99 -37.5t38 -95.5q0 -79 -59 -137t-136 -58q-61 0 -99 37.5t-38 95.5q0 79 59 137t136 58z" />
    <glyph glyph-name="oslash" unicode="&#xf8;" horiz-adv-x="1314" 
d="M1348 1010l-138 -117q62 -112 62 -258q0 -134 -44 -252.5t-127 -211t-214.5 -146.5t-294.5 -54q-215 0 -352 97l-162 -138l-119 146l156 131q-60 111 -60 252q0 134 44 252.5t127 210.5t214.5 146t294.5 54q212 0 346 -92l148 125zM709 872q-82 0 -142.5 -55t-90 -140
t-32.5 -188l385 328q-46 55 -120 55zM618 221q122 0 192 115t73 278l-391 -331q46 -62 126 -62z" />
    <glyph glyph-name="ugrave" unicode="&#xf9;" horiz-adv-x="1308" 
d="M741 1165l-272 256h328l141 -256h-197zM1292 1094l-192 -1094h-369l29 156l-123 -121q-119 -64 -258 -64q-161 0 -245.5 77t-84.5 204q0 67 25 211l112 631h369l-98 -549q-21 -126 -21 -170q0 -154 146 -154q90 0 155.5 91.5t98.5 273.5l88 508h368z" />
    <glyph glyph-name="uacute" unicode="&#xfa;" horiz-adv-x="1308" 
d="M883 1165h-197l232 256h327zM1292 1094l-192 -1094h-369l29 156l-123 -121q-119 -64 -258 -64q-161 0 -245.5 77t-84.5 204q0 67 25 211l112 631h369l-98 -549q-21 -126 -21 -170q0 -154 146 -154q90 0 155.5 91.5t98.5 273.5l88 508h368z" />
    <glyph glyph-name="ucircumflex" unicode="&#xfb;" horiz-adv-x="1308" 
d="M737 1165h-211l172 256h306l81 -256h-213l-38 156zM1292 1094l-192 -1094h-369l29 156l-123 -121q-119 -64 -258 -64q-161 0 -245.5 77t-84.5 204q0 67 25 211l112 631h369l-98 -549q-21 -126 -21 -170q0 -154 146 -154q90 0 155.5 91.5t98.5 273.5l88 508h368z" />
    <glyph glyph-name="udieresis" unicode="&#xfc;" horiz-adv-x="1308" 
d="M592 1165q-67 0 -103 32.5t-36 92.5q0 80 52 127t118 47q65 0 101 -32t36 -93q0 -80 -51.5 -127t-116.5 -47zM1001 1165q-67 0 -103 32.5t-36 92.5q0 80 52 127t118 47q65 0 101 -32t36 -93q0 -80 -51.5 -127t-116.5 -47zM1292 1094l-192 -1094h-369l29 156l-123 -121
q-119 -64 -258 -64q-161 0 -245.5 77t-84.5 204q0 67 25 211l112 631h369l-98 -549q-21 -126 -21 -170q0 -154 146 -154q90 0 155.5 91.5t98.5 273.5l88 508h368z" />
    <glyph glyph-name="yacute" unicode="&#xfd;" horiz-adv-x="1196" 
d="M774 1165h-196l231 256h328zM1325 1094l-620 -1094q-135 -237 -265.5 -333.5t-316.5 -96.5q-80 0 -154 12l39 234q50 -9 103 -9q124 0 188 125l8 19l-244 1143h410l86 -785l363 785h403z" />
    <glyph glyph-name="thorn" unicode="&#xfe;" horiz-adv-x="1394" 
d="M924 1122q204 0 317 -118.5t113 -333.5q0 -142 -41 -267t-119.5 -222t-204 -153.5t-282.5 -56.5q-69 0 -137.5 15t-104.5 39l-53 122l-99 -548h-368l340 1906h368l-102 -571l104 121q101 67 269 67zM670 221q130 0 216.5 116t86.5 294q0 123 -52 182t-147 59
q-108 0 -184 -75t-105 -236l-8 -47q-6 -45 -7 -87t11.5 -79.5t34 -65.5t61.5 -44.5t93 -16.5z" />
    <glyph glyph-name="ydieresis" unicode="&#xff;" horiz-adv-x="1196" 
d="M483 1165q-67 0 -103 32.5t-36 92.5q0 80 52 127t118 47q65 0 101 -32t36 -93q0 -80 -51.5 -127t-116.5 -47zM893 1165q-67 0 -103 32.5t-36 92.5q0 80 52 127t118 47q65 0 101 -32t36 -93q0 -80 -51.5 -127t-116.5 -47zM1325 1094l-620 -1094q-135 -237 -265.5 -333.5
t-316.5 -96.5q-80 0 -154 12l39 234q50 -9 103 -9q124 0 188 125l8 19l-244 1143h410l86 -785l363 785h403z" />
    <glyph glyph-name="Amacron" unicode="&#x100;" horiz-adv-x="1447" 
d="M1231 1556h-615l33 197h615zM928 367h-445l-180 -367h-391l745 1413h478l247 -1413h-401zM887 653l-60 418l-204 -418h264z" />
    <glyph glyph-name="amacron" unicode="&#x101;" horiz-adv-x="1206" 
d="M1030 1194h-614l33 197h614zM702 1122q227 0 331 -82.5t104 -222.5q0 -64 -31 -242l-53 -299q-22 -126 -29 -276h-360l4 162l-66 -117q-115 -74 -270 -74q-135 0 -221 75.5t-86 217.5q0 193 193 309t536 99l2 8q8 46 8 92q0 44 -25 72t-80 28q-64 0 -109.5 -39
t-62.5 -110l-348 -2q23 125 105 217t200.5 138t257.5 46zM514 221q62 0 119.5 45t71.5 125l12 74q-141 17 -226 -24t-85 -126q0 -94 108 -94z" />
    <glyph glyph-name="Abreve" unicode="&#x102;" horiz-adv-x="1447" 
d="M913 1491q-60 0 -105 15t-70.5 40.5t-41 60t-16 73.5t5.5 81h184q-13 -96 72 -96q89 0 113 96h184q-16 -89 -67 -151.5t-117.5 -90.5t-141.5 -28zM928 367h-445l-180 -367h-391l745 1413h478l247 -1413h-401zM887 653l-60 418l-204 -418h264z" />
    <glyph glyph-name="abreve" unicode="&#x103;" horiz-adv-x="1206" 
d="M715 1161q-143 0 -196 75t-32 189h185q-6 -41 10.5 -65.5t60.5 -24.5q88 0 113 90h184q-16 -89 -67 -150.5t-116.5 -87.5t-141.5 -26zM702 1122q227 0 331 -82.5t104 -222.5q0 -64 -31 -242l-53 -299q-22 -126 -29 -276h-360l4 162l-66 -117q-115 -74 -270 -74
q-135 0 -221 75.5t-86 217.5q0 193 193 309t536 99l2 8q8 46 8 92q0 44 -25 72t-80 28q-64 0 -109.5 -39t-62.5 -110l-348 -2q23 125 105 217t200.5 138t257.5 46zM514 221q62 0 119.5 45t71.5 125l12 74q-141 17 -226 -24t-85 -126q0 -94 108 -94z" />
    <glyph glyph-name="Aogonek" unicode="&#x104;" horiz-adv-x="1447" 
d="M1114 -168q0 -42 20 -61t52 -19q47 0 94 31l-27 -137q-122 -103 -295 -103q-96 0 -151 38.5t-55 121.5q0 187 227 305l-51 359h-445l-180 -367h-391l745 1413h478l247 -1413h-149q-53 0 -86 -54.5t-33 -113.5zM887 653l-60 418l-204 -418h264z" />
    <glyph glyph-name="aogonek" unicode="&#x105;" horiz-adv-x="1206" 
d="M702 1122q227 0 331 -82.5t104 -222.5q0 -64 -31 -242l-53 -299q-22 -126 -29 -276h-109q-53 0 -85.5 -54t-32.5 -114q0 -80 71 -80q48 0 95 31l-27 -137q-122 -103 -295 -103q-96 0 -151.5 39t-55.5 121q0 187 230 307l4 152l-66 -117q-115 -74 -270 -74
q-135 0 -221 75.5t-86 217.5q0 193 193 309t536 99l2 8q8 46 8 92q0 44 -25 72t-80 28q-64 0 -109.5 -39t-62.5 -110l-348 -2q23 125 105 217t200.5 138t257.5 46zM514 221q62 0 119.5 45t71.5 125l12 74q-141 17 -226 -24t-85 -126q0 -94 108 -94z" />
    <glyph glyph-name="Cacute" unicode="&#x106;" horiz-adv-x="1570" 
d="M1055 1505h-197l232 256h327zM954 1442q148 0 262 -38t183.5 -105t102 -156t24.5 -195l-2 -20h-369v20q-6 223 -233 223q-82 0 -155 -38.5t-129 -111t-89 -186.5t-33 -255q0 -175 67.5 -256.5t176.5 -81.5q107 0 186.5 63t122.5 180l8 21h369l-6 -21
q-69 -251 -258.5 -382.5t-460.5 -131.5t-431.5 151.5t-160.5 432.5q0 201 67 370t180.5 281t263 174t314.5 62z" />
    <glyph glyph-name="cacute" unicode="&#x107;" horiz-adv-x="1241" 
d="M827 1165h-196l231 256h328zM719 1114q249 0 373.5 -122t124.5 -324h-357q0 97 -44.5 146.5t-123.5 49.5q-80 0 -140.5 -61.5t-90 -157.5t-29.5 -209q0 -101 43 -158t111 -57q161 0 223 180h362q-149 -430 -614 -430q-113 0 -205 27.5t-162 83t-108.5 146.5t-38.5 212
q0 190 84 343.5t239 242t353 88.5z" />
    <glyph glyph-name="Cdotaccent" unicode="&#x10a;" horiz-adv-x="1570" 
d="M1020 1839q78 0 123 -40.5t45 -112.5q0 -82 -55.5 -144.5t-157.5 -62.5q-78 0 -123 40.5t-45 112.5q0 82 56 144.5t157 62.5zM954 1442q148 0 262 -38t183.5 -105t102 -156t24.5 -195l-2 -20h-369v20q-6 223 -233 223q-82 0 -155 -38.5t-129 -111t-89 -186.5t-33 -255
q0 -175 67.5 -256.5t176.5 -81.5q107 0 186.5 63t122.5 180l8 21h369l-6 -21q-69 -251 -258.5 -382.5t-460.5 -131.5t-431.5 151.5t-160.5 432.5q0 201 67 370t180.5 281t263 174t314.5 62z" />
    <glyph glyph-name="cdotaccent" unicode="&#x10b;" horiz-adv-x="1241" 
d="M801 1538q78 0 123 -41t45 -113q0 -82 -55.5 -144t-157.5 -62q-78 0 -123 40.5t-45 112.5q0 82 56 144.5t157 62.5zM719 1114q249 0 373.5 -122t124.5 -324h-357q0 97 -44.5 146.5t-123.5 49.5q-80 0 -140.5 -61.5t-90 -157.5t-29.5 -209q0 -101 43 -158t111 -57
q161 0 223 180h362q-149 -430 -614 -430q-113 0 -205 27.5t-162 83t-108.5 146.5t-38.5 212q0 190 84 343.5t239 242t353 88.5z" />
    <glyph glyph-name="Ccaron" unicode="&#x10c;" horiz-adv-x="1570" 
d="M819 1505l-82 256h213l39 -147l96 147h211l-172 -256h-305zM954 1442q148 0 262 -38t183.5 -105t102 -156t24.5 -195l-2 -20h-369v20q-6 223 -233 223q-82 0 -155 -38.5t-129 -111t-89 -186.5t-33 -255q0 -175 67.5 -256.5t176.5 -81.5q107 0 186.5 63t122.5 180l8 21
h369l-6 -21q-69 -251 -258.5 -382.5t-460.5 -131.5t-431.5 151.5t-160.5 432.5q0 201 67 370t180.5 281t263 174t314.5 62z" />
    <glyph glyph-name="ccaron" unicode="&#x10d;" horiz-adv-x="1241" 
d="M590 1165l-82 256h213l39 -147l96 147h211l-172 -256h-305zM586 221q161 0 223 180h362q-149 -430 -614 -430q-113 0 -205 27.5t-162 83t-108.5 146.5t-38.5 212q0 190 84 343.5t239 242t353 88.5q249 0 373.5 -122t124.5 -324h-357q0 97 -44.5 146.5t-123.5 49.5
q-80 0 -140.5 -61.5t-90 -157.5t-29.5 -209q0 -101 43 -158t111 -57z" />
    <glyph glyph-name="Dcaron" unicode="&#x10e;" horiz-adv-x="1519" 
d="M754 1505l-82 256h213l39 -147l96 147h211l-172 -256h-305zM1004 1405q223 -26 357 -174t134 -418q0 -157 -46 -294t-135.5 -246t-232 -179.5t-323.5 -87.5q-74 -6 -183 -6h-532l250 1413h514q127 0 197 -8zM721 291q96 9 171 53.5t121 114t69.5 157t23.5 187.5
q0 155 -61 231.5t-179 87.5q-47 4 -133 4h-123l-147 -839h125q86 0 133 4z" />
    <glyph glyph-name="dcaron" unicode="&#x10f;" horiz-adv-x="1538" 
d="M1448 1505l-266 -1505h-369l29 160l-105 -121q-103 -68 -268 -68q-207 0 -318.5 109.5t-111.5 322.5q0 113 25.5 218t78.5 196.5t128.5 159t182 106.5t232.5 39q70 0 138 -14.5t104 -38.5l53 -121l98 557h369zM1888 1505v-20l-254 -346h-196l196 366h254zM907 532l8 48
q12 55 6.5 107.5t-24 93.5t-63.5 66t-111 25q-126 0 -210.5 -121t-84.5 -288q0 -122 51 -182t139 -60q108 0 184 75t105 236z" />
    <glyph glyph-name="Dcroat" unicode="&#x110;" horiz-adv-x="1519" 
d="M1004 1405q223 -26 357 -174t134 -418q0 -157 -46 -294t-135.5 -246t-232 -179.5t-323.5 -87.5q-74 -6 -183 -6h-532l107 600h-123l34 197h123l109 616h514q127 0 197 -8zM721 291q96 9 171 53.5t121 114t69.5 157t23.5 187.5q0 155 -61 231.5t-179 87.5q-47 4 -133 4
h-123l-57 -329h205l-35 -197h-205l-55 -313h125q86 0 133 4z" />
    <glyph glyph-name="dcroat" unicode="&#x111;" horiz-adv-x="1390" 
d="M1473 1178h-82l-209 -1178h-369l29 160l-105 -121q-103 -68 -268 -68q-207 0 -318.5 109.5t-111.5 322.5q0 113 25.5 218t78.5 196.5t128.5 159t182 106.5t232.5 39q70 0 138 -14.5t104 -38.5l53 -121l41 230h-246l35 196h246l22 131h369l-23 -131h82zM907 532l8 48
q12 55 6.5 107.5t-24 93.5t-63.5 66t-111 25q-126 0 -210.5 -121t-84.5 -288q0 -122 51 -182t139 -60q108 0 184 75t105 236z" />
    <glyph glyph-name="Emacron" unicode="&#x112;" horiz-adv-x="1286" 
d="M1159 1556h-614l33 197h614zM610 1126l-47 -274h654l-52 -287h-653l-49 -278h715l-52 -287h-1083l250 1413h1063l-51 -287h-695z" />
    <glyph glyph-name="emacron" unicode="&#x113;" horiz-adv-x="1253" 
d="M1057 1194h-615l33 197h615zM412 455v-31q0 -203 163 -203q77 0 131 36.5t76 100.5h363q-65 -187 -217.5 -287t-374.5 -100q-107 0 -196 25t-161 77.5t-112.5 143t-40.5 211.5q0 156 51 287t139.5 219.5t210.5 138t263 49.5q126 0 224 -36.5t157 -100t88.5 -143.5
t29.5 -172q0 -106 -37 -215h-757zM676 872q-70 0 -128 -50.5t-93 -141.5h374q2 12 2 22q0 80 -38 125t-117 45z" />
    <glyph glyph-name="Edotaccent" unicode="&#x116;" horiz-adv-x="1286" 
d="M848 1479q-78 0 -123 40.5t-45 112.5q0 82 56 144.5t157 62.5q78 0 123 -40.5t45 -112.5q0 -82 -55.5 -144.5t-157.5 -62.5zM610 1126l-47 -274h654l-52 -287h-653l-49 -278h715l-52 -287h-1083l250 1413h1063l-51 -287h-695z" />
    <glyph glyph-name="edotaccent" unicode="&#x117;" horiz-adv-x="1253" 
d="M758 1178q-78 0 -123 40.5t-45 112.5q0 82 56 144.5t157 62.5q78 0 123 -41t45 -113q0 -82 -55.5 -144t-157.5 -62zM412 455v-31q0 -203 163 -203q77 0 131 36.5t76 100.5h363q-65 -187 -217.5 -287t-374.5 -100q-107 0 -196 25t-161 77.5t-112.5 143t-40.5 211.5
q0 156 51 287t139.5 219.5t210.5 138t263 49.5q126 0 224 -36.5t157 -100t88.5 -143.5t29.5 -172q0 -106 -37 -215h-757zM676 872q-70 0 -128 -50.5t-93 -141.5h374q2 12 2 22q0 80 -38 125t-117 45z" />
    <glyph glyph-name="Eogonek" unicode="&#x118;" horiz-adv-x="1286" 
d="M610 1126l-47 -274h654l-52 -287h-653l-49 -278h715l-52 -287h-102q-53 0 -86 -54.5t-33 -113.5q0 -42 20 -61t52 -19q47 0 94 31l-27 -137q-122 -103 -294 -103q-96 0 -151.5 39t-55.5 121q0 181 213 297h-713l250 1413h1063l-51 -287h-695z" />
    <glyph glyph-name="eogonek" unicode="&#x119;" horiz-adv-x="1253" 
d="M412 455v-31q0 -203 163 -203q77 0 131 36.5t76 100.5h363q-54 -156 -171.5 -252t-287.5 -124q-31 -23 -48 -66t-17 -84q0 -80 71 -80q47 0 94 31l-26 -137q-122 -103 -295 -103q-96 0 -151.5 39t-55.5 121q0 164 178 277q-179 27 -286 136.5t-107 311.5q0 156 51 287
t139.5 219.5t210.5 138t263 49.5q126 0 224 -36.5t157 -100t88.5 -143.5t29.5 -172q0 -106 -37 -215h-757zM676 872q-70 0 -128 -50.5t-93 -141.5h374q2 12 2 22q0 80 -38 125t-117 45z" />
    <glyph glyph-name="Ecaron" unicode="&#x11a;" horiz-adv-x="1286" 
d="M692 1505l-82 256h213l39 -147l96 147h211l-172 -256h-305zM610 1126l-47 -274h654l-52 -287h-653l-49 -278h715l-52 -287h-1083l250 1413h1063l-51 -287h-695z" />
    <glyph glyph-name="ecaron" unicode="&#x11b;" horiz-adv-x="1253" 
d="M592 1165l-82 256h213l39 -147l96 147h211l-172 -256h-305zM412 455v-31q0 -203 163 -203q77 0 131 36.5t76 100.5h363q-65 -187 -217.5 -287t-374.5 -100q-107 0 -196 25t-161 77.5t-112.5 143t-40.5 211.5q0 156 51 287t139.5 219.5t210.5 138t263 49.5
q126 0 224 -36.5t157 -100t88.5 -143.5t29.5 -172q0 -106 -37 -215h-757zM676 872q-70 0 -128 -50.5t-93 -141.5h374q2 12 2 22q0 80 -38 125t-117 45z" />
    <glyph glyph-name="Gbreve" unicode="&#x11e;" horiz-adv-x="1593" 
d="M1006 1491q-74 0 -125.5 23t-74.5 60.5t-31.5 86.5t3.5 100h185q-13 -96 71 -96q89 0 113 96h184q-12 -67 -44 -120t-77 -85t-96.5 -48.5t-107.5 -16.5zM995 1442q147 0 258.5 -37.5t177.5 -105t95.5 -156.5t21.5 -195l-2 -20h-368v20q-6 223 -234 223
q-83 0 -158.5 -37.5t-135.5 -108.5t-96 -185t-36 -256q0 -177 71.5 -259.5t188.5 -82.5q216 0 328 225h-275l52 287h622l-133 -754h-287l5 219l-91 -158q-66 -50 -145 -70t-195 -20q-247 0 -389.5 148t-142.5 422q0 172 48 319.5t131 253t193.5 180.5t236.5 111.5t259 36.5z
" />
    <glyph glyph-name="gbreve" unicode="&#x11f;" horiz-adv-x="1392" 
d="M831 1161q-74 0 -125.5 22t-74.5 58.5t-31 84.5t4 99h184q-6 -41 11 -65.5t61 -24.5q88 0 113 90h184q-16 -89 -67 -150.5t-117 -87.5t-142 -26zM1376 1094l-143 -815q-13 -71 -41 -211q-57 -270 -227 -394.5t-492 -124.5q-247 0 -372.5 98t-112.5 285l2 21h356l-2 -21
q-3 -53 47.5 -82.5t138.5 -29.5q108 0 183 50.5t102 156.5q16 65 29 143l2 6l-109 -125q-101 -67 -268 -67q-204 0 -317 110.5t-113 308.5q0 113 25.5 218t78.5 196.5t128.5 159t182 106.5t232.5 39q70 0 138 -14.5t104 -38.5l53 -123l27 148h368zM618 233q235 0 289 299
v-10l11 66l-3 -8q12 55 6.5 107.5t-24 93.5t-63.5 66t-111 25q-126 0 -210.5 -121t-84.5 -288q0 -230 190 -230z" />
    <glyph glyph-name="Gdotaccent" unicode="&#x120;" horiz-adv-x="1593" 
d="M1012 1479q-78 0 -123 40.5t-45 112.5q0 82 56 144.5t157 62.5q78 0 123 -40.5t45 -112.5q0 -82 -55.5 -144.5t-157.5 -62.5zM995 1442q147 0 258.5 -37.5t177.5 -105t95.5 -156.5t21.5 -195l-2 -20h-368v20q-6 223 -234 223q-83 0 -158.5 -37.5t-135.5 -108.5t-96 -185
t-36 -256q0 -177 71.5 -259.5t188.5 -82.5q216 0 328 225h-275l52 287h622l-133 -754h-287l5 219l-91 -158q-66 -50 -145 -70t-195 -20q-247 0 -389.5 148t-142.5 422q0 172 48 319.5t131 253t193.5 180.5t236.5 111.5t259 36.5z" />
    <glyph glyph-name="gdotaccent" unicode="&#x121;" horiz-adv-x="1392" 
d="M848 1178q-78 0 -123 40.5t-45 112.5q0 82 56 144.5t157 62.5q78 0 123 -41t45 -113q0 -82 -55.5 -144t-157.5 -62zM1376 1094l-143 -815q-13 -71 -41 -211q-57 -270 -227 -394.5t-492 -124.5q-247 0 -372.5 98t-112.5 285l2 21h356l-2 -21q-3 -53 47.5 -82.5
t138.5 -29.5q108 0 183 50.5t102 156.5q16 65 29 143l2 6l-109 -125q-101 -67 -268 -67q-204 0 -317 110.5t-113 308.5q0 113 25.5 218t78.5 196.5t128.5 159t182 106.5t232.5 39q70 0 138 -14.5t104 -38.5l53 -123l27 148h368zM618 233q235 0 289 299v-10l11 66l-3 -8
q12 55 6.5 107.5t-24 93.5t-63.5 66t-111 25q-126 0 -210.5 -121t-84.5 -288q0 -230 190 -230z" />
    <glyph glyph-name="Gcommaaccent" unicode="&#x122;" horiz-adv-x="1593" 
d="M995 1442q147 0 258.5 -37.5t177.5 -105t95.5 -156.5t21.5 -195l-2 -20h-368v20q-6 223 -234 223q-83 0 -158.5 -37.5t-135.5 -108.5t-96 -185t-36 -256q0 -177 71.5 -259.5t188.5 -82.5q216 0 328 225h-275l52 287h622l-133 -754h-287l5 219l-91 -158q-66 -50 -145 -70
t-195 -20q-247 0 -389.5 148t-142.5 422q0 172 48 319.5t131 253t193.5 180.5t236.5 111.5t259 36.5zM578 -76h253v-20l-253 -346h-197z" />
    <glyph glyph-name="gcommaaccent" unicode="&#x123;" horiz-adv-x="1353" 
d="M918 1161h-254v21l254 346h196zM1376 1094l-143 -815q-13 -71 -41 -211q-57 -270 -227 -394.5t-492 -124.5q-247 0 -372.5 98t-112.5 285l2 21h356l-2 -21q-3 -53 47.5 -82.5t138.5 -29.5q108 0 183 50.5t102 156.5q16 65 29 143l2 6l-109 -125q-101 -67 -268 -67
q-204 0 -317 110.5t-113 308.5q0 113 25.5 218t78.5 196.5t128.5 159t182 106.5t232.5 39q70 0 138 -14.5t104 -38.5l53 -123l27 148h368zM618 233q235 0 289 299v-10l11 66l-3 -8q12 55 6.5 107.5t-24 93.5t-63.5 66t-111 25q-126 0 -210.5 -121t-84.5 -288
q0 -230 190 -230z" />
    <glyph glyph-name="Hbar" unicode="&#x126;" horiz-adv-x="1558" 
d="M1599 987h-81l-175 -987h-368l96 549h-565l-96 -549h-369l174 987h-80l35 197h80l41 229h368l-41 -229h566l41 229h368l-41 -229h82zM1149 987h-565l-27 -151h565z" />
    <glyph glyph-name="hbar" unicode="&#x127;" horiz-adv-x="1343" 
d="M956 1122q162 0 246 -76.5t84 -203.5q0 -73 -24 -211l-113 -631h-369l99 549q20 120 20 170q0 153 -145 153q-90 0 -155.5 -91t-98.5 -273l-88 -508h-369l207 1178h-109l35 196h109l24 142h369l-25 -142h215l-34 -196h-216l-43 -240l123 121q117 63 258 63z" />
    <glyph glyph-name="Imacron" unicode="&#x12a;" horiz-adv-x="626" 
d="M811 1556h-614l32 197h615zM412 0h-369l250 1413h369z" />
    <glyph glyph-name="imacron" unicode="&#x12b;" horiz-adv-x="593" 
d="M725 1194h-614l32 197h615zM385 0h-369l195 1094h369z" />
    <glyph glyph-name="Iogonek" unicode="&#x12e;" horiz-adv-x="626" 
d="M412 0h-117q-53 0 -86 -54.5t-33 -113.5q0 -42 20 -61t52 -19q47 0 94 31l-27 -137q-122 -103 -295 -103q-96 0 -151 38.5t-55 121.5q0 188 231 307l248 1403h369z" />
    <glyph glyph-name="iogonek" unicode="&#x12f;" horiz-adv-x="593" 
d="M426 1178q-78 0 -123 40.5t-45 112.5q0 82 56 144.5t157 62.5q78 0 123 -41t45 -113q0 -82 -55.5 -144t-157.5 -62zM211 1094h369l-195 -1094h-117q-53 0 -85.5 -54t-32.5 -114q0 -80 71 -80q47 0 94 31l-26 -137q-122 -103 -295 -103q-96 0 -151.5 39t-55.5 121
q0 188 231 307z" />
    <glyph glyph-name="Idotaccent" unicode="&#x130;" horiz-adv-x="626" 
d="M545 1839q78 0 123 -40.5t45 -112.5q0 -82 -55.5 -144.5t-157.5 -62.5q-78 0 -123 40.5t-45 112.5q0 82 56 144.5t157 62.5zM412 0h-369l250 1413h369z" />
    <glyph glyph-name="dotlessi" unicode="&#x131;" horiz-adv-x="593" 
d="M385 0h-369l195 1094h369z" />
    <glyph glyph-name="IJ" unicode="&#x132;" horiz-adv-x="1927" 
d="M412 0h-369l250 1413h369zM1929 1413l-141 -801q-15 -98 -43 -215q-98 -426 -619 -426q-253 0 -373 137t-87 371l8 62h368l-6 -62q-14 -130 25.5 -183.5t124.5 -53.5q147 0 196 178q14 56 29 135l150 858h368z" />
    <glyph glyph-name="ij" unicode="&#x133;" horiz-adv-x="1146" 
d="M471 1538q78 0 123 -41t45 -113q0 -82 -55.5 -144t-157.5 -62q-78 0 -123 40.5t-45 112.5q0 82 56 144.5t157 62.5zM1014 1538q88 0 135 -39.5t47 -109.5q0 -211 -207 -211q-88 0 -135 39.5t-47 109.5q0 211 207 211zM385 0h-369l195 1094h369zM1139 1094l-187 -1061
q-9 -60 -28 -131q-39 -162 -159.5 -247t-348.5 -85q-74 0 -121 8l43 248q101 -11 152 12.5t71 93.5q13 47 23 99l186 1063h369z" />
    <glyph glyph-name="Kcommaaccent" unicode="&#x136;" horiz-adv-x="1464" 
d="M893 731l479 -731h-457l-309 545l-119 -111l-75 -434h-369l250 1413h369l-111 -625l649 625h440zM512 -76h254v-20l-254 -346h-197z" />
    <glyph glyph-name="kcommaaccent" unicode="&#x137;" horiz-adv-x="1312" 
d="M842 584l403 -584h-448l-248 410l-109 -93l-55 -317h-369l267 1505h368l-153 -868l465 457h432zM451 -76h254v-20l-254 -346h-197z" />
    <glyph glyph-name="Lacute" unicode="&#x139;" horiz-adv-x="1261" 
d="M580 1505h-197l231 256h328zM1182 311l-56 -311h-1083l250 1413h369l-195 -1102h715z" />
    <glyph glyph-name="lacute" unicode="&#x13a;" horiz-adv-x="626" 
d="M543 1591h-197l232 256h327zM645 1505l-199 -1112q-14 -79 -14 -110q0 -42 23.5 -54.5t85.5 -9.5l-41 -227q-86 -12 -197 -12q-133 0 -194.5 39.5t-61.5 127.5q0 76 29 240l200 1118h369z" />
    <glyph glyph-name="Lcommaaccent" unicode="&#x13b;" horiz-adv-x="1261" 
d="M1182 311l-56 -311h-1083l250 1413h369l-195 -1102h715zM459 -76h254v-20l-254 -346h-197z" />
    <glyph glyph-name="lcommaaccent" unicode="&#x13c;" horiz-adv-x="626" 
d="M645 1505l-199 -1112q-14 -79 -14 -110q0 -42 23.5 -54.5t85.5 -9.5l-41 -227q-86 -12 -197 -12q-133 0 -194.5 39.5t-61.5 127.5q0 76 29 240l200 1118h369zM377 -96l-254 -346h-197l197 366h254v-20z" />
    <glyph glyph-name="Lcaron" unicode="&#x13d;" horiz-adv-x="1261" 
d="M1182 311l-56 -311h-1083l250 1413h369l-195 -1102h715z" />
    <glyph glyph-name="lcaron" unicode="&#x13e;" horiz-adv-x="626" 
d="M645 1505l-199 -1112q-14 -79 -14 -110q0 -42 23.5 -54.5t85.5 -9.5l-41 -227q-86 -12 -197 -12q-133 0 -194.5 39.5t-61.5 127.5q0 76 29 240l200 1118h369z" />
    <glyph glyph-name="Ldot" unicode="&#x13f;" horiz-adv-x="1261" 
d="M1182 311l-56 -311h-1083l250 1413h369l-195 -1102h715zM881 639q-74 0 -118 41.5t-44 112.5q0 89 63.5 147.5t163.5 58.5q74 0 118 -41t44 -112q0 -89 -63.5 -148t-163.5 -59z" />
    <glyph glyph-name="ldot" unicode="&#x140;" horiz-adv-x="974" 
d="M645 1505l-199 -1112q-14 -79 -14 -110q0 -42 23.5 -54.5t85.5 -9.5l-41 -227q-86 -12 -197 -12q-133 0 -194.5 39.5t-61.5 127.5q0 76 29 240l200 1118h369zM850 1028q74 0 123 -41.5t49 -116.5q0 -115 -68 -183.5t-178 -68.5q-73 0 -122.5 41.5t-49.5 116.5
q0 115 68 183.5t178 68.5z" />
    <glyph glyph-name="Lslash" unicode="&#x141;" horiz-adv-x="1349" 
d="M1270 311l-56 -311h-1083l100 573l-188 -92l41 232l188 92l109 608h369l-74 -414l213 103l-41 -232l-213 -102l-80 -457h715z" />
    <glyph glyph-name="lslash" unicode="&#x142;" horiz-adv-x="694" 
d="M541 659l-47 -266q-15 -84 -15 -110q0 -42 23.5 -54.5t85.5 -9.5l-41 -227q-85 -12 -197 -12q-133 0 -194.5 39.5t-61.5 127.5q0 76 29 240l6 37l-139 -80l43 244l141 80l150 837h368l-108 -602l131 74l-43 -244z" />
    <glyph glyph-name="Nacute" unicode="&#x143;" horiz-adv-x="1609" 
d="M1081 1505h-196l231 256h328zM1645 1413l-250 -1413h-482l-338 936l-163 -936h-369l250 1413h459l354 -977l170 977h369z" />
    <glyph glyph-name="nacute" unicode="&#x144;" horiz-adv-x="1316" 
d="M852 1165h-197l232 256h327zM930 1122q162 0 246 -76.5t84 -203.5q0 -67 -25 -211l-113 -631h-368l98 549q20 120 20 170q0 153 -145 153q-90 0 -155.5 -91t-98.5 -273l-88 -508h-369l193 1094h369l-29 -156l123 121q117 63 258 63z" />
    <glyph glyph-name="Ncommaaccent" unicode="&#x145;" horiz-adv-x="1609" 
d="M1645 1413l-250 -1413h-482l-338 936l-163 -936h-369l250 1413h459l354 -977l170 977h369zM614 -76h254v-20l-254 -346h-196z" />
    <glyph glyph-name="ncommaaccent" unicode="&#x146;" horiz-adv-x="1316" 
d="M930 1122q162 0 246 -76.5t84 -203.5q0 -67 -25 -211l-113 -631h-368l98 549q20 120 20 170q0 153 -145 153q-90 0 -155.5 -91t-98.5 -273l-88 -508h-369l193 1094h369l-29 -156l123 121q117 63 258 63zM449 -76h253v-20l-253 -346h-197z" />
    <glyph glyph-name="Ncaron" unicode="&#x147;" horiz-adv-x="1609" 
d="M846 1505l-82 256h213l39 -147l96 147h211l-172 -256h-305zM1645 1413l-250 -1413h-482l-338 936l-163 -936h-369l250 1413h459l354 -977l170 977h369z" />
    <glyph glyph-name="ncaron" unicode="&#x148;" horiz-adv-x="1316" 
d="M614 1165l-82 256h213l39 -147l97 147h211l-172 -256h-306zM930 1122q162 0 246 -76.5t84 -203.5q0 -67 -25 -211l-113 -631h-368l98 549q20 120 20 170q0 153 -145 153q-90 0 -155.5 -91t-98.5 -273l-88 -508h-369l193 1094h369l-29 -156l123 121q117 63 258 63z" />
    <glyph glyph-name="Eng" unicode="&#x14a;" horiz-adv-x="1611" 
d="M1645 1413l-269 -1530q-12 -69 -27 -115t-42.5 -87t-67 -65t-101.5 -41.5t-145 -24.5t-198 -7l47 271q90 9 127 36.5t47 81.5l4 27l-451 975l-155 -934h-369l248 1413h459l376 -893l148 893h369z" />
    <glyph glyph-name="eng" unicode="&#x14b;" horiz-adv-x="1316" 
d="M930 1122q162 0 246 -76.5t84 -203.5q0 -67 -25 -211l-119 -668q-10 -53 -24 -94q-52 -133 -169 -179t-384 -46l47 270q88 0 123.5 19.5t44.5 66.5l98 549q20 120 20 170q0 153 -145 153q-90 0 -155.5 -91t-98.5 -273l-88 -508h-369l193 1094h369l-29 -156l123 121
q117 63 258 63z" />
    <glyph glyph-name="Omacron" unicode="&#x14c;" horiz-adv-x="1654" 
d="M1352 1556h-615l33 197h614zM956 1442q159 0 287.5 -46.5t213 -129t130 -194t45.5 -243.5q0 -195 -64 -357.5t-175 -271.5t-261.5 -169t-322.5 -60q-159 0 -287.5 46.5t-213 129t-130 194t-45.5 243.5q0 195 64 357.5t175 271.5t261.5 169t322.5 60zM821 242
q82 0 152.5 34.5t119.5 92.5t83.5 133t50.5 155.5t16 161.5q0 160 -77.5 256t-221.5 96q-82 0 -152.5 -34.5t-119.5 -92.5t-83.5 -133t-50.5 -155.5t-16 -161.5q0 -160 77.5 -256t221.5 -96z" />
    <glyph glyph-name="omacron" unicode="&#x14d;" horiz-adv-x="1308" 
d="M1077 1194h-614l33 197h614zM727 1122q259 0 398 -132t139 -355q0 -134 -44 -252.5t-127 -211t-214.5 -146.5t-294.5 -54q-259 0 -398 132.5t-139 355.5q0 134 44 252.5t127 210.5t214.5 146t294.5 54zM610 221q84 0 145.5 59.5t90 149.5t28.5 197q0 112 -44 178.5
t-130 66.5q-84 0 -145.5 -59t-90 -149t-28.5 -197q0 -112 44 -179t130 -67z" />
    <glyph glyph-name="Ohungarumlaut" unicode="&#x150;" horiz-adv-x="1654" 
d="M858 1507h-196l231 256h328zM1094 1507l231 256h328l-363 -256h-196zM956 1442q159 0 287.5 -46.5t213 -129t130 -194t45.5 -243.5q0 -195 -64 -357.5t-175 -271.5t-261.5 -169t-322.5 -60q-159 0 -287.5 46.5t-213 129t-130 194t-45.5 243.5q0 195 64 357.5t175 271.5
t261.5 169t322.5 60zM821 242q82 0 152.5 34.5t119.5 92.5t83.5 133t50.5 155.5t16 161.5q0 160 -77.5 256t-221.5 96q-82 0 -152.5 -34.5t-119.5 -92.5t-83.5 -133t-50.5 -155.5t-16 -161.5q0 -160 77.5 -256t221.5 -96z" />
    <glyph glyph-name="ohungarumlaut" unicode="&#x151;" horiz-adv-x="1308" 
d="M588 1165h-197l232 256h327zM823 1165l232 256h327l-362 -256h-197zM727 1122q259 0 398 -132t139 -355q0 -134 -44 -252.5t-127 -211t-214.5 -146.5t-294.5 -54q-259 0 -398 132.5t-139 355.5q0 134 44 252.5t127 210.5t214.5 146t294.5 54zM610 221q84 0 145.5 59.5
t90 149.5t28.5 197q0 112 -44 178.5t-130 66.5q-84 0 -145.5 -59t-90 -149t-28.5 -197q0 -112 44 -179t130 -67z" />
    <glyph glyph-name="OE" unicode="&#x152;" horiz-adv-x="2355" 
d="M1679 1126l-47 -274h654l-52 -287h-653l-49 -278h715l-52 -287h-1083l37 209l-88 -135q-91 -61 -167.5 -82t-213.5 -21q-119 0 -218 36.5t-174 108.5t-117 187.5t-42 263.5q0 130 31.5 254.5t98 237.5t160.5 198t228 135t291 50q135 0 208 -20.5t138 -78.5l41 -139
l37 209h1063l-51 -287h-695zM809 242q161 0 274 121.5t154 343.5q12 76 13 141t-13.5 125.5t-45 103.5t-86 68.5t-132.5 25.5q-94 0 -173 -35.5t-131.5 -93.5t-89 -135t-53 -158.5t-16.5 -164.5q0 -342 299 -342z" />
    <glyph glyph-name="oe" unicode="&#x153;" horiz-adv-x="2054" 
d="M1968 455h-762q-2 -20 -2 -39q0 -107 42.5 -151t121.5 -44q77 0 131 36.5t76 100.5h362q-80 -187 -234.5 -287t-371.5 -100q-258 0 -356 187q-165 -187 -428 -187q-236 0 -370 123t-134 344q0 93 24 186t78 182t131.5 157t194 109.5t256.5 41.5q281 0 385 -192
q169 192 449 192q110 0 196 -35.5t139.5 -96.5t81 -140t27.5 -170q0 -119 -37 -217zM590 221q74 0 131 44t88 113.5t46 141t15 139.5q0 95 -44 150t-121 55q-74 0 -131 -40t-88.5 -104.5t-46.5 -134t-15 -139.5q0 -103 44.5 -164t121.5 -61zM1481 864q-153 0 -221 -184h370
q2 14 2 25q0 78 -40 118.5t-111 40.5z" />
    <glyph glyph-name="Racute" unicode="&#x154;" horiz-adv-x="1366" 
d="M907 1505h-196l231 256h328zM1399 1094q0 -161 -92.5 -268.5t-270.5 -153.5q93 -40 130.5 -134t37.5 -266q0 -169 47 -272h-401q-14 106 -14 313q0 102 -33.5 160t-97.5 62q-41 2 -115 2h-84l-94 -537h-369l250 1413h561q126 0 219 -10q69 -8 126 -29t103 -57t71.5 -93
t25.5 -130zM553 803h135q71 0 98 2q211 15 211 192q0 64 -38.5 93t-106.5 34q-27 2 -98 2h-144z" />
    <glyph glyph-name="racute" unicode="&#x155;" horiz-adv-x="851" 
d="M631 1165h-197l232 256h327zM539 870l106 156q50 47 113 71.5t119 24.5q43 0 81 -6l-51 -301q-49 7 -97 3.5t-91.5 -14t-83.5 -40.5t-73 -75.5t-60 -118.5t-45 -169l-72 -401h-369l191 1085h368z" />
    <glyph glyph-name="Rcommaaccent" unicode="&#x156;" horiz-adv-x="1366" 
d="M1399 1094q0 -161 -92.5 -268.5t-270.5 -153.5q93 -40 130.5 -134t37.5 -266q0 -169 47 -272h-401q-14 106 -14 313q0 102 -33.5 160t-97.5 62q-41 2 -115 2h-84l-94 -537h-369l250 1413h561q126 0 219 -10q69 -8 126 -29t103 -57t71.5 -93t25.5 -130zM553 803h135
q71 0 98 2q211 15 211 192q0 64 -38.5 93t-106.5 34q-27 2 -98 2h-144zM440 -76h254v-20l-254 -346h-196z" />
    <glyph glyph-name="rcommaaccent" unicode="&#x157;" horiz-adv-x="851" 
d="M877 1122q43 0 81 -6l-51 -301q-49 7 -97 3.5t-91.5 -14t-83.5 -40.5t-73 -75.5t-60 -118.5t-45 -169l-72 -401h-369l191 1085h368l-36 -215l106 156q50 47 113 71.5t119 24.5zM86 -76h254v-20l-254 -346h-197z" />
    <glyph glyph-name="Rcaron" unicode="&#x158;" horiz-adv-x="1366" 
d="M672 1505l-82 256h213l39 -147l96 147h211l-172 -256h-305zM1399 1094q0 -161 -92.5 -268.5t-270.5 -153.5q93 -40 130.5 -134t37.5 -266q0 -169 47 -272h-401q-14 106 -14 313q0 102 -33.5 160t-97.5 62q-41 2 -115 2h-84l-94 -537h-369l250 1413h561q126 0 219 -10
q69 -8 126 -29t103 -57t71.5 -93t25.5 -130zM553 803h135q71 0 98 2q211 15 211 192q0 64 -38.5 93t-106.5 34q-27 2 -98 2h-144z" />
    <glyph glyph-name="rcaron" unicode="&#x159;" horiz-adv-x="851" 
d="M393 1165l-82 256h213l39 -147l96 147h211l-172 -256h-305zM877 1122q43 0 81 -6l-51 -301q-49 7 -97 3.5t-91.5 -14t-83.5 -40.5t-73 -75.5t-60 -118.5t-45 -169l-72 -401h-369l191 1085h368l-36 -215l106 156q50 47 113 71.5t119 24.5z" />
    <glyph glyph-name="Sacute" unicode="&#x15a;" horiz-adv-x="1284" 
d="M870 1505h-196l231 256h328zM778 1442q136 0 236.5 -35.5t158 -99.5t83 -146.5t20.5 -183.5h-369q3 92 -36.5 143t-127.5 51q-75 0 -121.5 -39t-46.5 -110q0 -59 60 -100.5t207 -77.5q368 -90 368 -377q0 -120 -53 -216t-143 -156t-203.5 -92t-239.5 -32
q-130 0 -233.5 28t-177 83.5t-107.5 144.5t-22 205h368q0 -94 60.5 -142t150.5 -48q86 0 145.5 42.5t59.5 108.5q0 51 -50 94.5t-155 71.5q-217 56 -323.5 143.5t-106.5 239.5q0 117 50 213.5t133.5 158t190.5 95t224 33.5z" />
    <glyph glyph-name="sacute" unicode="&#x15b;" horiz-adv-x="1054" 
d="M721 1165h-197l232 256h327zM578 1114q225 0 336.5 -94.5t121.5 -253.5h-360q-8 57 -36.5 88t-74.5 31q-42 0 -67 -21t-25 -55q0 -52 42 -82t179 -76q162 -56 232.5 -132.5t70.5 -199.5q0 -170 -143.5 -265t-374.5 -95q-230 0 -362.5 94t-141.5 275h363q7 -71 49 -105.5
t105 -34.5q55 0 87.5 24t32.5 69q0 48 -48.5 84t-188.5 86q-72 26 -120.5 51t-88 61t-58 85t-18.5 114q0 149 128.5 250.5t359.5 101.5z" />
    <glyph glyph-name="Scedilla" unicode="&#x15e;" horiz-adv-x="1284" 
d="M1276 977h-369q3 92 -36.5 143t-127.5 51q-75 0 -121.5 -39t-46.5 -110q0 -59 60 -100.5t207 -77.5q368 -90 368 -377q0 -114 -48.5 -207t-131.5 -153t-188 -94.5t-224 -39.5l-40 -59q172 -24 172 -141q0 -99 -92 -151t-230 -52q-121 0 -176 14l27 142q56 -15 116 -15
q131 0 131 60q0 63 -188 49l104 160q-211 26 -321.5 139t-89.5 313h368q0 -94 60.5 -142t150.5 -48q86 0 145.5 42.5t59.5 108.5q0 51 -50 94.5t-155 71.5q-217 56 -323.5 143.5t-106.5 239.5q0 117 50 213.5t133.5 158t190.5 95t224 33.5q136 0 236.5 -35.5t158 -99.5
t83 -146.5t20.5 -183.5z" />
    <glyph glyph-name="scedilla" unicode="&#x15f;" horiz-adv-x="1054" 
d="M694 651q162 -56 232.5 -132.5t70.5 -199.5q0 -167 -137 -261t-362 -99l-31 -45q172 -24 172 -141q0 -99 -92 -151t-230 -52q-121 0 -176 14l27 142q56 -15 117 -15q131 0 131 60q0 63 -189 49l101 151q-163 28 -254.5 118.5t-98.5 238.5h363q7 -71 49 -105.5t105 -34.5
q55 0 87.5 24t32.5 69q0 48 -48.5 84t-188.5 86q-72 26 -120.5 51t-88 61t-58 85t-18.5 114q0 149 128.5 250.5t359.5 101.5q225 0 336.5 -94.5t121.5 -253.5h-360q-8 57 -36.5 88t-74.5 31q-42 0 -67 -21t-25 -55q0 -52 42 -82t179 -76z" />
    <glyph glyph-name="Scaron" unicode="&#x160;" horiz-adv-x="1284" 
d="M635 1505l-82 256h213l39 -147l96 147h211l-172 -256h-305zM1276 977h-369q3 92 -36.5 143t-127.5 51q-75 0 -121.5 -39t-46.5 -110q0 -59 60 -100.5t207 -77.5q368 -90 368 -377q0 -120 -53 -216t-143 -156t-203.5 -92t-239.5 -32q-130 0 -233.5 28t-177 83.5
t-107.5 144.5t-22 205h368q0 -94 60.5 -142t150.5 -48q86 0 145.5 42.5t59.5 108.5q0 51 -50 94.5t-155 71.5q-217 56 -323.5 143.5t-106.5 239.5q0 117 50 213.5t133.5 158t190.5 95t224 33.5q136 0 236.5 -35.5t158 -99.5t83 -146.5t20.5 -183.5z" />
    <glyph glyph-name="scaron" unicode="&#x161;" horiz-adv-x="1054" 
d="M483 1165l-82 256h213l39 -147l97 147h211l-173 -256h-305zM694 651q162 -56 232.5 -132.5t70.5 -199.5q0 -170 -143.5 -265t-374.5 -95q-230 0 -362.5 94t-141.5 275h363q7 -71 49 -105.5t105 -34.5q55 0 87.5 24t32.5 69q0 48 -48.5 84t-188.5 86q-72 26 -120.5 51
t-88 61t-58 85t-18.5 114q0 149 128.5 250.5t359.5 101.5q225 0 336.5 -94.5t121.5 -253.5h-360q-8 57 -36.5 88t-74.5 31q-42 0 -67 -21t-25 -55q0 -52 42 -82t179 -76z" />
    <glyph glyph-name="Tcedilla" unicode="&#x162;" horiz-adv-x="1294" 
d="M670 0l-60 -86q172 -24 172 -141q0 -99 -91.5 -151t-229.5 -52q-121 0 -176 14l26 142q56 -15 117 -15q131 0 131 60q0 63 -188 49l118 180h-98l199 1126h-461l53 287h1286l-53 -287h-457l-198 -1126h-90z" />
    <glyph glyph-name="tcedilla" unicode="&#x163;" horiz-adv-x="808" 
d="M594 856l-72 -403q-14 -77 -14 -125q0 -69 49 -91t162 -8l-41 -231q-126 -27 -252 -27l-39 -57q172 -24 172 -141q0 -99 -91.5 -151t-229.5 -52q-122 0 -177 14l27 142q56 -15 117 -15q131 0 131 60q0 63 -189 49l113 170q-75 21 -108 68t-33 124q0 78 24 217l82 457
h-166l41 229h164l51 283h369l-49 -283h237l-41 -229h-237z" />
    <glyph glyph-name="Tcaron" unicode="&#x164;" horiz-adv-x="1294" 
d="M692 1505l-82 256h213l39 -147l96 147h211l-172 -256h-305zM1415 1126h-457l-198 -1126h-369l199 1126h-461l53 287h1286z" />
    <glyph glyph-name="tcaron" unicode="&#x165;" horiz-adv-x="808" 
d="M1171 1536v-20l-253 -347h-197l197 367h253zM635 1085h237l-41 -229h-237l-72 -403q-14 -77 -14 -125q0 -69 49 -91t162 -8l-41 -231q-129 -27 -256 -27q-163 0 -233 51t-70 160q0 78 24 217l82 457h-166l41 229h164l51 283h369z" />
    <glyph glyph-name="Tbar" unicode="&#x166;" 
d="M958 1126l-57 -329h195l-35 -197h-195l-106 -600h-369l107 600h-174l34 197h174l58 329h-461l53 287h1286l-53 -287h-457z" />
    <glyph glyph-name="tbar" unicode="&#x167;" horiz-adv-x="808" 
d="M594 856l-29 -158h135l-32 -196h-138l-8 -49q-14 -77 -14 -125q0 -69 49 -91t162 -8l-41 -231q-129 -27 -256 -27q-163 0 -233 51t-70 160q0 78 24 217l19 103h-109l33 196h111l28 158h-166l41 229h164l51 283h369l-49 -283h237l-41 -229h-237z" />
    <glyph glyph-name="Umacron" unicode="&#x16a;" horiz-adv-x="1472" 
d="M1253 1556h-614l33 197h614zM1546 1413l-131 -751q-20 -115 -45 -220q-21 -87 -54 -155.5t-86.5 -129t-125 -100.5t-173.5 -63t-229 -23q-281 0 -427 115t-146 299q0 95 35 297l129 731h369l-152 -860q-12 -67 -12 -119q0 -92 65.5 -142t165.5 -50q114 0 182 51t99 176
q9 36 16 84l152 860h368z" />
    <glyph glyph-name="umacron" unicode="&#x16b;" horiz-adv-x="1308" 
d="M1110 1194h-614l32 197h615zM1292 1094l-192 -1094h-369l29 156l-123 -121q-119 -64 -258 -64q-161 0 -245.5 77t-84.5 204q0 67 25 211l112 631h369l-98 -549q-21 -126 -21 -170q0 -154 146 -154q90 0 155.5 91.5t98.5 273.5l88 508h368z" />
    <glyph glyph-name="Uring" unicode="&#x16e;" horiz-adv-x="1472" 
d="M1001 1909q94 0 155 -54.5t61 -134.5q0 -107 -78.5 -174t-204.5 -67q-94 0 -153.5 53.5t-59.5 134.5q0 108 77 175t203 67zM983 1774q-36 0 -63 -28.5t-27 -70.5q0 -28 16.5 -44.5t44.5 -16.5q36 0 63 28t27 70q0 28 -16.5 45t-44.5 17zM1546 1413l-131 -751
q-20 -115 -45 -220q-21 -87 -54 -155.5t-86.5 -129t-125 -100.5t-173.5 -63t-229 -23q-281 0 -427 115t-146 299q0 95 35 297l129 731h369l-152 -860q-12 -67 -12 -119q0 -92 65.5 -142t165.5 -50q114 0 182 51t99 176q9 36 16 84l152 860h368z" />
    <glyph glyph-name="uring" unicode="&#x16f;" horiz-adv-x="1308" 
d="M803 1161q-102 0 -159.5 50t-57.5 139q0 109 77 179t205 70q99 0 156 -49.5t57 -138.5q0 -109 -76 -179.5t-202 -70.5zM848 1464q-47 0 -68.5 -34.5t-21.5 -71.5q0 -29 16.5 -45.5t44.5 -16.5q47 0 68.5 35t21.5 72q0 29 -16.5 45t-44.5 16zM1292 1094l-192 -1094h-369
l29 156l-123 -121q-119 -64 -258 -64q-161 0 -245.5 77t-84.5 204q0 67 25 211l112 631h369l-98 -549q-21 -126 -21 -170q0 -154 146 -154q90 0 155.5 91.5t98.5 273.5l88 508h368z" />
    <glyph glyph-name="Uhungarumlaut" unicode="&#x170;" horiz-adv-x="1472" 
d="M760 1507h-197l232 256h327zM1192 1507h-197l232 256h327zM1546 1413l-131 -751q-20 -115 -45 -220q-21 -87 -54 -155.5t-86.5 -129t-125 -100.5t-173.5 -63t-229 -23q-281 0 -427 115t-146 299q0 95 35 297l129 731h369l-152 -860q-12 -67 -12 -119q0 -92 65.5 -142
t165.5 -50q114 0 182 51t99 176q9 36 16 84l152 860h368z" />
    <glyph glyph-name="uhungarumlaut" unicode="&#x171;" horiz-adv-x="1308" 
d="M621 1165h-197l231 256h328zM856 1165l231 256h328l-362 -256h-197zM924 1094h368l-192 -1094h-369l29 156l-123 -121q-119 -64 -258 -64q-161 0 -245.5 77t-84.5 204q0 67 25 211l112 631h369l-98 -549q-21 -126 -21 -170q0 -154 146 -154q90 0 155.5 91.5t98.5 273.5z
" />
    <glyph glyph-name="Uogonek" unicode="&#x172;" horiz-adv-x="1472" 
d="M1546 1413l-131 -751q-20 -115 -45 -220q-46 -193 -164 -310.5t-340 -149.5q-30 -22 -47.5 -65.5t-17.5 -84.5q0 -80 71 -80q48 0 95 31l-27 -137q-122 -103 -295 -103q-96 0 -151.5 39t-55.5 121q0 162 170 272q-236 20 -357.5 131.5t-121.5 278.5q0 95 35 297l129 731
h369l-152 -860q-12 -67 -12 -119q0 -92 65.5 -142t165.5 -50q114 0 182 51t99 176q9 36 16 84l152 860h368z" />
    <glyph glyph-name="uogonek" unicode="&#x173;" horiz-adv-x="1308" 
d="M1100 0h-68q-53 0 -86 -54.5t-33 -113.5q0 -42 20 -61t52 -19q47 0 94 31l-26 -137q-122 -103 -295 -103q-96 0 -151.5 39t-55.5 121q0 181 213 297h-33l29 156l-123 -121q-119 -64 -258 -64q-161 0 -245.5 77t-84.5 204q0 67 25 211l112 631h369l-98 -549
q-21 -126 -21 -170q0 -154 146 -154q90 0 155.5 91.5t98.5 273.5l88 508h368z" />
    <glyph glyph-name="Wcircumflex" unicode="&#x174;" horiz-adv-x="2080" 
d="M1184 1505h-211l172 256h305l82 -256h-213l-39 148zM2261 1413l-604 -1413h-492v1034l-360 -1034h-494l-104 1413h379l26 -1096l355 1076h530l-31 -1094l387 1114h408z" />
    <glyph glyph-name="wcircumflex" unicode="&#x175;" horiz-adv-x="1728" 
d="M913 1165h-211l172 256h306l82 -256h-213l-39 156zM1858 1094l-539 -1094h-412l-10 743l-268 -743h-412l-154 1094h406l12 -764l260 755h439l8 -759l272 768h398z" />
    <glyph glyph-name="Ycircumflex" unicode="&#x176;" horiz-adv-x="1398" 
d="M834 1505h-211l172 256h305l82 -256h-213l-39 148zM913 530l-94 -530h-368l96 543l-344 870h393l195 -565l368 565h408z" />
    <glyph glyph-name="ycircumflex" unicode="&#x177;" horiz-adv-x="1196" 
d="M629 1165h-211l172 256h305l82 -256h-213l-39 156zM1325 1094l-620 -1094q-135 -237 -265.5 -333.5t-316.5 -96.5q-80 0 -154 12l39 234q50 -9 103 -9q124 0 188 125l8 19l-244 1143h410l86 -785l363 785h403z" />
    <glyph glyph-name="Ydieresis" unicode="&#x178;" horiz-adv-x="1398" 
d="M700 1479q-67 0 -103 32.5t-36 92.5q0 80 52 127t118 47q65 0 101 -32t36 -93q0 -80 -51.5 -127t-116.5 -47zM1110 1479q-67 0 -103 32.5t-36 92.5q0 80 52 127t118 47q65 0 101 -32t36 -93q0 -80 -51.5 -127t-116.5 -47zM913 530l-94 -530h-368l96 543l-344 870h393
l195 -565l368 565h408z" />
    <glyph glyph-name="Zacute" unicode="&#x179;" horiz-adv-x="1327" 
d="M954 1505h-196l231 256h328zM1360 1128l-838 -841h699l-52 -287h-1157l49 279l844 847h-637l51 287h1092z" />
    <glyph glyph-name="zacute" unicode="&#x17a;" horiz-adv-x="1112" 
d="M741 1165h-196l231 256h328zM1100 860l-660 -631h566l-39 -229h-1010l37 215l665 641h-503l39 229h944z" />
    <glyph glyph-name="Zdotaccent" unicode="&#x17b;" horiz-adv-x="1327" 
d="M874 1479q-78 0 -122.5 40.5t-44.5 112.5q0 82 56 144.5t157 62.5q78 0 122.5 -40.5t44.5 -112.5q0 -82 -55.5 -144.5t-157.5 -62.5zM1360 1128l-838 -841h699l-52 -287h-1157l49 279l844 847h-637l51 287h1092z" />
    <glyph glyph-name="zdotaccent" unicode="&#x17c;" horiz-adv-x="1112" 
d="M670 1178q-78 0 -123 40.5t-45 112.5q0 82 56 144.5t157 62.5q78 0 123 -41t45 -113q0 -82 -55.5 -144t-157.5 -62zM1100 860l-660 -631h566l-39 -229h-1010l37 215l665 641h-503l39 229h944z" />
    <glyph glyph-name="Zcaron" unicode="&#x17d;" horiz-adv-x="1327" 
d="M719 1505l-82 256h213l39 -147l96 147h211l-172 -256h-305zM1360 1128l-838 -841h699l-52 -287h-1157l49 279l844 847h-637l51 287h1092z" />
    <glyph glyph-name="zcaron" unicode="&#x17e;" horiz-adv-x="1112" 
d="M504 1165l-82 256h213l39 -147l96 147h211l-172 -256h-305zM1100 860l-660 -631h566l-39 -229h-1010l37 215l665 641h-503l39 229h944z" />
    <glyph glyph-name="Scommaaccent" unicode="&#x218;" horiz-adv-x="1284" 
d="M778 1442q136 0 236.5 -35.5t158 -99.5t83 -146.5t20.5 -183.5h-369q3 92 -36.5 143t-127.5 51q-75 0 -121.5 -39t-46.5 -110q0 -59 60 -100.5t207 -77.5q368 -90 368 -377q0 -120 -53 -216t-143 -156t-203.5 -92t-239.5 -32q-130 0 -233.5 28t-177 83.5t-107.5 144.5
t-22 205h368q0 -94 60.5 -142t150.5 -48q86 0 145.5 42.5t59.5 108.5q0 51 -50 94.5t-155 71.5q-217 56 -323.5 143.5t-106.5 239.5q0 117 50 213.5t133.5 158t190.5 95t224 33.5zM682 -96l-254 -346h-197l197 366h254v-20z" />
    <glyph glyph-name="scommaaccent" unicode="&#x219;" horiz-adv-x="1054" 
d="M578 1114q225 0 336.5 -94.5t121.5 -253.5h-360q-8 57 -36.5 88t-74.5 31q-42 0 -67 -21t-25 -55q0 -52 42 -82t179 -76q162 -56 232.5 -132.5t70.5 -199.5q0 -170 -143.5 -265t-374.5 -95q-230 0 -362.5 94t-141.5 275h363q7 -71 49 -105.5t105 -34.5q55 0 87.5 24
t32.5 69q0 48 -48.5 84t-188.5 86q-72 26 -120.5 51t-88 61t-58 85t-18.5 114q0 149 128.5 250.5t359.5 101.5zM571 -96l-254 -346h-196l196 366h254v-20z" />
    <glyph glyph-name="uni021A" unicode="&#x21a;" horiz-adv-x="1294" 
d="M1415 1126h-457l-198 -1126h-369l199 1126h-461l53 287h1286zM461 -76h254v-20l-254 -346h-197z" />
    <glyph glyph-name="uni021B" unicode="&#x21b;" horiz-adv-x="808" 
d="M594 856l-72 -403q-14 -77 -14 -125q0 -69 49 -91t162 -8l-41 -231q-129 -27 -256 -27q-163 0 -233 51t-70 160q0 78 24 217l82 457h-166l41 229h164l51 283h369l-49 -283h237l-41 -229h-237zM238 -76h254v-20l-254 -346h-197z" />
    <glyph glyph-name="circumflex" unicode="&#x2c6;" horiz-adv-x="614" 
d="M356 1165l-39 156l-96 -156h-211l172 256h305l82 -256h-213z" />
    <glyph glyph-name="caron" unicode="&#x2c7;" horiz-adv-x="614" 
d="M610 1421l-172 -256h-305l-82 256h213l39 -147l96 147h211z" />
    <glyph glyph-name="breve" unicode="&#x2d8;" horiz-adv-x="614" 
d="M424 1425h184q-16 -89 -67 -150.5t-116.5 -87.5t-141.5 -26q-143 0 -196 75t-32 189h185q-6 -41 10.5 -65.5t60.5 -24.5q88 0 113 90z" />
    <glyph glyph-name="dotaccent" unicode="&#x2d9;" horiz-adv-x="614" 
d="M332 1538q78 0 123 -41t45 -113q0 -82 -55.5 -144t-157.5 -62q-78 0 -123 40.5t-45 112.5q0 82 56 144.5t157 62.5z" />
    <glyph glyph-name="ring" unicode="&#x2da;" horiz-adv-x="614" 
d="M342 1599q99 0 156 -49.5t57 -138.5q0 -109 -76.5 -179.5t-202.5 -70.5q-102 0 -159.5 50t-57.5 139q0 109 77.5 179t205.5 70zM322 1464q-47 0 -69 -34.5t-22 -71.5q0 -29 17 -45.5t45 -16.5q47 0 68.5 35t21.5 72q0 29 -16.5 45t-44.5 16z" />
    <glyph glyph-name="ogonek" unicode="&#x2db;" horiz-adv-x="614" 
d="M348 10l250 -10q-53 0 -86 -54.5t-33 -113.5q0 -42 20 -61t52 -19q47 0 94 31l-27 -137q-122 -103 -294 -103q-96 0 -151.5 39t-55.5 121q0 188 231 307z" />
    <glyph glyph-name="tilde" unicode="&#x2dc;" horiz-adv-x="614" 
d="M160 1446q74 0 172 -43q63 -27 96 -27q32 0 43 64h197q-27 -148 -74 -211.5t-139 -63.5q-73 0 -172 43q-65 27 -93 27q-36 0 -47 -64h-196q27 148 74 211.5t139 63.5z" />
    <glyph glyph-name="hungarumlaut" unicode="&#x2dd;" horiz-adv-x="614" 
d="M109 1165h-197l231 256h328zM541 1165h-197l231 256h328z" />
    <glyph glyph-name="uni0326" unicode="&#x326;" horiz-adv-x="0" 
d="M492 -96l-254 -346h-197l197 366h254v-20z" />
    <glyph glyph-name="Wgrave" unicode="&#x1e80;" horiz-adv-x="2080" 
d="M1180 1505l-273 256h328l141 -256h-196zM2261 1413l-604 -1413h-492v1034l-360 -1034h-494l-104 1413h379l26 -1096l355 1076h530l-31 -1094l387 1114h408z" />
    <glyph glyph-name="wgrave" unicode="&#x1e81;" horiz-adv-x="1728" 
d="M918 1165l-273 256h328l141 -256h-196zM1858 1094l-539 -1094h-412l-10 743l-268 -743h-412l-154 1094h406l12 -764l260 755h439l8 -759l272 768h398z" />
    <glyph glyph-name="Wacute" unicode="&#x1e82;" horiz-adv-x="2080" 
d="M1337 1505h-196l231 256h328zM2261 1413l-604 -1413h-492v1034l-360 -1034h-494l-104 1413h379l26 -1096l355 1076h530l-31 -1094l387 1114h408z" />
    <glyph glyph-name="wacute" unicode="&#x1e83;" horiz-adv-x="1728" 
d="M1059 1165h-197l232 256h327zM1858 1094l-539 -1094h-412l-10 743l-268 -743h-412l-154 1094h406l12 -764l260 755h439l8 -759l272 768h398z" />
    <glyph glyph-name="Wdieresis" unicode="&#x1e84;" horiz-adv-x="2080" 
d="M1051 1479q-67 0 -103.5 32.5t-36.5 92.5q0 80 52 127t118 47q65 0 101.5 -32t36.5 -93q0 -80 -51.5 -127t-116.5 -47zM1460 1479q-67 0 -103 32.5t-36 92.5q0 80 52 127t118 47q65 0 101 -32t36 -93q0 -80 -51.5 -127t-116.5 -47zM2261 1413l-604 -1413h-492v1034
l-360 -1034h-494l-104 1413h379l26 -1096l355 1076h530l-31 -1094l387 1114h408z" />
    <glyph glyph-name="wdieresis" unicode="&#x1e85;" horiz-adv-x="1728" 
d="M768 1165q-67 0 -103 32.5t-36 92.5q0 80 52 127t118 47q65 0 101 -32t36 -93q0 -80 -51.5 -127t-116.5 -47zM1178 1165q-67 0 -103.5 32.5t-36.5 92.5q0 80 52 127t118 47q65 0 101.5 -32t36.5 -93q0 -80 -51.5 -127t-116.5 -47zM1858 1094l-539 -1094h-412l-10 743
l-268 -743h-412l-154 1094h406l12 -764l260 755h439l8 -759l272 768h398z" />
    <glyph glyph-name="Ygrave" unicode="&#x1ef2;" horiz-adv-x="1398" 
d="M829 1505l-272 256h328l141 -256h-197zM913 530l-94 -530h-368l96 543l-344 870h393l195 -565l368 565h408z" />
    <glyph glyph-name="ygrave" unicode="&#x1ef3;" horiz-adv-x="1196" 
d="M633 1165l-273 256h328l141 -256h-196zM1325 1094l-620 -1094q-135 -237 -265.5 -333.5t-316.5 -96.5q-80 0 -154 12l39 234q50 -9 103 -9q124 0 188 125l8 19l-244 1143h410l86 -785l363 785h403z" />
    <glyph glyph-name="endash" unicode="&#x2013;" horiz-adv-x="1024" 
d="M823 496h-655l33 196h655z" />
    <glyph glyph-name="emdash" unicode="&#x2014;" horiz-adv-x="2048" 
d="M1847 496h-1679l33 196h1679z" />
    <glyph glyph-name="quoteleft" unicode="&#x2018;" horiz-adv-x="585" 
d="M109 827l329 586h283l-270 -606h-342v20z" />
    <glyph glyph-name="quoteright" unicode="&#x2019;" horiz-adv-x="583" 
d="M676 1393l-330 -586h-283l271 606h342v-20z" />
    <glyph glyph-name="quotesinglbase" unicode="&#x201a;" horiz-adv-x="579" 
d="M406 332l-330 -586h-283l270 606h343v-20z" />
    <glyph glyph-name="quotedblleft" unicode="&#x201c;" horiz-adv-x="1097" 
d="M109 827l329 586h283l-270 -606h-342v20zM621 827l329 586h283l-270 -606h-342v20z" />
    <glyph glyph-name="quotedblright" unicode="&#x201d;" horiz-adv-x="1095" 
d="M676 1393l-330 -586h-283l271 606h342v-20zM1188 1393l-330 -586h-283l271 606h342v-20z" />
    <glyph glyph-name="quotedblbase" unicode="&#x201e;" horiz-adv-x="1091" 
d="M406 332l-330 -586h-283l270 606h343v-20zM918 332l-330 -586h-283l270 606h343v-20z" />
    <glyph glyph-name="dagger" unicode="&#x2020;" horiz-adv-x="1228" 
d="M1100 692l-365 8l-160 -1028h-331l205 1028l-369 -8l53 307l365 -8l53 422h332l-95 -422l365 8z" />
    <glyph glyph-name="daggerdbl" unicode="&#x2021;" horiz-adv-x="1167" 
d="M713 700l-58 -315l371 8l-53 -307l-365 8l-53 -422h-332l94 422l-364 -8l53 307l367 -8l57 315l-371 -8l54 307l364 -8l53 422h332l-94 -422l365 8l-54 -307z" />
    <glyph glyph-name="bullet" unicode="&#x2022;" horiz-adv-x="802" 
d="M449 891q102 0 164.5 -52.5t62.5 -150.5q0 -145 -86.5 -237.5t-235.5 -92.5q-102 0 -164.5 52.5t-62.5 150.5q0 145 86.5 237.5t235.5 92.5z" />
    <glyph glyph-name="ellipsis" unicode="&#x2026;" horiz-adv-x="1808" 
d="M223 381q74 0 123 -41.5t49 -116.5q0 -115 -67.5 -183.5t-177.5 -68.5q-73 0 -123 41.5t-50 116.5q0 115 68 183.5t178 68.5zM838 381q74 0 123 -41.5t49 -116.5q0 -115 -68 -183.5t-178 -68.5q-73 0 -122.5 41.5t-49.5 116.5q0 115 68 183.5t178 68.5zM1452 381
q74 0 123 -41.5t49 -116.5q0 -115 -68 -183.5t-178 -68.5q-73 0 -122.5 41.5t-49.5 116.5q0 115 68 183.5t178 68.5z" />
    <glyph glyph-name="perthousand" unicode="&#x2030;" horiz-adv-x="2330" 
d="M440 750q-135 0 -215 76.5t-80 215.5q0 105 42 194.5t129.5 147.5t205.5 58q134 0 214.5 -77t80.5 -216q0 -105 -42 -194.5t-129.5 -147t-205.5 -57.5zM1579 1413l-1163 -1413h-293l1163 1413h293zM502 1270q-59 0 -97 -65.5t-38 -157.5q0 -63 25.5 -94t68.5 -31
q59 0 97 65.5t38 157.5q0 63 -25.5 94t-68.5 31zM1260 664q134 0 214 -77t80 -216q0 -105 -41.5 -194.5t-129 -147.5t-205.5 -58q-134 0 -214.5 77t-80.5 216q0 105 42 194.5t129.5 147.5t205.5 58zM1948 664q134 0 214.5 -77t80.5 -216q0 -105 -42 -194.5t-129.5 -147.5
t-205.5 -58q-134 0 -214.5 77t-80.5 216q0 105 42 194.5t129.5 147.5t205.5 58zM1198 143q59 0 97 66t38 158q0 63 -25.5 94t-68.5 31q-59 0 -97 -66t-38 -158q0 -63 25.5 -94t68.5 -31zM1886 143q59 0 97 66t38 158q0 63 -25.5 94t-68.5 31q-59 0 -97 -66t-38 -158
q0 -63 25.5 -94t68.5 -31z" />
    <glyph glyph-name="guilsinglleft" unicode="&#x2039;" horiz-adv-x="899" 
d="M492 487l208 -319h-256l-221 340l340 340h289z" />
    <glyph glyph-name="guilsinglright" unicode="&#x203a;" horiz-adv-x="923" 
d="M662 508l-340 -340h-289l360 360l-209 320h256z" />
    <glyph glyph-name="fraction" unicode="&#x2044;" horiz-adv-x="612" 
d="M-131 0h-272l1163 1413h272z" />
    <glyph glyph-name="Euro" unicode="&#x20ac;" 
d="M958 1171q-113 0 -189.5 -51t-119.5 -166h424l-57 -196h-412q-1 -15 -4 -49t-4 -54h387l-53 -196h-330q16 -118 77 -167.5t161 -49.5q182 0 333 80l-49 -271q-88 -41 -179 -60.5t-226 -19.5q-225 0 -355 123t-147 365h-176l55 196h123l6 51t6 52h-102l55 196h94
q29 85 71 156.5t103.5 133.5t138 105.5t178 68t220.5 24.5q276 0 381 -127l-166 -228q-58 46 -114 65t-130 19z" />
    <glyph glyph-name="trademark" unicode="&#x2122;" horiz-adv-x="1099" 
d="M336 1260l-57 -326h-123l57 326h-147l16 92h418l-17 -92h-147zM1049 1350l-74 -416h-123l55 291l-114 -283h-127l-19 281l-49 -289h-123l74 416h186l15 -287l108 287h191z" />
    <glyph glyph-name="partialdiff" unicode="&#x2202;" 
d="M819 1552q249 0 375.5 -143.5t126.5 -415.5q0 -161 -21.5 -303t-74 -276.5t-132.5 -230.5t-206.5 -154t-286.5 -58q-238 0 -373 113t-135 354q0 91 20 177t67 166.5t116 140.5t174.5 96.5t235.5 36.5q181 0 239 -97q2 23 2 62q0 137 -55 199.5t-176 62.5q-135 0 -271 -80
l-69 236q115 62 215 88t229 26zM641 242q199 0 268 438q-34 104 -176 104q-58 0 -104 -23.5t-73 -59.5t-44.5 -85t-24 -94t-6.5 -92q0 -90 42 -139t118 -49z" />
    <glyph glyph-name="emptyset" unicode="&#x2205;" horiz-adv-x="1716" 
d="M1694 1380l-162 -161q158 -221 158 -492q0 -174 -67 -329.5t-179.5 -266.5t-265.5 -175.5t-320 -64.5q-270 0 -491 162l-203 -203l-141 142l198 198q-93 109 -143.5 246.5t-50.5 290.5q0 174 67 329.5t179 265.5t265 174.5t320 64.5q150 0 288 -51.5t249 -145.5l157 158z
M248 727q0 -223 123 -387l878 879q-167 145 -391 145q-165 0 -304.5 -82t-222.5 -229t-83 -326zM1468 727q0 181 -90 338l-866 -866q153 -109 346 -109q165 0 304.5 82t222.5 229t83 326z" />
    <glyph glyph-name="product" unicode="&#x220f;" 
d="M1341 1126h-116l-240 -1351h-369l240 1351h-233l-240 -1351h-369l240 1351h-117l51 287h1205z" />
    <glyph glyph-name="summation" unicode="&#x2211;" 
d="M1325 1126h-651l340 -522l-574 -543h709l-51 -286h-1145l47 262l602 579l-344 535l47 262h1071z" />
    <glyph glyph-name="minus" unicode="&#x2212;" 
d="M1137 551h-922l33 197h921z" />
    <glyph glyph-name="radical" unicode="&#x221a;" 
d="M1454 1597l-803 -1925h-274l-123 783h-168l33 180h334l98 -739l686 1701h217z" />
    <glyph glyph-name="infinity" unicode="&#x221e;" horiz-adv-x="2121" 
d="M1618 1114q214 0 336.5 -125.5t122.5 -359.5q0 -100 -24.5 -194.5t-76.5 -179t-126 -147.5t-180 -100t-232 -37q-174 0 -282.5 52.5t-166.5 179.5q-97 -127 -211 -179.5t-262 -52.5q-215 0 -342 126.5t-127 359.5q0 100 25 194.5t78 178.5t128.5 147t183 100t234.5 37
q175 0 286.5 -52.5t168.5 -178.5q98 127 208.5 179t258.5 52zM862 543q11 321 -166 321q-67 0 -119.5 -39.5t-81.5 -101t-44 -126.5t-15 -126q0 -115 42.5 -182.5t113.5 -67.5q85 0 155 77.5t115 244.5zM1438 221q65 0 116 39.5t78.5 101t41.5 126t14 126.5q0 116 -38 183
t-108 67q-85 0 -153 -77.5t-109 -243.5q-22 -322 158 -322z" />
    <glyph glyph-name="integral" unicode="&#x222b;" 
d="M952 1544q125 0 185 -45l-64 -184q-51 33 -127 33q-49 0 -84.5 -18.5t-56 -47.5t-32.5 -72t-15.5 -83t-3.5 -91q0 -129 49 -413q47 -259 47 -447q0 -99 -22.5 -185t-70.5 -159.5t-133 -116.5t-198 -43q-124 0 -184 45l63 185q51 -33 127 -33q49 0 84.5 18.5t56 47
t32.5 71.5t16 83.5t4 90.5q0 124 -50 414q-47 259 -47 446q0 99 22.5 185t70.5 159.5t133 116.5t198 43z" />
    <glyph glyph-name="approxequal" unicode="&#x2248;" horiz-adv-x="1290" 
d="M494 1016q59 0 103.5 -17.5t129.5 -66.5q77 -45 109.5 -58.5t66.5 -13.5q97 0 195 94l96 -129q-77 -99 -155.5 -139.5t-166.5 -40.5q-59 0 -105 17.5t-130 66.5q-77 45 -109.5 58.5t-66.5 13.5q-97 0 -195 -94l-96 129q77 99 156.5 139.5t167.5 40.5zM420 606
q59 0 105 -17.5t130 -66.5q75 -44 108.5 -57.5t67.5 -13.5q97 0 195 94l96 -129q-77 -99 -156 -139.5t-167 -40.5q-59 0 -104.5 17.5t-129.5 65.5q-77 45 -109.5 58.5t-66.5 13.5q-96 0 -194 -94l-97 129q77 99 155.5 139.5t166.5 40.5z" />
    <glyph glyph-name="notequal" unicode="&#x2260;" 
d="M854 764l-154 -229h482l-31 -181h-571l-152 -227h-215l152 227h-218l31 181h307l154 229h-420l31 180h510l151 227h215l-151 -227h278l-30 -180h-369z" />
    <glyph glyph-name="lessequal" unicode="&#x2264;" 
d="M1196 840l-727 -185l661 -196l-38 -213l-852 270l49 279l948 270zM182 197h901l-34 -197h-902z" />
    <glyph glyph-name="greaterequal" unicode="&#x2265;" 
d="M1137 795l-50 -279l-929 -270l41 225l710 184l-643 197l37 213zM150 197h880l-35 -197h-880z" />
    <glyph glyph-name="lozenge" unicode="&#x25ca;" horiz-adv-x="1134" 
d="M1044 707l-446 -707h-311l-197 707l447 706h311zM774 707l-123 473l-291 -473l123 -474z" />
    <glyph glyph-name="a.alt" horiz-adv-x="1390" 
d="M1374 1094l-192 -1094h-369l29 160l-105 -121q-103 -68 -268 -68q-207 0 -318.5 109.5t-111.5 322.5q0 113 25.5 218t78.5 196.5t128.5 159t182 106.5t232.5 39q70 0 138 -14.5t104 -38.5l53 -121l25 146h368zM907 532l8 48q12 55 6.5 107.5t-24 93.5t-63.5 66t-111 25
q-126 0 -210.5 -121t-84.5 -288q0 -242 190 -242q108 0 184 75t105 236z" />
    <glyph glyph-name="braceleft.001" horiz-adv-x="880" 
d="M864 1597l-35 -196h-45q-36 0 -59 -5t-43.5 -20.5t-31.5 -45t-17 -76.5t-6 -117q0 -204 -45.5 -298.5t-175.5 -119.5q137 -36 137 -160q0 -109 -62 -262q-42 -106 -52.5 -138t-10.5 -61q0 -40 27.5 -52.5t97.5 -12.5h45l-35 -197h-104q-122 0 -181 60.5t-59 154.5
q0 55 13 99.5t61 166.5q51 128 51 209q0 85 -148 92l33 197q53 3 86.5 12.5t58 28t36.5 54t17 83.5t5 123q1 191 32 293t102 145t204 43h104z" />
    </font>
</defs>
</svg>
