<?xml version="1.0" standalone="no"?>
<!DOCTYPE svg PUBLIC "-//W3C//DTD SVG 1.1//EN" "http://www.w3.org/Graphics/SVG/1.1/DTD/svg11.dtd" >
<svg xmlns="http://www.w3.org/2000/svg" xmlns:xlink="http://www.w3.org/1999/xlink" version="1.1">
<metadata>
Created by FontForge 20170731 at Wed Dec 14 12:20:11 2022
 By Aleksey,,,
No Rights Reserved.
</metadata>
<defs>
<font id="Aileron-Regular" horiz-adv-x="1187" >
  <font-face 
    font-family="Aileron"
    font-weight="400"
    font-stretch="normal"
    units-per-em="2048"
    panose-1="0 0 5 0 0 0 0 0 0 0"
    ascent="1577"
    descent="-471"
    x-height="1077"
    cap-height="1413"
    bbox="-307 -457 2175 1833"
    underline-thickness="102"
    underline-position="-307"
    unicode-range="U+0020-FB02"
  />
<missing-glyph horiz-adv-x="1024" 
d="M0 0v1434h1024v-1434h-1024zM512 809l348 522h-696zM573 717l349 -522v1044zM164 102h696l-348 523zM102 1239v-1044l349 522z" />
    <glyph glyph-name="fi" unicode="fi" horiz-adv-x="1069" 
d="M909 1077v-1077h-176v942h-397v-942h-176v942h-117v135h117v29q0 76 6 131q18 152 125 229.5t317 77.5q63 0 125 -10v-145q-200 17 -288.5 -20t-102.5 -136q-6 -43 -6 -111v-45h573z" />
    <glyph glyph-name="fl" unicode="fl" horiz-adv-x="1042" 
d="M858 209q3 -53 32.5 -71t100.5 -9v-129q-52 -8 -125 -8q-85 0 -132.5 37t-51.5 133q-2 37 -2 143v1092q-62 12 -141 12q-99 0 -152.5 -48t-64.5 -128q-7 -51 -7 -111v-45h224v-135h-224v-942h-176v942h-96v135h96v29q0 76 6 131q17 150 118.5 228.5t283.5 78.5
q191 0 309 -39v-1194q0 -67 2 -102z" />
    <glyph glyph-name=".notdef" horiz-adv-x="1024" 
d="M0 0v1434h1024v-1434h-1024zM512 809l348 522h-696zM573 717l349 -522v1044zM164 102h696l-348 523zM102 1239v-1044l349 522z" />
    <glyph glyph-name=".null" horiz-adv-x="0" 
 />
    <glyph glyph-name="nonmarkingreturn" horiz-adv-x="682" 
 />
    <glyph glyph-name="space" unicode=" " horiz-adv-x="442" 
 />
    <glyph glyph-name="exclam" unicode="!" horiz-adv-x="495" 
d="M328 369h-160l-25 1044h209zM248 233q57 0 94 -37t37 -94t-37 -94t-94 -37t-94 37t-37 94t37 94t94 37z" />
    <glyph glyph-name="quotedbl" unicode="&#x22;" horiz-adv-x="694" 
d="M340 993h-143l-21 512h184zM627 993h-144l-20 512h184z" />
    <glyph glyph-name="numbersign" unicode="#" 
d="M836 850l-60 -287h207v-114h-231l-97 -449h-118l96 449h-187l-96 -449h-119l97 449h-185v114h209l60 287h-207v115h231l96 448h119l-96 -448h186l97 448h118l-96 -448h184v-115h-208zM719 850h-187l-61 -287h186z" />
    <glyph glyph-name="dollar" unicode="$" 
d="M1077 371q0 -167 -115.5 -272.5t-295.5 -123.5v-159h-119v157q-196 12 -313.5 121t-124.5 287h188q14 -110 78 -179.5t172 -86.5v524q-192 53 -289.5 146.5t-97.5 261.5q0 169 106.5 271t280.5 120v159h119v-157q118 -10 205 -66.5t133 -140.5t59 -191h-189
q-23 228 -208 256v-487q223 -71 317 -174.5t94 -265.5zM348 1073q0 -100 47 -155.5t152 -88.5v469q-94 -15 -146.5 -72.5t-52.5 -152.5zM666 616v-503q104 13 163.5 72t59.5 165q0 95 -51.5 161t-171.5 105z" />
    <glyph glyph-name="percent" unicode="%" horiz-adv-x="1515" 
d="M387 1434q139 0 221 -88t82 -238q0 -149 -82.5 -237.5t-220.5 -88.5t-220.5 88.5t-82.5 237.5q0 150 82 238t221 88zM389 0h-178l917 1413h179zM387 1311q-60 0 -95.5 -52.5t-35.5 -150.5q0 -96 35.5 -149.5t95.5 -53.5t95.5 53.5t35.5 149.5q0 98 -35.5 150.5
t-95.5 52.5zM1128 623q139 0 221.5 -88t82.5 -238q0 -149 -83 -237.5t-221 -88.5t-220.5 88.5t-82.5 237.5q0 150 82 238t221 88zM1128 500q-60 0 -95.5 -52.5t-35.5 -150.5q0 -96 35.5 -149.5t95.5 -53.5t96 53.5t36 149.5q0 97 -36 150t-96 53z" />
    <glyph glyph-name="ampersand" unicode="&#x26;" horiz-adv-x="1339" 
d="M1274 788v-143h-197v-631q-186 -43 -387 -43q-130 0 -227.5 18.5t-174.5 60.5t-117 118.5t-40 185.5q0 130 88 232.5t236 134.5q-121 29 -194 111.5t-73 203.5q0 181 139.5 293.5t360.5 112.5q129 0 246 -21v-141q-121 23 -252 23q-139 0 -218 -68.5t-79 -187.5
q0 -135 69.5 -192t196.5 -64q55 -3 127 -3h123v230h176v-230h197zM328 381q0 -146 86 -208t280 -62q117 0 207 18v516h-123q-84 0 -125 -4q-168 -14 -246.5 -84t-78.5 -176z" />
    <glyph glyph-name="quotesingle" unicode="'" horiz-adv-x="360" 
d="M252 993h-143l-21 512h184z" />
    <glyph glyph-name="parenleft" unicode="(" horiz-adv-x="645" 
d="M453 1597h118q-114 -193 -176.5 -421.5t-62.5 -458.5t62.5 -459.5t176.5 -421.5h-118q-116 174 -182 406.5t-66 474.5q0 241 66 473.5t182 406.5z" />
    <glyph glyph-name="parenright" unicode=")" horiz-adv-x="645" 
d="M61 1597h119q116 -174 182 -406.5t66 -473.5q0 -242 -66 -474.5t-182 -406.5h-119q114 193 177 422.5t63 458.5t-62.5 458t-177.5 422z" />
    <glyph glyph-name="asterisk" unicode="*" horiz-adv-x="1146" 
d="M616 606l318 125l39 -121l-326 -84l232 -282l-103 -76l-203 313l-202 -313l-103 76l232 282l-326 84l39 121l317 -125l-20 367h127z" />
    <glyph glyph-name="plus" unicode="+" 
d="M1024 588h-371v-414h-118v414h-371v114h371v422h118v-422h371v-114z" />
    <glyph glyph-name="comma" unicode="," horiz-adv-x="450" 
d="M287 184l-185 -430h-165l159 451h191v-21z" />
    <glyph glyph-name="hyphen" unicode="-" horiz-adv-x="561" 
d="M496 522h-430v115h430v-115z" />
    <glyph glyph-name="period" unicode="." horiz-adv-x="450" 
d="M207 233q57 0 94 -37t37 -94t-37 -94t-94 -37t-94 37t-37 94t37 94t94 37z" />
    <glyph glyph-name="slash" unicode="/" horiz-adv-x="620" 
d="M117 -61h-127l514 1536h127z" />
    <glyph glyph-name="zero" unicode="0" 
d="M594 1442q510 0 510 -735q0 -736 -510 -736t-510 736q0 735 510 735zM594 111q313 0 313 596t-313 596t-313 -596t313 -596z" />
    <glyph glyph-name="one" unicode="1" 
d="M831 1413v-1413h-176v1227l-389 -232v187l299 186q71 45 154 45h112z" />
    <glyph glyph-name="two" unicode="2" 
d="M379 143h692v-143h-948v100l512 523q91 93 139.5 153t77.5 124.5t29 131.5q0 116 -66 193.5t-188 77.5q-260 0 -291 -312l-2 -20h-176l2 20q22 220 148 335.5t339 115.5q105 0 188.5 -31t135.5 -84.5t79 -123.5t27 -150q0 -95 -38.5 -181.5t-106.5 -167.5t-199 -210z" />
    <glyph glyph-name="three" unicode="3" 
d="M811 752q133 -37 208 -130t75 -229q0 -128 -71.5 -225.5t-187 -147t-253.5 -49.5q-211 0 -338.5 103t-149.5 323l-2 21h176l2 -21q14 -143 103 -214.5t225 -71.5q133 0 216 72.5t83 199.5t-83.5 193.5t-252.5 66.5h-35v143h35q131 0 217 74t86 203q0 106 -69 173t-181 67
q-117 0 -196 -71t-92 -206l-2 -20h-177l3 20q21 194 147.5 305t339.5 111q194 0 309 -99t115 -260q0 -120 -69 -209t-181 -122z" />
    <glyph glyph-name="four" unicode="4" 
d="M1122 356h-178v-356h-176v356h-700v88l700 969h176v-913h178v-144zM768 500v678q-64 -106 -117 -181l-360 -497h477z" />
    <glyph glyph-name="five" unicode="5" 
d="M629 932q153 0 261 -63t159 -168t51 -242q0 -113 -42 -207t-112 -154.5t-160.5 -93.5t-189.5 -33q-214 0 -335.5 102.5t-141.5 301.5l-2 20h176l4 -20q54 -264 297 -264q141 0 225 88.5t84 246.5q0 160 -80.5 253.5t-220.5 93.5q-101 0 -172.5 -47t-122.5 -154h-168
l99 821h802v-143h-659l-64 -492l89 94q100 60 223 60z" />
    <glyph glyph-name="six" unicode="6" 
d="M618 954q218 0 343.5 -132.5t125.5 -346.5q0 -224 -141 -364t-358 -140q-500 0 -500 668q0 206 44 364t121 252t173 140.5t209 46.5q181 0 300 -104t136 -277l2 -21h-188l-4 21q-50 242 -260 242q-151 0 -240.5 -135.5t-99.5 -430.5l79 127q109 90 258 90zM588 111
q133 0 218 95.5t85 248.5q0 76 -17.5 139.5t-53 114t-95 78.5t-137.5 28q-127 0 -211 -93t-84 -263q0 -150 81.5 -249t213.5 -99z" />
    <glyph glyph-name="seven" unicode="7" 
d="M1102 1413v-82l-705 -1331h-188l678 1270h-785v143h1000z" />
    <glyph glyph-name="eight" unicode="8" 
d="M827 748q118 -38 194.5 -133.5t76.5 -219.5q0 -90 -29 -163t-77 -121t-113.5 -80.5t-136.5 -47t-148 -14.5q-83 0 -155.5 14.5t-137.5 47t-111 81t-73 121t-27 162.5q0 123 81 218t200 132q-99 38 -159 121t-60 195q0 175 123.5 278t330.5 103t331 -103.5t124 -277.5
q0 -112 -65 -194t-169 -119zM606 1303q-128 0 -196 -70.5t-68 -177.5q0 -112 67.5 -182t194.5 -70q128 0 197 70t69 182q0 107 -68 177.5t-196 70.5zM598 109q150 0 226.5 75.5t76.5 202.5q0 119 -75.5 198t-229.5 79q-79 0 -140 -22.5t-97 -62t-54 -88t-18 -104.5
q0 -126 80 -202t231 -76z" />
    <glyph glyph-name="nine" unicode="9" 
d="M600 1442q500 0 500 -668q0 -206 -44 -364t-121 -252t-173 -140.5t-209 -46.5q-181 0 -300 104t-136 277l-2 21h188l4 -21q50 -241 260 -241q321 0 340 565l-80 -127q-109 -90 -258 -90q-218 0 -343.5 132.5t-125.5 346.5q0 224 141.5 364t358.5 140zM600 598
q127 0 211 93t84 263q0 150 -81.5 249.5t-213.5 99.5q-133 0 -218 -96t-85 -249q0 -76 17.5 -139.5t53 -114t95 -78.5t137.5 -28z" />
    <glyph glyph-name="colon" unicode=":" horiz-adv-x="450" 
d="M207 1114q57 0 94 -37t37 -94t-37 -94t-94 -37t-94 37t-37 94t37 94t94 37zM207 233q57 0 94 -37t37 -94t-37 -94t-94 -37t-94 37t-37 94t37 94t94 37z" />
    <glyph glyph-name="semicolon" unicode=";" horiz-adv-x="450" 
d="M207 1114q57 0 94 -37t37 -94t-37 -94t-94 -37t-94 37t-37 94t37 94t94 37zM289 201l-185 -447h-167l159 471h193v-24z" />
    <glyph glyph-name="less" unicode="&#x3c;" 
d="M1032 885l-700 -340l700 -340v-144l-821 412v139l821 412v-139z" />
    <glyph glyph-name="equal" unicode="=" 
d="M1024 793h-860v114h860v-114zM1024 383h-860v115h860v-115z" />
    <glyph glyph-name="greater" unicode="&#x3e;" 
d="M961 612v-139l-822 -412v140l701 340l-701 340v143z" />
    <glyph glyph-name="question" unicode="?" horiz-adv-x="1021" 
d="M532 1442q200 0 313 -105.5t113 -269.5q0 -106 -52.5 -207t-162.5 -211q-93 -93 -124.5 -148.5t-36.5 -131.5h-176q9 91 43 160t120 167q112 128 152.5 204.5t40.5 166.5q0 107 -63.5 171.5t-172.5 64.5q-117 0 -189 -75.5t-81 -215.5h-184q6 196 132 313t328 117z
M494 233q57 0 94 -37t37 -94t-37 -94t-94 -37t-94.5 37t-37.5 94t37.5 94t94.5 37z" />
    <glyph glyph-name="at" unicode="@" horiz-adv-x="1744" 
d="M1298 952l-129 -540q-8 -36 -8 -66q0 -34 16 -54t62 -20q101 0 176.5 104.5t75.5 297.5q0 110 -28 203t-77.5 159.5t-117 113t-147 69t-167.5 22.5q-104 0 -206.5 -31t-194.5 -94t-162 -150t-111.5 -208t-41.5 -258q0 -145 45.5 -259.5t125.5 -187t183.5 -110
t224.5 -37.5q131 0 268.5 42t245.5 122l49 -101q-268 -182 -569 -182q-110 0 -212 27.5t-191 85.5t-155 140.5t-104 200t-38 257.5q0 158 48 297t130.5 241t190.5 176t231.5 111t249.5 37q291 0 474 -188.5t183 -493.5q0 -133 -37.5 -237.5t-99.5 -165t-134 -91t-149 -30.5
q-84 0 -139 36t-66 111l-43 -84q-96 -80 -205 -80q-53 0 -101 17t-91.5 53.5t-69.5 103.5t-26 156q0 134 55.5 253t158 194t228.5 75q123 0 180 -63l19 -99l35 125h165zM1020 514l18 80q31 138 -7 199t-120 61q-80 0 -141 -55t-91 -139.5t-30 -180.5q0 -108 38 -157.5
t101 -49.5q81 0 145 72t87 170z" />
    <glyph glyph-name="A" unicode="A" horiz-adv-x="1308" 
d="M934 500h-520l-166 -500h-189l508 1413h238l487 -1413h-190zM463 643h424l-205 631z" />
    <glyph glyph-name="B" unicode="B" horiz-adv-x="1284" 
d="M913 752q144 -33 217.5 -113.5t73.5 -222.5q0 -93 -30 -167.5t-82.5 -122t-115.5 -76.5t-136 -40q-70 -10 -181 -10h-454v1413h416q116 0 184 -8q170 -24 259 -109.5t89 -234.5q0 -228 -240 -309zM381 1270v-465h272q58 0 113 8q199 32 199 234q0 100 -58 154t-159 65
q-37 4 -113 4h-254zM784 147q105 9 168.5 73.5t63.5 176.5q0 123 -60 182t-170 74q-70 9 -112 9h-293v-519h305q44 0 98 4z" />
    <glyph glyph-name="C" unicode="C" horiz-adv-x="1431" 
d="M764 1442q131 0 236 -36t175 -100.5t111.5 -151t52.5 -191.5l2 -21h-176l-4 21q-32 160 -131.5 250t-269.5 90q-213 0 -340 -166.5t-127 -427.5q0 -264 124 -431t331 -167q170 0 269.5 90t131.5 250l4 20h176l-2 -20q-10 -98 -51.5 -183t-113 -152.5t-181 -106
t-244.5 -38.5q-151 0 -273.5 55.5t-202 153.5t-122.5 231t-43 289q0 214 82.5 382.5t235.5 264t350 95.5z" />
    <glyph glyph-name="D" unicode="D" horiz-adv-x="1452" 
d="M815 1405q257 -32 408 -204.5t151 -477.5q0 -304 -158 -493.5t-411 -221.5q-72 -8 -180 -8h-420v1413h430q108 0 180 -8zM786 154q184 30 290 177t106 392q0 232 -101 369.5t-284 167.5q-56 10 -172 10h-244v-1127h233q110 0 172 11z" />
    <glyph glyph-name="E" unicode="E" horiz-adv-x="1202" 
d="M1145 143v-143h-940v1413h919v-143h-743v-492h682v-143h-682v-492h764z" />
    <glyph glyph-name="F" unicode="F" horiz-adv-x="1161" 
d="M381 1270v-492h661v-143h-661v-635h-176v1413h919v-143h-743z" />
    <glyph glyph-name="G" unicode="G" horiz-adv-x="1454" 
d="M817 682h506v-682h-156v246l-63 -131q-128 -144 -367 -144q-151 0 -273.5 55.5t-202 153.5t-122.5 231t-43 289q0 214 82.5 382.5t235.5 264t350 95.5q131 0 236 -36t175 -100.5t111.5 -151t52.5 -191.5l2 -21h-176l-4 21q-32 160 -131.5 250t-269.5 90
q-213 0 -340 -166.5t-127 -427.5q0 -264 124 -431t331 -167q173 0 286 120t113 308h-330v143z" />
    <glyph glyph-name="H" unicode="H" horiz-adv-x="1495" 
d="M1335 1413v-1413h-176v618h-778v-618h-176v1413h176v-647h778v647h176z" />
    <glyph glyph-name="I" unicode="I" horiz-adv-x="540" 
d="M381 0h-176v1413h176v-1413z" />
    <glyph glyph-name="J" unicode="J" horiz-adv-x="1114" 
d="M999 1413v-872q0 -100 -4 -170q-11 -186 -125 -293t-331 -107q-196 0 -307.5 113.5t-116.5 312.5l-2 84h176l4 -84q15 -286 270 -286q120 0 184.5 71t73.5 199q2 41 2 166v866h176z" />
    <glyph glyph-name="K" unicode="K" horiz-adv-x="1247" 
d="M645 723l604 -723h-248l-485 604l-135 -145v-459h-176v1413h176v-751l698 751h207z" />
    <glyph glyph-name="L" unicode="L" horiz-adv-x="1177" 
d="M1145 143v-143h-940v1413h176v-1270h764z" />
    <glyph glyph-name="M" unicode="M" horiz-adv-x="1773" 
d="M1614 1413v-1413h-176v727q0 372 4 526q-62 -205 -172 -524l-250 -729h-221l-254 733q-120 352 -168 516q4 -154 4 -522v-727h-176v1413h291l417 -1263l416 1263h285z" />
    <glyph glyph-name="N" unicode="N" horiz-adv-x="1470" 
d="M1311 0h-271l-665 1241q6 -249 6 -534v-707h-176v1413h270l666 -1241q-6 249 -6 535v706h172z" />
    <glyph glyph-name="O" unicode="O" horiz-adv-x="1509" 
d="M764 1442q211 0 363 -94t228.5 -259t76.5 -382t-76.5 -381.5t-229 -259.5t-362.5 -95t-362.5 95t-229 259.5t-76.5 381.5t76.5 382t228.5 259t363 94zM764 111q221 0 346 159.5t125 436.5q0 278 -124.5 437t-346.5 159t-346.5 -159t-124.5 -437q0 -277 125 -436.5
t346 -159.5z" />
    <glyph glyph-name="P" unicode="P" horiz-adv-x="1224" 
d="M827 1405q172 -22 269.5 -127.5t97.5 -282.5q0 -173 -103 -280.5t-264 -128.5q-63 -8 -184 -8h-262v-578h-176v1413h438q121 0 184 -8zM817 735q84 19 136.5 82t52.5 178t-52.5 178t-136.5 82q-54 11 -158 11h-278v-541h278q109 0 158 10z" />
    <glyph glyph-name="Q" unicode="Q" horiz-adv-x="1501" 
d="M1174 147q125 -19 262 -133l-101 -120q-98 66 -157.5 88t-118.5 22q-65 0 -150 -18q-67 -15 -145 -15q-210 0 -362.5 95t-229 259.5t-76.5 381.5t76.5 382t228.5 259t363 94t363 -94t228.5 -259t76.5 -382q0 -179 -66 -323.5t-192 -236.5zM293 707q0 -277 125 -436.5
t346 -159.5t346 159.5t125 436.5q0 278 -124.5 437t-346.5 159t-346.5 -159t-124.5 -437z" />
    <glyph glyph-name="R" unicode="R" horiz-adv-x="1267" 
d="M1135 371q13 -147 33 -232t61 -139h-195q-52 119 -76 354q-13 116 -62 180.5t-148 71.5q-33 2 -101 2h-266v-608h-176v1413h463q121 0 184 -8q163 -21 257.5 -114t94.5 -263q0 -130 -71.5 -215t-180.5 -119q82 -38 127.5 -124t55.5 -199zM381 752h270q98 0 137 4
q103 9 165.5 74.5t62.5 181.5q0 115 -52.5 174.5t-154.5 75.5q-52 8 -141 8h-287v-518z" />
    <glyph glyph-name="S" unicode="S" horiz-adv-x="1198" 
d="M643 1442q211 0 331.5 -115t141.5 -305h-188q-12 134 -89 207.5t-210 73.5q-118 0 -193.5 -56t-75.5 -162q0 -113 69.5 -171.5t234.5 -96.5q239 -55 352.5 -158.5t113.5 -279.5q0 -121 -64.5 -215t-174.5 -143.5t-246 -49.5q-233 0 -374.5 113t-164.5 317h189
q31 -139 123.5 -214.5t230.5 -75.5q125 0 209 64t84 171q0 127 -78.5 195.5t-267.5 111.5q-79 18 -140.5 40t-116 55t-90.5 74t-56.5 97.5t-20.5 124.5q0 119 63.5 210.5t170.5 139.5t237 48z" />
    <glyph glyph-name="T" unicode="T" horiz-adv-x="1253" 
d="M1253 1270h-503v-1270h-177v1270h-503v143h1183v-143z" />
    <glyph glyph-name="U" unicode="U" horiz-adv-x="1396" 
d="M1253 1413v-891q0 -86 -4 -127q-8 -91 -43 -166.5t-97.5 -134t-161 -91t-224.5 -32.5t-224.5 32.5t-161 91t-97.5 134t-43 166.5q-4 41 -4 127v891h176v-874q0 -88 4 -125q12 -138 102 -220.5t248 -82.5t248 82.5t102 220.5q4 37 4 125v874h176z" />
    <glyph glyph-name="V" unicode="V" horiz-adv-x="1273" 
d="M791 0h-238l-487 1413h190l420 -1280l434 1280h188z" />
    <glyph glyph-name="W" unicode="W" horiz-adv-x="1949" 
d="M1935 1413l-393 -1413h-231l-320 1219l-332 -1219h-233l-373 1413h201l297 -1255l328 1235h237l320 -1237l313 1257h186z" />
    <glyph glyph-name="X" unicode="X" horiz-adv-x="1280" 
d="M1069 0l-414 598l-401 -598h-203l504 713l-467 700h201l375 -577l389 577h202l-491 -694l512 -719h-207z" />
    <glyph glyph-name="Y" unicode="Y" horiz-adv-x="1189" 
d="M715 557v-557h-176v557l-500 856h203l393 -686l381 686h198z" />
    <glyph glyph-name="Z" unicode="Z" horiz-adv-x="1210" 
d="M1165 143v-143h-1071v135l854 1135h-796v143h1001v-141l-850 -1129h862z" />
    <glyph glyph-name="bracketleft" unicode="[" horiz-adv-x="628" 
d="M535 1597v-114h-216v-1532h216v-115h-334v1761h334z" />
    <glyph glyph-name="backslash" unicode="\" horiz-adv-x="620" 
d="M631 -61h-127l-514 1536h127z" />
    <glyph glyph-name="bracketright" unicode="]" horiz-adv-x="604" 
d="M403 -164h-333v115h215v1532h-215v114h333v-1761z" />
    <glyph glyph-name="asciicircum" unicode="^" 
d="M885 440l-289 707l-289 -707h-143l360 822h140l360 -822h-139z" />
    <glyph glyph-name="underscore" unicode="_" horiz-adv-x="1024" 
d="M922 -176h-820v115h820v-115z" />
    <glyph glyph-name="grave" unicode="`" horiz-adv-x="614" 
d="M373 1188h-115l-174 225h164z" />
    <glyph glyph-name="a" unicode="a" horiz-adv-x="1087" 
d="M774 0l-18 156l-60 -117q-99 -68 -272 -68q-153 0 -251.5 82t-98.5 228q0 187 147.5 279.5t462.5 92.5h70v29q0 90 -4 131q-13 166 -211 166q-216 0 -234 -229h-184q12 172 124 268t294 96q187 0 279 -74t106 -213q6 -64 6 -143v-408q0 -125 20 -276h-176zM483 106
q125 0 198 80t73 226v110q-233 18 -360.5 -37t-127.5 -190q0 -96 57 -142.5t160 -46.5z" />
    <glyph glyph-name="b" unicode="b" horiz-adv-x="1251" 
d="M696 1114q155 0 268 -73t169.5 -197.5t56.5 -284.5q0 -146 -43 -260.5t-117.5 -184.5t-168.5 -106.5t-202 -36.5q-71 0 -145.5 19.5t-114.5 52.5l-71 107v-150h-176v1505h176v-594l82 117q46 38 124.5 62t161.5 24zM659 106q149 0 243.5 113t94.5 320q0 125 -35.5 223
t-111 157.5t-180.5 59.5q-70 0 -129.5 -23.5t-108.5 -72t-76.5 -133t-27.5 -197.5v-59q0 -101 29.5 -178.5t78 -121.5t105.5 -66t118 -22z" />
    <glyph glyph-name="c" unicode="c" horiz-adv-x="1083" 
d="M571 1114q192 0 313 -106t146 -287h-184q-58 258 -279 258q-136 0 -224.5 -108.5t-88.5 -317.5q0 -224 85 -335.5t216 -111.5q108 0 180.5 61t100.5 179h184q-39 -185 -164 -280t-311 -95q-105 0 -191.5 34t-153 101.5t-103 178.5t-36.5 256q0 134 41.5 244t112 181
t162 109.5t194.5 38.5z" />
    <glyph glyph-name="d" unicode="d" horiz-adv-x="1259" 
d="M1100 1505v-1505h-176v174l-82 -117q-46 -38 -125 -62t-162 -24q-155 0 -268 73t-169.5 197.5t-56.5 284.5q0 146 43 260.5t117.5 184.5t168.5 106.5t202 36.5q71 0 145.5 -19.5t114.5 -52.5l72 -106v569h176zM582 106q70 0 129.5 23.5t108.5 72t76.5 133t27.5 197.5v60
q0 101 -29.5 178.5t-78.5 121.5t-106 65.5t-118 21.5q-149 0 -243.5 -113t-94.5 -319q0 -125 36 -223.5t111.5 -158t180.5 -59.5z" />
    <glyph glyph-name="e" unicode="e" horiz-adv-x="1124" 
d="M1042 573q0 -45 -4 -84h-786q11 -202 95.5 -292.5t215.5 -90.5q108 0 185.5 64.5t95.5 179.5h184q-16 -95 -60.5 -169t-109 -119t-141 -68t-162.5 -23q-107 0 -196.5 35.5t-156.5 104.5t-104 178.5t-37 249.5q0 260 145.5 417.5t371.5 157.5q219 0 341.5 -148.5
t122.5 -392.5zM573 979q-132 0 -218 -92t-101 -262h610q-12 171 -85.5 262.5t-205.5 91.5z" />
    <glyph glyph-name="f" unicode="f" horiz-adv-x="593" 
d="M342 1294q-6 -44 -6 -110v-107h223v-135h-223v-942h-176v942h-117v135h117v90q0 75 6 131q13 118 89 182t198 64q63 0 125 -10v-145q-101 19 -163.5 -5.5t-72.5 -89.5z" />
    <glyph glyph-name="g" unicode="g" horiz-adv-x="1259" 
d="M1100 1085v-819q0 -152 -2 -211q-7 -235 -143 -360t-373 -125q-450 0 -486 358l-2 21h178l2 -19q11 -102 91.5 -163.5t216.5 -61.5q160 0 247 87t93 245q2 51 2 119v18l-82 -117q-46 -38 -125 -62t-162 -24q-155 0 -268 73t-169.5 197.5t-56.5 284.5q0 146 43 260.5
t117.5 184.5t168.5 106.5t202 36.5q71 0 145.5 -19.5t114.5 -52.5l72 -106v149h176zM582 106q70 0 129.5 23.5t108.5 72t76.5 133t27.5 197.5v60q0 101 -29.5 178.5t-78.5 121.5t-106 65.5t-118 21.5q-149 0 -243.5 -113t-94.5 -319q0 -125 36 -223.5t111.5 -158
t180.5 -59.5z" />
    <glyph glyph-name="h" unicode="h" horiz-adv-x="1214" 
d="M1065 797q4 -55 4 -187v-610h-176v598q0 101 -4 156q-8 103 -68.5 163.5t-179.5 57.5q-53 -1 -98 -17.5t-85.5 -53t-68.5 -92.5t-44.5 -141.5t-16.5 -193.5v-477h-176v1516h176v-617l67 125q66 52 130.5 71t152.5 19q175 0 275 -85.5t112 -231.5z" />
    <glyph glyph-name="i" unicode="i" horiz-adv-x="487" 
d="M240 1442q47 0 79.5 -33t32.5 -80t-32.5 -79.5t-79.5 -32.5t-80 32.5t-33 79.5t33 80t80 33zM328 0h-176v1085h176v-1085z" />
    <glyph glyph-name="j" unicode="j" horiz-adv-x="477" 
d="M229 1442q47 0 80 -33t33 -80t-33 -79.5t-80 -32.5t-79.5 32.5t-32.5 79.5t32.5 80t79.5 33zM317 1085v-1179q0 -76 -6 -131q-11 -102 -71.5 -153.5t-182.5 -51.5q-57 0 -84 4v143q82 -7 120 15.5t44 74.5q4 29 4 91v1187h176z" />
    <glyph glyph-name="k" unicode="k" horiz-adv-x="1069" 
d="M825 0l-395 459l-102 -113v-346h-176v1505h176v-966l506 546h225l-506 -512l512 -573h-240z" />
    <glyph glyph-name="l" unicode="l" horiz-adv-x="505" 
d="M319 1505v-1194q0 -49 3 -102t32 -71t101 -11v-127q-52 -8 -125 -8q-85 0 -133 37t-52 133q-2 37 -2 143v1200h176z" />
    <glyph glyph-name="m" unicode="m" horiz-adv-x="1751" 
d="M1595 850q11 -76 11 -186v-664h-176v582q0 128 -9 211q-24 182 -217 182q-237 0 -237 -438v-537h-176v582q0 128 -9 211q-24 182 -217 182q-237 0 -237 -438v-537h-176v1085h176v-157l69 123q77 63 230 63q120 0 200.5 -55t112.5 -148l96 140q77 63 230 63
q140 0 224.5 -73t104.5 -191z" />
    <glyph glyph-name="n" unicode="n" horiz-adv-x="1214" 
d="M1065 797q4 -55 4 -187v-610h-176v598q0 101 -4 156q-8 102 -68 161.5t-180 59.5q-67 0 -121.5 -26.5t-98.5 -82.5t-68.5 -155t-24.5 -234v-477h-176v1085h176v-186l67 125q66 52 130.5 71t152.5 19q175 0 275 -85.5t112 -231.5z" />
    <glyph glyph-name="o" unicode="o" horiz-adv-x="1200" 
d="M600 1114q134 0 239 -45.5t169.5 -125t97.5 -181t33 -219.5q0 -117 -33 -218.5t-97.5 -181.5t-169.5 -126t-239 -46t-239 46t-169.5 126t-97.5 181.5t-33 218.5q0 118 33 219.5t97.5 181t169.5 125t239 45.5zM600 106q161 0 253.5 121t92.5 316q0 196 -92.5 316
t-253.5 120t-253.5 -120t-92.5 -316q0 -195 92.5 -316t253.5 -121z" />
    <glyph glyph-name="p" unicode="p" horiz-adv-x="1251" 
d="M696 1114q155 0 268 -73t169.5 -197.5t56.5 -284.5q0 -146 -43 -260.5t-117.5 -184.5t-168.5 -106.5t-202 -36.5q-71 0 -145.5 19.5t-114.5 52.5l-71 107v-551h-176v1486h176v-174l82 117q46 38 124.5 62t161.5 24zM659 106q149 0 243.5 113t94.5 320q0 125 -35.5 223
t-111 157.5t-180.5 59.5q-70 0 -129.5 -23.5t-108.5 -72t-76.5 -133t-27.5 -197.5v-59q0 -101 29.5 -178.5t78 -121.5t105.5 -66t118 -22z" />
    <glyph glyph-name="q" unicode="q" horiz-adv-x="1259" 
d="M1100 1085v-1486h-176v575l-82 -117q-46 -38 -125 -62t-162 -24q-155 0 -268 73t-169.5 197.5t-56.5 284.5q0 146 43 260.5t117.5 184.5t168.5 106.5t202 36.5q71 0 145.5 -19.5t114.5 -52.5l72 -106v149h176zM582 106q70 0 129.5 23.5t108.5 72t76.5 133t27.5 197.5v60
q0 101 -29.5 178.5t-78.5 121.5t-106 65.5t-118 21.5q-149 0 -243.5 -113t-94.5 -319q0 -125 36 -223.5t111.5 -158t180.5 -59.5z" />
    <glyph glyph-name="r" unicode="r" horiz-adv-x="675" 
d="M578 1110q45 0 73 -14v-133q-145 9 -234 -78.5t-89 -266.5v-618h-176v1085h176v-170l98 146q71 49 152 49z" />
    <glyph glyph-name="s" unicode="s" horiz-adv-x="940" 
d="M467 1114q177 0 279 -91.5t120 -246.5h-184q-19 97 -77 150t-152 53q-89 0 -135 -44t-46 -118q0 -76 57.5 -116.5t180.5 -73.5q192 -51 280.5 -132t88.5 -216q0 -148 -112.5 -228t-291.5 -80q-176 0 -289 85.5t-137 262.5h184q39 -213 254 -213q92 0 151.5 41.5
t59.5 116.5q0 77 -59 124.5t-197 84.5q-80 22 -138 47t-109 63t-77 91.5t-26 122.5q0 147 102.5 232t272.5 85z" />
    <glyph glyph-name="t" unicode="t" horiz-adv-x="641" 
d="M362 942v-625q0 -41 3 -84q6 -77 45 -99.5t143 -10.5v-129q-64 -10 -150 -10q-103 0 -155.5 45t-59.5 145q-2 29 -2 135v633h-145v135h145v252h176v-252h203v-135h-203z" />
    <glyph glyph-name="u" unicode="u" horiz-adv-x="1212" 
d="M1053 1085v-1085h-176v184l-68 -127q-66 -49 -130.5 -67.5t-152.5 -18.5q-161 0 -261 79t-120 198q-10 69 -10 186v651h176v-618q0 -77 8 -150q12 -94 78 -150t174 -56q66 0 119.5 26t96.5 82.5t66.5 155t23.5 233.5v477h176z" />
    <glyph glyph-name="v" unicode="v" horiz-adv-x="1052" 
d="M1040 1085l-411 -1085h-215l-412 1085h195l331 -956l326 956h186z" />
    <glyph glyph-name="w" unicode="w" horiz-adv-x="1607" 
d="M1595 1085l-346 -1085h-209l-241 913l-242 -913h-209l-346 1085h203l252 -917l237 917h219l242 -911l252 911h188z" />
    <glyph glyph-name="x" unicode="x" horiz-adv-x="987" 
d="M578 553l385 -553h-205l-285 436l-283 -436h-202l389 549l-375 536h209l272 -419l273 419h202z" />
    <glyph glyph-name="y" unicode="y" horiz-adv-x="1050" 
d="M1038 1085l-446 -1177q-67 -173 -158.5 -255.5t-222.5 -82.5q-63 0 -90 4v143q27 -2 63 -2q84 0 140 43.5t96 147.5l14 39l-432 1140h199l323 -954l322 954h192z" />
    <glyph glyph-name="z" unicode="z" horiz-adv-x="946" 
d="M887 139v-139h-846v135l631 803h-586v139h791v-141l-627 -797h637z" />
    <glyph glyph-name="braceleft" unicode="{" horiz-adv-x="620" 
d="M553 1483h-25q-87 0 -122 -25.5t-35 -75.5q0 -44 22 -204q27 -193 27 -252q0 -89 -46.5 -142.5t-131.5 -64.5q83 -11 130.5 -66.5t47.5 -144.5q0 -59 -27 -252q-22 -160 -22 -205q0 -50 35 -75t122 -25h25v-115h-23q-140 0 -209 48.5t-69 168.5q0 49 24 223
q23 162 23 226q0 70 -39.5 109t-128.5 48v115q89 9 128.5 48.5t39.5 109.5q0 63 -23 225q-24 174 -24 223q0 120 69 168.5t209 48.5h23v-114z" />
    <glyph glyph-name="bar" unicode="|" horiz-adv-x="512" 
d="M315 -410h-118v2048h118v-2048z" />
    <glyph glyph-name="braceright" unicode="}" horiz-adv-x="620" 
d="M489 774v-115q-89 -9 -128 -48t-39 -109q0 -71 22 -226q25 -181 25 -223q0 -120 -69.5 -168.5t-209.5 -48.5h-22v115h24q87 0 122.5 25t35.5 75q0 38 -23 205q-26 186 -26 252q0 89 46.5 142.5t131.5 64.5q-83 11 -130.5 66.5t-47.5 144.5q0 66 26 252q23 167 23 204
q0 50 -35.5 75.5t-122.5 25.5h-24v114h22q140 0 209.5 -48.5t69.5 -168.5q0 -42 -25 -223q-22 -155 -22 -225t39 -109.5t128 -48.5z" />
    <glyph glyph-name="asciitilde" unicode="~" 
d="M913 729h115q0 -272 -225 -272q-55 0 -101 17.5t-137 66.5q-68 37 -110.5 54t-81.5 17q-56 0 -78.5 -39t-22.5 -116h-114q0 272 225 272q55 0 101 -17.5t137 -66.5q47 -25 73 -38t59 -23.5t60 -10.5q56 0 78 39.5t22 116.5z" />
    <glyph glyph-name="exclamdown" unicode="&#xa1;" horiz-adv-x="495" 
d="M248 852q-57 0 -94 37t-37 94t37 94t94 37t94 -37t37 -94t-37 -94t-94 -37zM168 717h160l24 -1045h-209z" />
    <glyph glyph-name="cent" unicode="&#xa2;" horiz-adv-x="1146" 
d="M653 975v-864q174 31 221 235h185q-35 -167 -141 -261.5t-265 -109.5v-159h-118v157q-198 16 -316.5 158t-118.5 410q0 120 34.5 222t94 172t138 114.5t168.5 58.5v162h118v-158q173 -10 282.5 -115t133.5 -276h-184q-52 230 -232 254zM293 553q0 -197 67 -307t175 -133
v858q-109 -26 -175.5 -132.5t-66.5 -285.5z" />
    <glyph glyph-name="sterling" unicode="&#xa3;" 
d="M1061 143v-143h-922v127q117 29 170 106t53 177q0 118 -55 239h-149v115h94q-64 144 -64 256q0 186 126.5 304t312.5 118q198 0 307.5 -110.5t122.5 -291.5h-189q-19 134 -78.5 198.5t-166.5 64.5q-115 0 -176.5 -74t-61.5 -174q0 -79 15.5 -135t60.5 -156h442v-115h-395
q41 -105 41 -209q0 -101 -37.5 -168.5t-118.5 -128.5h668z" />
    <glyph glyph-name="currency" unicode="&#xa4;" 
d="M963 616q0 -119 -68 -215l123 -122l-84 -84l-123 122q-98 -69 -217 -69q-125 0 -215 69l-123 -120l-84 84l123 120q-70 92 -70 215q0 119 70 218l-123 122l84 84l123 -122q95 67 215 67q123 0 215 -70l125 125l84 -84l-125 -125q70 -92 70 -215zM594 367
q103 0 172.5 70.5t69.5 178.5t-69.5 179t-172.5 71t-172.5 -71t-69.5 -179t69.5 -178.5t172.5 -70.5z" />
    <glyph glyph-name="yen" unicode="&#xa5;" 
d="M764 731h250v-115h-314l-18 -32v-99h332v-114h-332v-371h-176v371h-332v114h332v99l-19 32h-313v115h250l-377 682h217l338 -678l332 678h207z" />
    <glyph glyph-name="brokenbar" unicode="&#xa6;" horiz-adv-x="512" 
d="M315 717h-118v696h118v-696zM315 -328h-118v697h118v-697z" />
    <glyph glyph-name="section" unicode="&#xa7;" horiz-adv-x="1146" 
d="M1087 504q0 -97 -55 -176t-147 -121q84 -94 84 -234q0 -106 -58.5 -182.5t-148.5 -111.5t-199 -35q-180 0 -294.5 89t-135.5 267h184q55 -221 258 -221q91 0 148 47t57 133q0 93 -67 154.5t-240 103.5q-184 45 -294.5 142.5t-110.5 242.5q0 113 57 191.5t156 115.5
q-82 88 -82 209q0 150 103 237t265 87q178 0 280 -90.5t120 -249.5h-185q-19 97 -74.5 151t-140.5 54q-79 0 -129.5 -45t-50.5 -125q0 -86 67 -145t210 -99q223 -62 323 -152.5t100 -236.5zM745 305q70 15 112 65.5t42 112.5q0 91 -69.5 147t-233.5 107q-98 30 -174 70
q-75 -6 -120.5 -55.5t-45.5 -141.5q0 -82 76.5 -144t208.5 -93q112 -26 204 -68z" />
    <glyph glyph-name="dieresis" unicode="&#xa8;" horiz-adv-x="614" 
d="M158 1382q38 0 66 -28t28 -66t-28 -66t-66 -28t-66.5 28t-28.5 66t28.5 66t66.5 28zM457 1382q38 0 66 -28t28 -66t-28 -66t-66 -28t-66.5 28t-28.5 66t28.5 66t66.5 28z" />
    <glyph glyph-name="copyright" unicode="&#xa9;" horiz-adv-x="1716" 
d="M858 1524q162 0 307.5 -61.5t250 -167.5t165.5 -254t61 -314t-61 -314t-165.5 -254t-250 -167.5t-307.5 -61.5t-307.5 61.5t-250 167.5t-165.5 254t-61 314t61 314t165.5 254t250 167.5t307.5 61.5zM858 1405q-183 0 -333.5 -89t-237 -244.5t-86.5 -344.5
q0 -190 86.5 -345.5t237 -244t333.5 -88.5q137 0 259 52t209.5 142t138.5 216t51 268q0 141 -51 267t-138.5 216t-209.5 142.5t-259 52.5zM870 1200q163 0 269.5 -90t136.5 -240h-189q-16 87 -69 139t-148 52q-118 0 -181.5 -89t-63.5 -243t66.5 -245t178.5 -91q86 0 144 55
t71 136h189q-37 -153 -141.5 -241.5t-280.5 -88.5q-189 0 -306.5 129t-117.5 340q0 219 121 348t321 129z" />
    <glyph glyph-name="guillemotleft" unicode="&#xab;" horiz-adv-x="1140" 
d="M676 848l-281 -340l281 -340h-150l-280 340l280 340h150zM1024 848l-281 -340l281 -340h-150l-280 340l280 340h150z" />
    <glyph glyph-name="logicalnot" unicode="&#xac;" 
d="M961 430h-119v242h-637v114h756v-356z" />
    <glyph glyph-name="registered" unicode="&#xae;" horiz-adv-x="1040" 
d="M520 1565q189 0 309.5 -120.5t120.5 -309.5t-120.5 -309.5t-309.5 -120.5t-309.5 120.5t-120.5 309.5t120.5 309.5t309.5 120.5zM520 799q146 0 239 94t93 242t-93 241.5t-239 93.5t-239 -93.5t-93 -241.5t93 -242t239 -94zM614 1133q59 -10 66 -91q7 -64 27 -110h-117
q-10 40 -15 92q-5 47 -59 47h-47v-139h-102v418h143q37 0 55 -2q137 -14 137 -113q0 -73 -88 -102zM549 1159q41 8 41 53q0 42 -41 52q-12 2 -39 2h-41v-109h41q27 0 39 2z" />
    <glyph glyph-name="macron" unicode="&#xaf;" horiz-adv-x="614" 
d="M553 1237h-492v106h492v-106z" />
    <glyph glyph-name="degree" unicode="&#xb0;" horiz-adv-x="610" 
d="M305 1442q109 0 178.5 -68t69.5 -176t-69.5 -176t-178.5 -68t-178.5 68t-69.5 176t69.5 176t178.5 68zM305 1327q-53 0 -87 -36t-34 -93t34 -93t87 -36t87 36t34 93t-34 93t-87 36z" />
    <glyph glyph-name="plusminus" unicode="&#xb1;" 
d="M653 711h371v-115h-371v-369h-118v369h-371v115h371v360h118v-360zM1024 0h-860v115h860v-115z" />
    <glyph glyph-name="acute" unicode="&#xb4;" horiz-adv-x="614" 
d="M352 1188h-114l124 225h164z" />
    <glyph glyph-name="paragraph" unicode="&#xb6;" horiz-adv-x="1159" 
d="M999 1413v-1638h-118v1523h-189v-1523h-119v880h-47q-79 0 -114 2q-151 9 -236.5 116.5t-85.5 260.5t85.5 260.5t236.5 116.5q35 2 114 2h473z" />
    <glyph glyph-name="periodcentered" unicode="&#xb7;" horiz-adv-x="413" 
d="M207 766q60 0 100.5 -40.5t40.5 -100.5t-40.5 -101t-100.5 -41t-100.5 41t-40.5 101t40.5 100.5t100.5 40.5z" />
    <glyph glyph-name="cedilla" unicode="&#xb8;" horiz-adv-x="614" 
d="M379 18l-55 -100q81 -10 123 -54t42 -116q0 -85 -68 -131.5t-183 -46.5q-60 0 -103 18v90q43 -22 109 -22q62 0 94.5 24t32.5 66q0 54 -47 77.5t-150 16.5l96 178h109z" />
    <glyph glyph-name="guillemotright" unicode="&#xbb;" horiz-adv-x="1140" 
d="M547 508l-281 -340h-149l280 340l-280 340h149zM895 508l-281 -340h-149l280 340l-280 340h149z" />
    <glyph glyph-name="questiondown" unicode="&#xbf;" horiz-adv-x="1005" 
d="M600 852q-57 0 -94 37t-37 94t37 94t94 37t94 -37t37 -94t-37 -94t-94 -37zM561 -356q-200 0 -313 105t-113 269q0 106 52.5 207t162.5 211q93 93 125 149t37 132h176q-9 -91 -43.5 -160.5t-120.5 -167.5q-111 -127 -151.5 -204t-40.5 -167q0 -107 63 -171t172 -64
q118 0 190 75.5t81 215.5h184q-6 -196 -132.5 -313t-328.5 -117z" />
    <glyph glyph-name="Agrave" unicode="&#xc0;" horiz-adv-x="1308" 
d="M637 1507l-160 193h164l111 -193h-115zM934 500h-520l-166 -500h-189l508 1413h238l487 -1413h-190zM463 643h424l-205 631z" />
    <glyph glyph-name="Aacute" unicode="&#xc1;" horiz-adv-x="1308" 
d="M733 1507h-115l111 193h164zM934 500h-520l-166 -500h-189l508 1413h238l487 -1413h-190zM463 643h424l-205 631z" />
    <glyph glyph-name="Acircumflex" unicode="&#xc2;" horiz-adv-x="1308" 
d="M625 1507h-136l138 193h121l137 -193h-137l-62 113zM934 500h-520l-166 -500h-189l508 1413h238l487 -1413h-190zM463 643h424l-205 631z" />
    <glyph glyph-name="Atilde" unicode="&#xc3;" horiz-adv-x="1308" 
d="M580 1577q-33 0 -33 -41h-78q0 82 26.5 113.5t79.5 31.5q48 0 127 -26q70 -23 91 -23q32 0 32 41h78q0 -82 -26.5 -113.5t-79.5 -31.5q-48 0 -127 26q-70 23 -90 23zM934 500h-520l-166 -500h-189l508 1413h238l487 -1413h-190zM463 643h424l-205 631z" />
    <glyph glyph-name="Adieresis" unicode="&#xc4;" horiz-adv-x="1308" 
d="M543 1509q-38 0 -66 28.5t-28 66.5t28 66t66 28t66 -28t28 -66t-28 -66.5t-66 -28.5zM829 1509q-38 0 -66 28.5t-28 66.5t28 66t66 28t66.5 -28t28.5 -66t-28.5 -66.5t-66.5 -28.5zM934 500h-520l-166 -500h-189l508 1413h238l487 -1413h-190zM463 643h424l-205 631z" />
    <glyph glyph-name="Aring" unicode="&#xc5;" horiz-adv-x="1308" 
d="M686 1466q-82 0 -134 45.5t-52 116.5t52 116.5t134 45.5t134 -45.5t52 -116.5t-52 -116.5t-134 -45.5zM686 1716q-37 0 -60.5 -25t-23.5 -63t23.5 -63t60.5 -25t60.5 25t23.5 63t-23.5 63t-60.5 25zM934 500h-520l-166 -500h-189l508 1413h238l487 -1413h-190zM463 643
h424l-205 631z" />
    <glyph glyph-name="AE" unicode="&#xc6;" horiz-adv-x="1859" 
d="M1802 143v-143h-891l-28 500h-482l-282 -500h-191l815 1413h1039v-143h-768l28 -492h678v-143h-669l28 -492h723zM872 643l-34 629l-357 -629h391z" />
    <glyph glyph-name="Ccedilla" unicode="&#xc7;" horiz-adv-x="1431" 
d="M1153 471h176l-2 -20q-10 -97 -50.5 -181t-109.5 -151t-175 -106.5t-238 -41.5l-29 -53q81 -10 123.5 -54t42.5 -116q0 -85 -68.5 -131.5t-183.5 -46.5q-59 0 -102 18v90q43 -22 108 -22q62 0 94.5 24t32.5 66q0 54 -47 77.5t-150 16.5l74 135q-261 32 -407 231t-146 494
q0 214 82.5 382.5t235.5 264t350 95.5q131 0 236 -36t175 -100.5t111.5 -151t52.5 -191.5l2 -21h-176l-4 21q-32 160 -131.5 250t-269.5 90q-213 0 -340 -166.5t-127 -427.5q0 -264 124 -431t331 -167q170 0 269.5 90t131.5 250z" />
    <glyph glyph-name="Egrave" unicode="&#xc8;" horiz-adv-x="1202" 
d="M639 1507l-160 193h164l111 -193h-115zM1145 143v-143h-940v1413h919v-143h-743v-492h682v-143h-682v-492h764z" />
    <glyph glyph-name="Eacute" unicode="&#xc9;" horiz-adv-x="1202" 
d="M735 1507h-114l110 193h164zM1145 143v-143h-940v1413h919v-143h-743v-492h682v-143h-682v-492h764z" />
    <glyph glyph-name="Ecircumflex" unicode="&#xca;" horiz-adv-x="1202" 
d="M627 1507h-135l137 193h121l137 -193h-137l-62 113zM1145 143v-143h-940v1413h919v-143h-743v-492h682v-143h-682v-492h764z" />
    <glyph glyph-name="Edieresis" unicode="&#xcb;" horiz-adv-x="1202" 
d="M545 1509q-38 0 -66 28.5t-28 66.5t28 66t66 28t66 -28t28 -66t-28 -66.5t-66 -28.5zM831 1509q-38 0 -66 28.5t-28 66.5t28 66t66 28t66.5 -28t28.5 -66t-28.5 -66.5t-66.5 -28.5zM1145 143v-143h-940v1413h919v-143h-743v-492h682v-143h-682v-492h764z" />
    <glyph glyph-name="Igrave" unicode="&#xcc;" horiz-adv-x="540" 
d="M358 1507h-114l-160 193h164zM381 0h-176v1413h176v-1413z" />
    <glyph glyph-name="Iacute" unicode="&#xcd;" horiz-adv-x="540" 
d="M340 1507h-115l111 193h164zM381 0h-176v1413h176v-1413z" />
    <glyph glyph-name="Icircumflex" unicode="&#xce;" horiz-adv-x="540" 
d="M231 1507h-135l137 193h121l138 -193h-138l-61 113zM205 1413h176v-1413h-176v1413z" />
    <glyph glyph-name="Idieresis" unicode="&#xcf;" horiz-adv-x="540" 
d="M150 1698q38 0 66 -28t28 -66t-28 -66.5t-66 -28.5t-66.5 28.5t-28.5 66.5t28.5 66t66.5 28zM436 1698q38 0 66 -28t28 -66t-28 -66.5t-66 -28.5t-66 28.5t-28 66.5t28 66t66 28zM381 0h-176v1413h176v-1413z" />
    <glyph glyph-name="Eth" unicode="&#xd0;" horiz-adv-x="1435" 
d="M799 1405q257 -32 408 -204.5t151 -477.5q0 -304 -158.5 -493.5t-411.5 -221.5q-72 -8 -180 -8h-420v625h-120v114h120v674h430q109 0 181 -8zM770 154q184 30 289.5 176.5t105.5 392.5q0 232 -101 369.5t-284 167.5q-56 10 -172 10h-243v-531h278v-114h-278v-482h233
q110 0 172 11z" />
    <glyph glyph-name="Ntilde" unicode="&#xd1;" horiz-adv-x="1470" 
d="M647 1681q48 0 127 -26q70 -23 90 -23q33 0 33 41h78q0 -82 -27 -113.5t-80 -31.5q-48 0 -127 26q-70 23 -90 23q-33 0 -33 -41h-77q0 82 26.5 113.5t79.5 31.5zM1311 0h-271l-665 1241q6 -249 6 -534v-707h-176v1413h270l666 -1241q-6 249 -6 535v706h172z" />
    <glyph glyph-name="Ograve" unicode="&#xd2;" horiz-adv-x="1509" 
d="M715 1507l-160 193h164l110 -193h-114zM764 1442q211 0 363 -94t228.5 -259t76.5 -382t-76.5 -381.5t-229 -259.5t-362.5 -95t-362.5 95t-229 259.5t-76.5 381.5t76.5 382t228.5 259t363 94zM764 111q221 0 346 159.5t125 436.5q0 278 -124.5 437t-346.5 159t-346.5 -159
t-124.5 -437q0 -277 125 -436.5t346 -159.5z" />
    <glyph glyph-name="Oacute" unicode="&#xd3;" horiz-adv-x="1509" 
d="M811 1507h-115l111 193h164zM764 1442q211 0 363 -94t228.5 -259t76.5 -382t-76.5 -381.5t-229 -259.5t-362.5 -95t-362.5 95t-229 259.5t-76.5 381.5t76.5 382t228.5 259t363 94zM764 111q221 0 346 159.5t125 436.5q0 278 -124.5 437t-346.5 159t-346.5 -159
t-124.5 -437q0 -277 125 -436.5t346 -159.5z" />
    <glyph glyph-name="Ocircumflex" unicode="&#xd4;" horiz-adv-x="1509" 
d="M702 1507h-135l138 193h120l138 -193h-138l-61 113zM764 1442q211 0 363 -94t228.5 -259t76.5 -382t-76.5 -381.5t-229 -259.5t-362.5 -95t-362.5 95t-229 259.5t-76.5 381.5t76.5 382t228.5 259t363 94zM764 111q221 0 346 159.5t125 436.5q0 278 -124.5 437t-346.5 159
t-346.5 -159t-124.5 -437q0 -277 125 -436.5t346 -159.5z" />
    <glyph glyph-name="Otilde" unicode="&#xd5;" horiz-adv-x="1509" 
d="M657 1577q-32 0 -32 -41h-78q0 82 26.5 113.5t79.5 31.5q48 0 127 -26q70 -23 90 -23q33 0 33 41h78q0 -82 -27 -113.5t-80 -31.5q-47 0 -126 26q-70 23 -91 23zM764 1442q211 0 363 -94t228.5 -259t76.5 -382t-76.5 -381.5t-229 -259.5t-362.5 -95t-362.5 95t-229 259.5
t-76.5 381.5t76.5 382t228.5 259t363 94zM764 111q221 0 346 159.5t125 436.5q0 278 -124.5 437t-346.5 159t-346.5 -159t-124.5 -437q0 -277 125 -436.5t346 -159.5z" />
    <glyph glyph-name="Odieresis" unicode="&#xd6;" horiz-adv-x="1509" 
d="M621 1509q-38 0 -66.5 28.5t-28.5 66.5t28.5 66t66.5 28t66 -28t28 -66t-28 -66.5t-66 -28.5zM907 1509q-38 0 -66 28.5t-28 66.5t28 66t66 28t66 -28t28 -66t-28 -66.5t-66 -28.5zM764 1442q211 0 363 -94t228.5 -259t76.5 -382t-76.5 -381.5t-229 -259.5t-362.5 -95
t-362.5 95t-229 259.5t-76.5 381.5t76.5 382t228.5 259t363 94zM764 111q221 0 346 159.5t125 436.5q0 278 -124.5 437t-346.5 159t-346.5 -159t-124.5 -437q0 -277 125 -436.5t346 -159.5z" />
    <glyph glyph-name="multiply" unicode="&#xd7;" 
d="M678 643l283 -283l-84 -84l-283 283l-283 -283l-84 84l283 283l-283 283l84 84l283 -283l283 283l84 -84z" />
    <glyph glyph-name="Oslash" unicode="&#xd8;" horiz-adv-x="1525" 
d="M1456 1307l-137 -138q121 -186 121 -462q0 -217 -76.5 -381.5t-229 -259.5t-362.5 -95q-293 0 -471 181l-129 -129l-84 83l139 140q-123 184 -123 461q0 217 76.5 382t228.5 259t363 94q294 0 471 -180l129 129zM301 707q0 -192 59 -328l762 762q-128 162 -350 162
t-346.5 -159t-124.5 -437zM1243 707q0 191 -59 327l-760 -760q123 -163 348 -163q221 0 346 159.5t125 436.5z" />
    <glyph glyph-name="Ugrave" unicode="&#xd9;" horiz-adv-x="1396" 
d="M788 1507h-114l-160 193h164zM1253 1413v-891q0 -86 -4 -127q-8 -91 -43 -166.5t-97.5 -134t-161 -91t-224.5 -32.5t-224.5 32.5t-161 91t-97.5 134t-43 166.5q-4 41 -4 127v891h176v-874q0 -88 4 -125q12 -138 102 -220.5t248 -82.5t248 82.5t102 220.5q4 37 4 125v874
h176z" />
    <glyph glyph-name="Uacute" unicode="&#xda;" horiz-adv-x="1396" 
d="M770 1507h-115l111 193h164zM1253 1413v-891q0 -86 -4 -127q-8 -91 -43 -166.5t-97.5 -134t-161 -91t-224.5 -32.5t-224.5 32.5t-161 91t-97.5 134t-43 166.5q-4 41 -4 127v891h176v-874q0 -88 4 -125q12 -138 102 -220.5t248 -82.5t248 82.5t102 220.5q4 37 4 125v874
h176z" />
    <glyph glyph-name="Ucircumflex" unicode="&#xdb;" horiz-adv-x="1396" 
d="M662 1507h-136l138 193h120l138 -193h-138l-61 113zM1253 1413v-891q0 -86 -4 -127q-8 -91 -43 -166.5t-97.5 -134t-161 -91t-224.5 -32.5t-224.5 32.5t-161 91t-97.5 134t-43 166.5q-4 41 -4 127v891h176v-874q0 -88 4 -125q12 -138 102 -220.5t248 -82.5t248 82.5
t102 220.5q4 37 4 125v874h176z" />
    <glyph glyph-name="Udieresis" unicode="&#xdc;" horiz-adv-x="1396" 
d="M580 1698q38 0 66 -28t28 -66t-28 -66.5t-66 -28.5t-66.5 28.5t-28.5 66.5t28.5 66t66.5 28zM866 1698q38 0 66.5 -28t28.5 -66t-28.5 -66.5t-66.5 -28.5t-66 28.5t-28 66.5t28 66t66 28zM1253 1413v-891q0 -86 -4 -127q-8 -91 -43 -166.5t-97.5 -134t-161 -91
t-224.5 -32.5t-224.5 32.5t-161 91t-97.5 134t-43 166.5q-4 41 -4 127v891h176v-874q0 -88 4 -125q12 -138 102 -220.5t248 -82.5t248 82.5t102 220.5q4 37 4 125v874h176z" />
    <glyph glyph-name="Yacute" unicode="&#xdd;" horiz-adv-x="1189" 
d="M674 1507h-115l111 193h164zM715 557v-557h-176v557l-500 856h203l393 -686l381 686h198z" />
    <glyph glyph-name="Thorn" unicode="&#xde;" horiz-adv-x="1290" 
d="M838 1225q160 -21 258 -121.5t98 -267.5q0 -168 -98.5 -271.5t-257.5 -124.5q-63 -8 -185 -8h-272v-432h-176v1413h176v-180h272q122 0 185 -8zM811 590q195 45 195 241q0 199 -195 244q-49 10 -158 10h-272v-505h272q109 0 158 10z" />
    <glyph glyph-name="germandbls" unicode="&#xdf;" horiz-adv-x="1245" 
d="M627 1544q208 0 329 -97.5t121 -260.5q0 -109 -63 -211q-158 -84 -158 -160q0 -53 29 -94t104 -103q93 -75 133.5 -147.5t40.5 -179.5q0 -137 -110.5 -218t-274.5 -81q-100 0 -200 20v142q106 -27 192 -27q98 0 147.5 47.5t49.5 130.5q0 56 -26.5 104.5t-104.5 116.5
q-69 60 -104 99.5t-54 85.5t-19 104q0 148 185 238q37 63 37 131q0 104 -67 162.5t-196 58.5q-120 0 -198 -76t-88 -219q-4 -58 -4 -111v-999h-176v983q0 57 4 131q12 211 142.5 320.5t328.5 109.5z" />
    <glyph glyph-name="agrave" unicode="&#xe0;" horiz-adv-x="1087" 
d="M492 1188l-175 225h164l125 -225h-114zM774 0l-18 156l-60 -117q-99 -68 -272 -68q-153 0 -251.5 82t-98.5 228q0 187 147.5 279.5t462.5 92.5h70v29q0 90 -4 131q-13 166 -211 166q-216 0 -234 -229h-184q12 172 124 268t294 96q187 0 279 -74t106 -213q6 -64 6 -143
v-408q0 -125 20 -276h-176zM483 106q125 0 198 80t73 226v110q-233 18 -360.5 -37t-127.5 -190q0 -96 57 -142.5t160 -46.5z" />
    <glyph glyph-name="aacute" unicode="&#xe1;" horiz-adv-x="1087" 
d="M586 1188h-115l125 225h164zM774 0l-18 156l-60 -117q-99 -68 -272 -68q-153 0 -251.5 82t-98.5 228q0 187 147.5 279.5t462.5 92.5h70v29q0 90 -4 131q-13 166 -211 166q-216 0 -234 -229h-184q12 172 124 268t294 96q187 0 279 -74t106 -213q6 -64 6 -143v-408
q0 -125 20 -276h-176zM483 106q125 0 198 80t73 226v110q-233 18 -360.5 -37t-127.5 -190q0 -96 57 -142.5t160 -46.5z" />
    <glyph glyph-name="acircumflex" unicode="&#xe2;" horiz-adv-x="1087" 
d="M473 1188h-129l137 225h121l137 -225h-131l-67 129zM774 0l-18 156l-60 -117q-99 -68 -272 -68q-153 0 -251.5 82t-98.5 228q0 187 147.5 279.5t462.5 92.5h70v29q0 90 -4 131q-13 166 -211 166q-216 0 -234 -229h-184q12 172 124 268t294 96q187 0 279 -74t106 -213
q6 -64 6 -143v-408q0 -125 20 -276h-176zM483 106q125 0 198 80t73 226v110q-233 18 -360.5 -37t-127.5 -190q0 -96 57 -142.5t160 -46.5z" />
    <glyph glyph-name="atilde" unicode="&#xe3;" horiz-adv-x="1087" 
d="M434 1270q-33 0 -33 -41h-77q0 82 26.5 113.5t79.5 31.5q48 0 127 -26q70 -23 90 -23q33 0 33 41h78q0 -82 -27 -113.5t-80 -31.5q-48 0 -127 26q-70 23 -90 23zM774 0l-18 156l-60 -117q-99 -68 -272 -68q-153 0 -251.5 82t-98.5 228q0 187 147.5 279.5t462.5 92.5h70
v29q0 90 -4 131q-13 166 -211 166q-216 0 -234 -229h-184q12 172 124 268t294 96q187 0 279 -74t106 -213q6 -64 6 -143v-408q0 -125 20 -276h-176zM483 106q125 0 198 80t73 226v110q-233 18 -360.5 -37t-127.5 -190q0 -96 57 -142.5t160 -46.5z" />
    <glyph glyph-name="adieresis" unicode="&#xe4;" horiz-adv-x="1087" 
d="M391 1194q-38 0 -66 28t-28 66t28 66t66 28t66 -28t28 -66t-28 -66t-66 -28zM690 1194q-38 0 -66 28t-28 66t28 66t66 28t66 -28t28 -66t-28 -66t-66 -28zM774 0l-18 156l-60 -117q-99 -68 -272 -68q-153 0 -251.5 82t-98.5 228q0 187 147.5 279.5t462.5 92.5h70v29
q0 90 -4 131q-13 166 -211 166q-216 0 -234 -229h-184q12 172 124 268t294 96q187 0 279 -74t106 -213q6 -64 6 -143v-408q0 -125 20 -276h-176zM483 106q125 0 198 80t73 226v110q-233 18 -360.5 -37t-127.5 -190q0 -96 57 -142.5t160 -46.5z" />
    <glyph glyph-name="aring" unicode="&#xe5;" horiz-adv-x="1087" 
d="M541 1157q-82 0 -134.5 48.5t-52.5 123.5t52.5 123.5t134.5 48.5t134 -48.5t52 -123.5t-52 -123.5t-134 -48.5zM541 1427q-37 0 -60.5 -26.5t-23.5 -71.5t23.5 -71.5t60.5 -26.5t60.5 26.5t23.5 71.5t-23.5 71.5t-60.5 26.5zM774 0l-18 156l-60 -117q-99 -68 -272 -68
q-153 0 -251.5 82t-98.5 228q0 187 147.5 279.5t462.5 92.5h70v29q0 90 -4 131q-13 166 -211 166q-216 0 -234 -229h-184q12 172 124 268t294 96q187 0 279 -74t106 -213q6 -64 6 -143v-408q0 -125 20 -276h-176zM483 106q125 0 198 80t73 226v110q-233 18 -360.5 -37
t-127.5 -190q0 -96 57 -142.5t160 -46.5z" />
    <glyph glyph-name="ae" unicode="&#xe6;" horiz-adv-x="1818" 
d="M1737 573q0 -45 -4 -84h-783q11 -193 95 -288t212 -95q108 0 185.5 64.5t95.5 179.5h184q-16 -95 -60.5 -169t-109 -119t-141 -68t-162.5 -23q-289 0 -407 236l-56 -111q-145 -125 -348 -125q-155 0 -259.5 82.5t-104.5 227.5q0 182 153.5 263t477.5 81h69v57
q0 297 -235 297q-225 0 -234 -229h-184q4 172 115.5 268t302.5 96q147 0 234 -49t126 -147q129 196 373 196q220 0 342.5 -149t122.5 -392zM950 625h609q-14 172 -87 263t-204 91q-132 0 -216.5 -91.5t-101.5 -262.5zM774 428v61q-96 3 -175.5 1t-141.5 -13.5t-104.5 -33.5
t-64.5 -59t-22 -89q0 -96 57 -142.5t160 -46.5q126 0 208.5 88.5t82.5 233.5z" />
    <glyph glyph-name="ccedilla" unicode="&#xe7;" horiz-adv-x="1083" 
d="M555 106q108 0 180.5 61t100.5 179h184q-37 -178 -154 -272.5t-291 -102.5l-28 -53q81 -10 123.5 -54t42.5 -116q0 -85 -68.5 -131.5t-183.5 -46.5q-59 0 -103 18v90q43 -22 109 -22q62 0 94.5 24t32.5 66q0 54 -47 77.5t-150 16.5l74 135q-188 23 -299 165t-111 401
q0 134 41.5 244t112 181t162 109.5t194.5 38.5q192 0 313 -106t146 -287h-184q-58 258 -279 258q-136 0 -224.5 -108.5t-88.5 -317.5q0 -224 85 -335.5t216 -111.5z" />
    <glyph glyph-name="egrave" unicode="&#xe8;" horiz-adv-x="1124" 
d="M518 1188l-174 225h164l125 -225h-115zM1042 573q0 -45 -4 -84h-786q11 -202 95.5 -292.5t215.5 -90.5q108 0 185.5 64.5t95.5 179.5h184q-16 -95 -60.5 -169t-109 -119t-141 -68t-162.5 -23q-107 0 -196.5 35.5t-156.5 104.5t-104 178.5t-37 249.5q0 260 145.5 417.5
t371.5 157.5q219 0 341.5 -148.5t122.5 -392.5zM573 979q-132 0 -218 -92t-101 -262h610q-12 171 -85.5 262.5t-205.5 91.5z" />
    <glyph glyph-name="eacute" unicode="&#xe9;" horiz-adv-x="1124" 
d="M612 1188h-114l125 225h163zM1042 573q0 -45 -4 -84h-786q11 -202 95.5 -292.5t215.5 -90.5q108 0 185.5 64.5t95.5 179.5h184q-16 -95 -60.5 -169t-109 -119t-141 -68t-162.5 -23q-107 0 -196.5 35.5t-156.5 104.5t-104 178.5t-37 249.5q0 260 145.5 417.5t371.5 157.5
q219 0 341.5 -148.5t122.5 -392.5zM573 979q-132 0 -218 -92t-101 -262h610q-12 171 -85.5 262.5t-205.5 91.5z" />
    <glyph glyph-name="ecircumflex" unicode="&#xea;" horiz-adv-x="1124" 
d="M500 1188h-129l137 225h121l137 -225h-131l-68 129zM1042 573q0 -45 -4 -84h-786q11 -202 95.5 -292.5t215.5 -90.5q108 0 185.5 64.5t95.5 179.5h184q-16 -95 -60.5 -169t-109 -119t-141 -68t-162.5 -23q-107 0 -196.5 35.5t-156.5 104.5t-104 178.5t-37 249.5
q0 260 145.5 417.5t371.5 157.5q219 0 341.5 -148.5t122.5 -392.5zM573 979q-132 0 -218 -92t-101 -262h610q-12 171 -85.5 262.5t-205.5 91.5z" />
    <glyph glyph-name="edieresis" unicode="&#xeb;" horiz-adv-x="1124" 
d="M418 1194q-38 0 -66 28t-28 66t28 66t66 28t66 -28t28 -66t-28 -66t-66 -28zM717 1194q-38 0 -66 28t-28 66t28 66t66 28t66 -28t28 -66t-28 -66t-66 -28zM1042 573q0 -45 -4 -84h-786q11 -202 95.5 -292.5t215.5 -90.5q108 0 185.5 64.5t95.5 179.5h184
q-16 -95 -60.5 -169t-109 -119t-141 -68t-162.5 -23q-107 0 -196.5 35.5t-156.5 104.5t-104 178.5t-37 249.5q0 260 145.5 417.5t371.5 157.5q219 0 341.5 -148.5t122.5 -392.5zM573 979q-132 0 -218 -92t-101 -262h610q-12 171 -85.5 262.5t-205.5 91.5z" />
    <glyph glyph-name="igrave" unicode="&#xec;" horiz-adv-x="487" 
d="M305 1188h-115l-174 225h164zM328 0h-176v1085h176v-1085z" />
    <glyph glyph-name="iacute" unicode="&#xed;" horiz-adv-x="487" 
d="M285 1188h-115l125 225h164zM328 0h-176v1085h176v-1085z" />
    <glyph glyph-name="icircumflex" unicode="&#xee;" horiz-adv-x="487" 
d="M172 1188h-129l137 225h121l137 -225h-131l-67 129zM152 1085h176v-1085h-176v1085z" />
    <glyph glyph-name="idieresis" unicode="&#xef;" horiz-adv-x="487" 
d="M90 1382q38 0 66 -28t28 -66t-28 -66t-66 -28t-66 28t-28 66t28 66t66 28zM389 1382q38 0 66 -28t28 -66t-28 -66t-66 -28t-66 28t-28 66t28 66t66 28zM328 0h-176v1085h176v-1085z" />
    <glyph glyph-name="eth" unicode="&#xf0;" horiz-adv-x="1198" 
d="M989 1356l-86 -35q104 -121 151.5 -290.5t47.5 -401.5q0 -139 -29 -251t-78.5 -187t-118 -125.5t-145.5 -72.5t-164 -22q-124 0 -221 42t-159 117t-94 175.5t-32 220.5q0 134 41 246.5t109.5 186.5t158 114.5t187.5 40.5q76 0 130 -13t110 -46l92 -123q-15 198 -139 325
l-283 -116l-41 106l223 92q-74 45 -155 74l110 113q118 -49 207 -119l137 55zM909 532v60q0 101 -29.5 178.5t-78 121.5t-105.5 65.5t-118 21.5q-143 0 -233.5 -120t-90.5 -312q0 -207 83 -324t243 -117q144 0 236.5 108.5t92.5 317.5z" />
    <glyph glyph-name="ntilde" unicode="&#xf1;" horiz-adv-x="1214" 
d="M518 1270q-33 0 -33 -41h-77q0 82 26.5 113.5t79.5 31.5q48 0 127 -26q70 -23 90 -23q33 0 33 41h78q0 -82 -27 -113.5t-80 -31.5q-48 0 -127 26q-70 23 -90 23zM1065 797q4 -55 4 -187v-610h-176v598q0 101 -4 156q-8 102 -68 161.5t-180 59.5q-67 0 -121.5 -26.5
t-98.5 -82.5t-68.5 -155t-24.5 -234v-477h-176v1085h176v-186l67 125q66 52 130.5 71t152.5 19q175 0 275 -85.5t112 -231.5z" />
    <glyph glyph-name="ograve" unicode="&#xf2;" horiz-adv-x="1200" 
d="M551 1188l-174 225h164l125 -225h-115zM600 1114q134 0 239 -45.5t169.5 -125t97.5 -181t33 -219.5q0 -117 -33 -218.5t-97.5 -181.5t-169.5 -126t-239 -46t-239 46t-169.5 126t-97.5 181.5t-33 218.5q0 118 33 219.5t97.5 181t169.5 125t239 45.5zM600 106
q161 0 253.5 121t92.5 316q0 196 -92.5 316t-253.5 120t-253.5 -120t-92.5 -316q0 -195 92.5 -316t253.5 -121z" />
    <glyph glyph-name="oacute" unicode="&#xf3;" horiz-adv-x="1200" 
d="M645 1188h-115l125 225h164zM600 1114q134 0 239 -45.5t169.5 -125t97.5 -181t33 -219.5q0 -117 -33 -218.5t-97.5 -181.5t-169.5 -126t-239 -46t-239 46t-169.5 126t-97.5 181.5t-33 218.5q0 118 33 219.5t97.5 181t169.5 125t239 45.5zM600 106q161 0 253.5 121
t92.5 316q0 196 -92.5 316t-253.5 120t-253.5 -120t-92.5 -316q0 -195 92.5 -316t253.5 -121z" />
    <glyph glyph-name="ocircumflex" unicode="&#xf4;" horiz-adv-x="1200" 
d="M532 1188h-129l138 225h121l137 -225h-131l-68 129zM600 1114q134 0 239 -45.5t169.5 -125t97.5 -181t33 -219.5q0 -117 -33 -218.5t-97.5 -181.5t-169.5 -126t-239 -46t-239 46t-169.5 126t-97.5 181.5t-33 218.5q0 118 33 219.5t97.5 181t169.5 125t239 45.5zM600 106
q161 0 253.5 121t92.5 316q0 196 -92.5 316t-253.5 120t-253.5 -120t-92.5 -316q0 -195 92.5 -316t253.5 -121z" />
    <glyph glyph-name="otilde" unicode="&#xf5;" horiz-adv-x="1200" 
d="M494 1270q-33 0 -33 -41h-78q0 82 26.5 113.5t79.5 31.5q48 0 127 -26q70 -23 91 -23q32 0 32 41h78q0 -82 -26.5 -113.5t-79.5 -31.5q-48 0 -127 26q-70 23 -90 23zM600 1114q134 0 239 -45.5t169.5 -125t97.5 -181t33 -219.5q0 -117 -33 -218.5t-97.5 -181.5
t-169.5 -126t-239 -46t-239 46t-169.5 126t-97.5 181.5t-33 218.5q0 118 33 219.5t97.5 181t169.5 125t239 45.5zM600 106q161 0 253.5 121t92.5 316q0 196 -92.5 316t-253.5 120t-253.5 -120t-92.5 -316q0 -195 92.5 -316t253.5 -121z" />
    <glyph glyph-name="odieresis" unicode="&#xf6;" horiz-adv-x="1200" 
d="M451 1194q-38 0 -66.5 28t-28.5 66t28.5 66t66.5 28t66 -28t28 -66t-28 -66t-66 -28zM750 1194q-38 0 -66.5 28t-28.5 66t28.5 66t66.5 28t66 -28t28 -66t-28 -66t-66 -28zM600 1114q134 0 239 -45.5t169.5 -125t97.5 -181t33 -219.5q0 -117 -33 -218.5t-97.5 -181.5
t-169.5 -126t-239 -46t-239 46t-169.5 126t-97.5 181.5t-33 218.5q0 118 33 219.5t97.5 181t169.5 125t239 45.5zM600 106q161 0 253.5 121t92.5 316q0 196 -92.5 316t-253.5 120t-253.5 -120t-92.5 -316q0 -195 92.5 -316t253.5 -121z" />
    <glyph glyph-name="divide" unicode="&#xf7;" 
d="M598 1092q50 0 82.5 -33t32.5 -82t-32.5 -82t-82.5 -33t-82.5 33t-32.5 82t32.5 82t82.5 33zM1024 596h-860v115h860v-115zM598 436q50 0 82.5 -32.5t32.5 -81.5q0 -50 -32.5 -82.5t-82.5 -32.5t-82.5 32.5t-32.5 82.5q0 49 32.5 81.5t82.5 32.5z" />
    <glyph glyph-name="oslash" unicode="&#xf8;" horiz-adv-x="1269" 
d="M1217 1040l-152 -151q92 -145 92 -346q0 -117 -33 -218.5t-97.5 -181.5t-169.5 -126t-239 -46q-214 0 -354 117l-127 -127l-84 84l131 131q-104 149 -104 367q0 93 20 177t63 156.5t105.5 125t152 82.5t197.5 30q232 0 371 -133l144 143zM272 543q0 -138 45 -234l553 553
q-93 117 -252 117q-161 0 -253.5 -120t-92.5 -316zM965 543q0 118 -35 211l-547 -547q91 -101 235 -101q161 0 254 121.5t93 315.5z" />
    <glyph glyph-name="ugrave" unicode="&#xf9;" horiz-adv-x="1212" 
d="M545 1188l-174 225h164l124 -225h-114zM1053 1085v-1085h-176v184l-68 -127q-66 -49 -130.5 -67.5t-152.5 -18.5q-161 0 -261 79t-120 198q-10 69 -10 186v651h176v-618q0 -77 8 -150q12 -94 78 -150t174 -56q66 0 119.5 26t96.5 82.5t66.5 155t23.5 233.5v477h176z" />
    <glyph glyph-name="uacute" unicode="&#xfa;" horiz-adv-x="1212" 
d="M639 1188h-115l125 225h164zM1053 1085v-1085h-176v184l-68 -127q-66 -49 -130.5 -67.5t-152.5 -18.5q-161 0 -261 79t-120 198q-10 69 -10 186v651h176v-618q0 -77 8 -150q12 -94 78 -150t174 -56q66 0 119.5 26t96.5 82.5t66.5 155t23.5 233.5v477h176z" />
    <glyph glyph-name="ucircumflex" unicode="&#xfb;" horiz-adv-x="1212" 
d="M526 1188h-129l138 225h120l138 -225h-131l-68 129zM1053 1085v-1085h-176v184l-68 -127q-66 -49 -130.5 -67.5t-152.5 -18.5q-161 0 -261 79t-120 198q-10 69 -10 186v651h176v-618q0 -77 8 -150q12 -94 78 -150t174 -56q66 0 119.5 26t96.5 82.5t66.5 155t23.5 233.5
v477h176z" />
    <glyph glyph-name="udieresis" unicode="&#xfc;" horiz-adv-x="1212" 
d="M444 1194q-38 0 -66 28t-28 66t28 66t66 28t66.5 -28t28.5 -66t-28.5 -66t-66.5 -28zM743 1194q-38 0 -66 28t-28 66t28 66t66 28t66.5 -28t28.5 -66t-28.5 -66t-66.5 -28zM1053 1085v-1085h-176v184l-68 -127q-66 -49 -130.5 -67.5t-152.5 -18.5q-161 0 -261 79
t-120 198q-10 69 -10 186v651h176v-618q0 -77 8 -150q12 -94 78 -150t174 -56q66 0 119.5 26t96.5 82.5t66.5 155t23.5 233.5v477h176z" />
    <glyph glyph-name="yacute" unicode="&#xfd;" horiz-adv-x="1050" 
d="M571 1188h-114l125 225h163zM1038 1085l-446 -1177q-67 -173 -158.5 -255.5t-222.5 -82.5q-63 0 -90 4v143q27 -2 63 -2q84 0 140 43.5t96 147.5l14 39l-432 1140h199l323 -954l322 954h192z" />
    <glyph glyph-name="thorn" unicode="&#xfe;" horiz-adv-x="1251" 
d="M696 1114q155 0 268 -73t169.5 -197.5t56.5 -284.5q0 -146 -43 -260.5t-117.5 -184.5t-168.5 -106.5t-202 -36.5q-71 0 -145.5 19.5t-114.5 52.5l-71 107v-551h-176v1906h176v-594l82 117q46 38 124.5 62t161.5 24zM659 106q149 0 243.5 113t94.5 320q0 125 -35.5 223
t-111 157.5t-180.5 59.5q-70 0 -129.5 -23.5t-108.5 -72t-76.5 -133t-27.5 -197.5v-59q0 -101 29.5 -178.5t78 -121.5t105.5 -66t118 -22z" />
    <glyph glyph-name="ydieresis" unicode="&#xff;" horiz-adv-x="1050" 
d="M377 1194q-38 0 -66 28t-28 66t28 66t66 28t66 -28t28 -66t-28 -66t-66 -28zM676 1194q-38 0 -66 28t-28 66t28 66t66 28t66 -28t28 -66t-28 -66t-66 -28zM1038 1085l-446 -1177q-67 -173 -158.5 -255.5t-222.5 -82.5q-63 0 -90 4v143q27 -2 63 -2q84 0 140 43.5
t96 147.5l14 39l-432 1140h199l323 -954l322 954h192z" />
    <glyph glyph-name="Amacron" unicode="&#x100;" horiz-adv-x="1308" 
d="M932 1550h-492v107h492v-107zM934 500h-520l-166 -500h-189l508 1413h238l487 -1413h-190zM463 643h424l-205 631z" />
    <glyph glyph-name="amacron" unicode="&#x101;" horiz-adv-x="1087" 
d="M786 1237h-491v106h491v-106zM774 0l-18 156l-60 -117q-99 -68 -272 -68q-153 0 -251.5 82t-98.5 228q0 187 147.5 279.5t462.5 92.5h70v29q0 90 -4 131q-13 166 -211 166q-216 0 -234 -229h-184q12 172 124 268t294 96q187 0 279 -74t106 -213q6 -64 6 -143v-408
q0 -125 20 -276h-176zM483 106q125 0 198 80t73 226v110q-233 18 -360.5 -37t-127.5 -190q0 -96 57 -142.5t160 -46.5z" />
    <glyph glyph-name="Abreve" unicode="&#x102;" horiz-adv-x="1308" 
d="M686 1479q-209 0 -209 221h109q1 -54 27.5 -81.5t72.5 -27.5t72.5 27.5t27.5 81.5h109q0 -221 -209 -221zM934 500h-520l-166 -500h-189l508 1413h238l487 -1413h-190zM463 643h424l-205 631z" />
    <glyph glyph-name="abreve" unicode="&#x103;" horiz-adv-x="1087" 
d="M541 1159q-109 0 -159 62.5t-50 191.5h108q3 -141 101 -141q97 0 100 141h109q0 -129 -50.5 -191.5t-158.5 -62.5zM774 0l-18 156l-60 -117q-99 -68 -272 -68q-153 0 -251.5 82t-98.5 228q0 187 147.5 279.5t462.5 92.5h70v29q0 90 -4 131q-13 166 -211 166
q-216 0 -234 -229h-184q12 172 124 268t294 96q187 0 279 -74t106 -213q6 -64 6 -143v-408q0 -125 20 -276h-176zM483 106q125 0 198 80t73 226v110q-233 18 -360.5 -37t-127.5 -190q0 -96 57 -142.5t160 -46.5z" />
    <glyph glyph-name="Aogonek" unicode="&#x104;" horiz-adv-x="1308" 
d="M1032 -244q0 -55 22 -78.5t68 -23.5q63 0 115 41v-101q-74 -51 -182 -51q-191 0 -191 174q0 110 66 189.5t164 116.5l-160 477h-520l-166 -500h-189l508 1413h238l487 -1413h-67q-81 -14 -137 -82t-56 -162zM463 643h424l-205 631z" />
    <glyph glyph-name="aogonek" unicode="&#x105;" horiz-adv-x="1087" 
d="M711 -244q0 -55 22 -78.5t68 -23.5q62 0 114 41v-101q-74 -51 -182 -51q-190 0 -190 174q0 109 65 188.5t164 117.5l-16 133l-60 -117q-99 -68 -272 -68q-153 0 -251.5 82t-98.5 228q0 187 147.5 279.5t462.5 92.5h70v29q0 90 -4 131q-13 166 -211 166q-216 0 -234 -229
h-184q12 172 124 268t294 96q187 0 279 -74t106 -213q6 -64 6 -143v-408q0 -125 20 -276h-47q-80 -14 -136 -82t-56 -162zM483 106q125 0 198 80t73 226v110q-233 18 -360.5 -37t-127.5 -190q0 -96 57 -142.5t160 -46.5z" />
    <glyph glyph-name="Cacute" unicode="&#x106;" horiz-adv-x="1431" 
d="M797 1507h-115l111 193h163zM764 1442q131 0 236 -36t175 -100.5t111.5 -151t52.5 -191.5l2 -21h-176l-4 21q-32 160 -131.5 250t-269.5 90q-213 0 -340 -166.5t-127 -427.5q0 -264 124 -431t331 -167q170 0 269.5 90t131.5 250l4 20h176l-2 -20q-10 -98 -51.5 -183
t-113 -152.5t-181 -106t-244.5 -38.5q-151 0 -273.5 55.5t-202 153.5t-122.5 231t-43 289q0 214 82.5 382.5t235.5 264t350 95.5z" />
    <glyph glyph-name="cacute" unicode="&#x107;" horiz-adv-x="1083" 
d="M596 1188h-115l125 225h164zM571 1114q192 0 313 -106t146 -287h-184q-58 258 -279 258q-136 0 -224.5 -108.5t-88.5 -317.5q0 -224 85 -335.5t216 -111.5q108 0 180.5 61t100.5 179h184q-39 -185 -164 -280t-311 -95q-105 0 -191.5 34t-153 101.5t-103 178.5t-36.5 256
q0 134 41.5 244t112 181t162 109.5t194.5 38.5z" />
    <glyph glyph-name="Cdotaccent" unicode="&#x10a;" horiz-adv-x="1431" 
d="M750 1698q38 0 66 -28t28 -66t-28 -66.5t-66 -28.5t-66.5 28.5t-28.5 66.5t28.5 66t66.5 28zM764 1442q131 0 236 -36t175 -100.5t111.5 -151t52.5 -191.5l2 -21h-176l-4 21q-32 160 -131.5 250t-269.5 90q-213 0 -340 -166.5t-127 -427.5q0 -264 124 -431t331 -167
q170 0 269.5 90t131.5 250l4 20h176l-2 -20q-10 -98 -51.5 -183t-113 -152.5t-181 -106t-244.5 -38.5q-151 0 -273.5 55.5t-202 153.5t-122.5 231t-43 289q0 214 82.5 382.5t235.5 264t350 95.5z" />
    <glyph glyph-name="cdotaccent" unicode="&#x10b;" horiz-adv-x="1083" 
d="M551 1442q47 0 80 -33t33 -80t-33 -79.5t-80 -32.5t-80 32.5t-33 79.5t33 80t80 33zM571 1114q192 0 313 -106t146 -287h-184q-58 258 -279 258q-136 0 -224.5 -108.5t-88.5 -317.5q0 -224 85 -335.5t216 -111.5q108 0 180.5 61t100.5 179h184q-39 -185 -164 -280
t-311 -95q-105 0 -191.5 34t-153 101.5t-103 178.5t-36.5 256q0 134 41.5 244t112 181t162 109.5t194.5 38.5z" />
    <glyph glyph-name="Ccaron" unicode="&#x10c;" horiz-adv-x="1431" 
d="M690 1507l-137 193h137l62 -113l61 113h135l-137 -193h-121zM1153 471h176l-2 -20q-10 -98 -51.5 -183t-113 -152.5t-181 -106t-244.5 -38.5q-151 0 -273.5 55.5t-202 153.5t-122.5 231t-43 289q0 214 82.5 382.5t235.5 264t350 95.5q131 0 236 -36t175 -100.5
t111.5 -151t52.5 -191.5l2 -21h-176l-4 21q-32 160 -131.5 250t-269.5 90q-213 0 -340 -166.5t-127 -427.5q0 -264 124 -431t331 -167q170 0 269.5 90t131.5 250z" />
    <glyph glyph-name="ccaron" unicode="&#x10d;" horiz-adv-x="1083" 
d="M492 1188l-138 225h131l68 -129l68 129h129l-138 -225h-120zM555 106q108 0 180.5 61t100.5 179h184q-39 -185 -164 -280t-311 -95q-105 0 -191.5 34t-153 101.5t-103 178.5t-36.5 256q0 134 41.5 244t112 181t162 109.5t194.5 38.5q192 0 313 -106t146 -287h-184
q-58 258 -279 258q-136 0 -224.5 -108.5t-88.5 -317.5q0 -224 85 -335.5t216 -111.5z" />
    <glyph glyph-name="Dcaron" unicode="&#x10e;" horiz-adv-x="1452" 
d="M698 1507l-137 193h137l62 -113l61 113h135l-137 -193h-121zM815 1405q257 -32 408 -204.5t151 -477.5q0 -304 -158 -493.5t-411 -221.5q-72 -8 -180 -8h-420v1413h430q108 0 180 -8zM786 154q184 30 290 177t106 392q0 232 -101 369.5t-284 167.5q-56 10 -172 10h-244
v-1127h233q110 0 172 11z" />
    <glyph glyph-name="dcaron" unicode="&#x10f;" horiz-adv-x="1259" 
d="M924 1505h176v-1505h-176v174l-82 -117q-46 -38 -125 -62t-162 -24q-155 0 -268 73t-169.5 197.5t-56.5 284.5q0 146 43 260.5t117.5 184.5t168.5 106.5t202 36.5q71 0 145.5 -19.5t114.5 -52.5l72 -106v569zM1401 1505v-24l-123 -271h-125l107 295h141zM582 106
q70 0 129.5 23.5t108.5 72t76.5 133t27.5 197.5v60q0 101 -29.5 178.5t-78.5 121.5t-106 65.5t-118 21.5q-149 0 -243.5 -113t-94.5 -319q0 -125 36 -223.5t111.5 -158t180.5 -59.5z" />
    <glyph glyph-name="Dcroat" unicode="&#x110;" horiz-adv-x="1435" 
d="M799 1405q257 -32 408 -204.5t151 -477.5q0 -304 -158.5 -493.5t-411.5 -221.5q-72 -8 -180 -8h-420v625h-120v114h120v674h430q109 0 181 -8zM770 154q184 30 289.5 176.5t105.5 392.5q0 232 -101 369.5t-284 167.5q-56 10 -172 10h-243v-531h278v-114h-278v-482h233
q110 0 172 11z" />
    <glyph glyph-name="dcroat" unicode="&#x111;" horiz-adv-x="1267" 
d="M1190 1219h-90v-1219h-176v174l-82 -117q-46 -38 -125 -62t-162 -24q-155 0 -268 73t-169.5 197.5t-56.5 284.5q0 146 43 260.5t117.5 184.5t168.5 106.5t202 36.5q71 0 145.5 -19.5t114.5 -52.5l72 -106v283h-238v114h238v172h176v-172h90v-114zM582 106
q70 0 129.5 23.5t108.5 72t76.5 133t27.5 197.5v60q0 101 -29.5 178.5t-78.5 121.5t-106 65.5t-118 21.5q-149 0 -243.5 -113t-94.5 -319q0 -125 36 -223.5t111.5 -158t180.5 -59.5z" />
    <glyph glyph-name="Emacron" unicode="&#x112;" horiz-adv-x="1202" 
d="M934 1550h-492v107h492v-107zM1145 143v-143h-940v1413h919v-143h-743v-492h682v-143h-682v-492h764z" />
    <glyph glyph-name="emacron" unicode="&#x113;" horiz-adv-x="1124" 
d="M813 1237h-491v106h491v-106zM1042 573q0 -45 -4 -84h-786q11 -202 95.5 -292.5t215.5 -90.5q108 0 185.5 64.5t95.5 179.5h184q-16 -95 -60.5 -169t-109 -119t-141 -68t-162.5 -23q-107 0 -196.5 35.5t-156.5 104.5t-104 178.5t-37 249.5q0 260 145.5 417.5t371.5 157.5
q219 0 341.5 -148.5t122.5 -392.5zM573 979q-132 0 -218 -92t-101 -262h610q-12 171 -85.5 262.5t-205.5 91.5z" />
    <glyph glyph-name="Edotaccent" unicode="&#x116;" horiz-adv-x="1202" 
d="M688 1509q-38 0 -66 28.5t-28 66.5t28 66t66 28t66 -28t28 -66t-28 -66.5t-66 -28.5zM1145 143v-143h-940v1413h919v-143h-743v-492h682v-143h-682v-492h764z" />
    <glyph glyph-name="edotaccent" unicode="&#x117;" horiz-adv-x="1124" 
d="M567 1217q-47 0 -79.5 32.5t-32.5 79.5t32.5 80t79.5 33t80 -33t33 -80t-33 -79.5t-80 -32.5zM1042 573q0 -45 -4 -84h-786q11 -202 95.5 -292.5t215.5 -90.5q108 0 185.5 64.5t95.5 179.5h184q-16 -95 -60.5 -169t-109 -119t-141 -68t-162.5 -23q-107 0 -196.5 35.5
t-156.5 104.5t-104 178.5t-37 249.5q0 260 145.5 417.5t371.5 157.5q219 0 341.5 -148.5t122.5 -392.5zM573 979q-132 0 -218 -92t-101 -262h610q-12 171 -85.5 262.5t-205.5 91.5z" />
    <glyph glyph-name="Eogonek" unicode="&#x118;" horiz-adv-x="1202" 
d="M1044 -346q63 0 115 41v-101q-74 -51 -182 -51q-191 0 -191 174q0 94 51 167t132 116h-764v1413h919v-143h-743v-492h682v-143h-682v-492h764v-143h2q-81 -14 -137 -82t-56 -162q0 -55 22 -78.5t68 -23.5z" />
    <glyph glyph-name="eogonek" unicode="&#x119;" horiz-adv-x="1124" 
d="M1042 573q0 -45 -4 -84h-786q11 -202 95.5 -292.5t215.5 -90.5q108 0 185.5 64.5t95.5 179.5h184q-22 -135 -99.5 -223t-191.5 -127q-7 -2 -21.5 -6t-21.5 -6q-65 -27 -107 -89t-42 -143q0 -55 22 -78.5t68 -23.5q63 0 115 41v-101q-74 -51 -183 -51q-190 0 -190 174
q0 156 137 256q-205 13 -329 157.5t-124 408.5q0 260 145.5 417.5t371.5 157.5q219 0 341.5 -148.5t122.5 -392.5zM573 979q-132 0 -218 -92t-101 -262h610q-12 171 -85.5 262.5t-205.5 91.5z" />
    <glyph glyph-name="Ecaron" unicode="&#x11a;" horiz-adv-x="1202" 
d="M629 1507l-137 193h137l61 -113l62 113h135l-137 -193h-121zM1145 143v-143h-940v1413h919v-143h-743v-492h682v-143h-682v-492h764z" />
    <glyph glyph-name="ecaron" unicode="&#x11b;" horiz-adv-x="1124" 
d="M508 1188l-137 225h131l67 -129l68 129h129l-137 -225h-121zM1042 573q0 -45 -4 -84h-786q11 -202 95.5 -292.5t215.5 -90.5q108 0 185.5 64.5t95.5 179.5h184q-16 -95 -60.5 -169t-109 -119t-141 -68t-162.5 -23q-107 0 -196.5 35.5t-156.5 104.5t-104 178.5t-37 249.5
q0 260 145.5 417.5t371.5 157.5q219 0 341.5 -148.5t122.5 -392.5zM573 979q-132 0 -218 -92t-101 -262h610q-12 171 -85.5 262.5t-205.5 91.5z" />
    <glyph glyph-name="Gbreve" unicode="&#x11e;" horiz-adv-x="1454" 
d="M743 1479q-208 0 -208 221h108q1 -54 27.5 -81.5t72.5 -27.5t73 27.5t28 81.5h108q0 -221 -209 -221zM817 682h506v-682h-156v246l-63 -131q-128 -144 -367 -144q-151 0 -273.5 55.5t-202 153.5t-122.5 231t-43 289q0 214 82.5 382.5t235.5 264t350 95.5q131 0 236 -36
t175 -100.5t111.5 -151t52.5 -191.5l2 -21h-176l-4 21q-32 160 -131.5 250t-269.5 90q-213 0 -340 -166.5t-127 -427.5q0 -264 124 -431t331 -167q173 0 286 120t113 308h-330v143z" />
    <glyph glyph-name="gbreve" unicode="&#x11f;" horiz-adv-x="1259" 
d="M621 1159q-109 0 -159 62.5t-50 191.5h108q3 -141 101 -141q97 0 100 141h108q0 -129 -50 -191.5t-158 -62.5zM1100 1085v-819q0 -152 -2 -211q-7 -235 -143 -360t-373 -125q-450 0 -486 358l-2 21h178l2 -19q11 -102 91.5 -163.5t216.5 -61.5q160 0 247 87t93 245
q2 51 2 119v18l-82 -117q-46 -38 -125 -62t-162 -24q-155 0 -268 73t-169.5 197.5t-56.5 284.5q0 146 43 260.5t117.5 184.5t168.5 106.5t202 36.5q71 0 145.5 -19.5t114.5 -52.5l72 -106v149h176zM582 106q70 0 129.5 23.5t108.5 72t76.5 133t27.5 197.5v60
q0 101 -29.5 178.5t-78.5 121.5t-106 65.5t-118 21.5q-149 0 -243.5 -113t-94.5 -319q0 -125 36 -223.5t111.5 -158t180.5 -59.5z" />
    <glyph glyph-name="Gdotaccent" unicode="&#x120;" horiz-adv-x="1454" 
d="M743 1509q-38 0 -66 28.5t-28 66.5t28 66t66 28t66.5 -28t28.5 -66t-28.5 -66.5t-66.5 -28.5zM817 682h506v-682h-156v246l-63 -131q-128 -144 -367 -144q-151 0 -273.5 55.5t-202 153.5t-122.5 231t-43 289q0 214 82.5 382.5t235.5 264t350 95.5q131 0 236 -36
t175 -100.5t111.5 -151t52.5 -191.5l2 -21h-176l-4 21q-32 160 -131.5 250t-269.5 90q-213 0 -340 -166.5t-127 -427.5q0 -264 124 -431t331 -167q173 0 286 120t113 308h-330v143z" />
    <glyph glyph-name="gdotaccent" unicode="&#x121;" horiz-adv-x="1259" 
d="M621 1217q-47 0 -80 32.5t-33 79.5t33 80t80 33t79.5 -33t32.5 -80t-32.5 -79.5t-79.5 -32.5zM1100 1085v-819q0 -152 -2 -211q-7 -235 -143 -360t-373 -125q-450 0 -486 358l-2 21h178l2 -19q11 -102 91.5 -163.5t216.5 -61.5q160 0 247 87t93 245q2 51 2 119v18
l-82 -117q-46 -38 -125 -62t-162 -24q-155 0 -268 73t-169.5 197.5t-56.5 284.5q0 146 43 260.5t117.5 184.5t168.5 106.5t202 36.5q71 0 145.5 -19.5t114.5 -52.5l72 -106v149h176zM582 106q70 0 129.5 23.5t108.5 72t76.5 133t27.5 197.5v60q0 101 -29.5 178.5
t-78.5 121.5t-106 65.5t-118 21.5q-149 0 -243.5 -113t-94.5 -319q0 -125 36 -223.5t111.5 -158t180.5 -59.5z" />
    <glyph glyph-name="Gcommaaccent" unicode="&#x122;" horiz-adv-x="1454" 
d="M817 682h506v-682h-156v246l-63 -131q-128 -144 -367 -144q-151 0 -273.5 55.5t-202 153.5t-122.5 231t-43 289q0 214 82.5 382.5t235.5 264t350 95.5q131 0 236 -36t175 -100.5t111.5 -151t52.5 -191.5l2 -21h-176l-4 21q-32 160 -131.5 250t-269.5 90
q-213 0 -340 -166.5t-127 -427.5q0 -264 124 -431t331 -167q173 0 286 120t113 308h-330v143zM688 -104h141v-25l-122 -270h-125z" />
    <glyph glyph-name="gcommaaccent" unicode="&#x123;" horiz-adv-x="1259" 
d="M684 1190h-141v24l123 271h125zM1100 1085v-819q0 -152 -2 -211q-7 -235 -143 -360t-373 -125q-450 0 -486 358l-2 21h178l2 -19q11 -102 91.5 -163.5t216.5 -61.5q160 0 247 87t93 245q2 51 2 119v18l-82 -117q-46 -38 -125 -62t-162 -24q-155 0 -268 73t-169.5 197.5
t-56.5 284.5q0 146 43 260.5t117.5 184.5t168.5 106.5t202 36.5q71 0 145.5 -19.5t114.5 -52.5l72 -106v149h176zM582 106q70 0 129.5 23.5t108.5 72t76.5 133t27.5 197.5v60q0 101 -29.5 178.5t-78.5 121.5t-106 65.5t-118 21.5q-149 0 -243.5 -113t-94.5 -319
q0 -125 36 -223.5t111.5 -158t180.5 -59.5z" />
    <glyph glyph-name="Hbar" unicode="&#x126;" horiz-adv-x="1495" 
d="M1417 1028h-82v-1028h-176v618h-778v-618h-176v1028h-82v115h82v270h176v-270h778v270h176v-270h82v-115zM1159 1028h-778v-262h778v262z" />
    <glyph glyph-name="hbar" unicode="&#x127;" horiz-adv-x="1247" 
d="M1098 797q4 -55 4 -187v-610h-176v598q0 101 -4 156q-8 103 -68.5 163.5t-179.5 57.5q-67 -2 -121.5 -28.5t-99 -82.5t-69 -154.5t-24.5 -232.5v-477h-176v1219h-114v114h114v183h176v-183h213v-114h-213v-320l68 125q66 52 130.5 71t152.5 19q175 0 275 -85.5
t112 -231.5z" />
    <glyph glyph-name="Imacron" unicode="&#x12a;" horiz-adv-x="540" 
d="M539 1550h-492v107h492v-107zM381 0h-176v1413h176v-1413z" />
    <glyph glyph-name="imacron" unicode="&#x12b;" horiz-adv-x="487" 
d="M485 1237h-491v106h491v-106zM328 0h-176v1085h176v-1085z" />
    <glyph glyph-name="Iogonek" unicode="&#x12e;" horiz-adv-x="540" 
d="M381 0h-49q-81 -14 -137 -82t-56 -162q0 -55 22 -78.5t68 -23.5q63 0 115 41v-101q-74 -51 -182 -51q-191 0 -191 174q0 110 66.5 189.5t165.5 116.5h2v1390h176v-1413z" />
    <glyph glyph-name="iogonek" unicode="&#x12f;" horiz-adv-x="487" 
d="M240 1217q-47 0 -80 32.5t-33 79.5t33 80t80 33t79.5 -33t32.5 -80t-32.5 -79.5t-79.5 -32.5zM152 1085h176v-1085h-47q-81 -14 -137 -82t-56 -162q0 -55 22 -78.5t68 -23.5q63 0 115 41v-101q-74 -51 -182 -51q-191 0 -191 174q0 110 66.5 189.5t165.5 116.5v1062z" />
    <glyph glyph-name="Idotaccent" unicode="&#x130;" horiz-adv-x="540" 
d="M293 1698q38 0 66 -28t28 -66t-28 -66.5t-66 -28.5t-66 28.5t-28 66.5t28 66t66 28zM381 0h-176v1413h176v-1413z" />
    <glyph glyph-name="dotlessi" unicode="&#x131;" horiz-adv-x="487" 
d="M328 0h-176v1085h176v-1085z" />
    <glyph glyph-name="IJ" unicode="&#x132;" horiz-adv-x="1654" 
d="M381 0h-176v1413h176v-1413zM1540 1413v-872q0 -100 -4 -170q-11 -186 -125.5 -293t-331.5 -107q-196 0 -307.5 113.5t-116.5 312.5l-2 84h176l5 -84q15 -286 270 -286q120 0 184.5 71t73.5 199q2 41 2 166v866h176z" />
    <glyph glyph-name="ij" unicode="&#x133;" horiz-adv-x="964" 
d="M240 1442q47 0 79.5 -33t32.5 -80t-32.5 -79.5t-79.5 -32.5t-80 32.5t-33 79.5t33 80t80 33zM717 1442q47 0 79.5 -33t32.5 -80t-32.5 -79.5t-79.5 -32.5t-80 32.5t-33 79.5t33 80t80 33zM328 0h-176v1085h176v-1085zM805 1085v-1179q0 -76 -6 -131
q-11 -102 -71.5 -153.5t-182.5 -51.5q-57 0 -84 4v143q82 -7 120 15.5t44 74.5q4 29 4 91v1187h176z" />
    <glyph glyph-name="Kcommaaccent" unicode="&#x136;" horiz-adv-x="1247" 
d="M645 723l604 -723h-248l-485 604l-135 -145v-459h-176v1413h176v-751l698 751h207zM633 -104h141v-25l-123 -270h-125z" />
    <glyph glyph-name="kcommaaccent" unicode="&#x137;" horiz-adv-x="1069" 
d="M1065 0h-240l-395 459l-102 -113v-346h-176v1505h176v-966l506 546h225l-506 -512zM496 -104h141v-25l-123 -270h-125z" />
    <glyph glyph-name="Lacute" unicode="&#x139;" horiz-adv-x="1177" 
d="M340 1507h-115l111 193h164zM1145 143v-143h-940v1413h176v-1270h764z" />
    <glyph glyph-name="lacute" unicode="&#x13a;" horiz-adv-x="505" 
d="M276 1608h-114l125 225h164zM319 1505v-1194q0 -49 3 -102t32 -71t101 -11v-127q-52 -8 -125 -8q-85 0 -133 37t-52 133q-2 37 -2 143v1200h176z" />
    <glyph glyph-name="Lcommaaccent" unicode="&#x13b;" horiz-adv-x="1177" 
d="M1145 143v-143h-940v1413h176v-1270h764zM625 -104h141v-25l-123 -270h-125z" />
    <glyph glyph-name="lcommaaccent" unicode="&#x13c;" horiz-adv-x="505" 
d="M319 1505v-1194q0 -49 3 -102t32 -71t101 -11v-127q-52 -8 -125 -8q-85 0 -133 37t-52 133q-2 37 -2 143v1200h176zM330 -129l-123 -270h-125l106 295h142v-25z" />
    <glyph glyph-name="Lcaron" unicode="&#x13d;" horiz-adv-x="1177" 
d="M1145 143v-143h-940v1413h176v-1270h764z" />
    <glyph glyph-name="lcaron" unicode="&#x13e;" horiz-adv-x="505" 
d="M319 1505v-1194q0 -49 3 -102t32 -71t101 -11v-127q-52 -8 -125 -8q-85 0 -133 37t-52 133q-2 37 -2 143v1200h176z" />
    <glyph glyph-name="Ldot" unicode="&#x13f;" horiz-adv-x="1177" 
d="M1145 143v-143h-940v1413h176v-1270h764zM803 707q-47 0 -80 32.5t-33 79.5t33 80t80 33t79.5 -33t32.5 -80t-32.5 -79.5t-79.5 -32.5z" />
    <glyph glyph-name="ldot" unicode="&#x140;" horiz-adv-x="716" 
d="M319 1505v-1194q0 -49 3 -102t32 -71t101 -11v-127q-52 -8 -125 -8q-85 0 -133 37t-52 133q-2 37 -2 143v1200h176zM575 932q47 0 80 -33t33 -80t-33 -79.5t-80 -32.5t-79.5 32.5t-32.5 79.5t32.5 80t79.5 33z" />
    <glyph glyph-name="Lslash" unicode="&#x141;" horiz-adv-x="1222" 
d="M1190 143v-143h-940v590l-221 -131v137l221 131v686h176v-582l258 154v-137l-258 -154v-551h764z" />
    <glyph glyph-name="lslash" unicode="&#x142;" horiz-adv-x="581" 
d="M377 209q3 -53 32 -71t101 -11v-127q-52 -8 -125 -8q-85 0 -132.5 37t-51.5 133q-2 37 -2 143v236l-133 -80v137l133 80v827h176v-725l133 80v-137l-133 -80v-332q0 -67 2 -102z" />
    <glyph glyph-name="Nacute" unicode="&#x143;" horiz-adv-x="1470" 
d="M805 1507h-115l111 193h164zM1311 0h-271l-665 1241q6 -249 6 -534v-707h-176v1413h270l666 -1241q-6 249 -6 535v706h172z" />
    <glyph glyph-name="nacute" unicode="&#x144;" horiz-adv-x="1214" 
d="M844 1413l-174 -225h-115l125 225h164zM1065 797q4 -55 4 -187v-610h-176v598q0 101 -4 156q-8 102 -68 161.5t-180 59.5q-67 0 -121.5 -26.5t-98.5 -82.5t-68.5 -155t-24.5 -234v-477h-176v1085h176v-186l67 125q66 52 130.5 71t152.5 19q175 0 275 -85.5t112 -231.5z
" />
    <glyph glyph-name="Ncommaaccent" unicode="&#x145;" horiz-adv-x="1470" 
d="M1311 0h-271l-665 1241q6 -249 6 -534v-707h-176v1413h270l666 -1241q-6 249 -6 535v706h172zM848 -129l-123 -270h-125l107 295h141v-25z" />
    <glyph glyph-name="ncommaaccent" unicode="&#x146;" horiz-adv-x="1214" 
d="M1065 797q4 -55 4 -187v-610h-176v598q0 101 -4 156q-8 102 -68 161.5t-180 59.5q-67 0 -121.5 -26.5t-98.5 -82.5t-68.5 -155t-24.5 -234v-477h-176v1085h176v-186l67 125q66 52 130.5 71t152.5 19q175 0 275 -85.5t112 -231.5zM436 -399l107 295h141v-25l-123 -270
h-125z" />
    <glyph glyph-name="Ncaron" unicode="&#x147;" horiz-adv-x="1470" 
d="M698 1507l-137 193h137l62 -113l61 113h135l-137 -193h-121zM1040 0l-665 1241q6 -249 6 -534v-707h-176v1413h270l666 -1241q-6 249 -6 535v706h172l4 -1413h-271z" />
    <glyph glyph-name="ncaron" unicode="&#x148;" horiz-adv-x="1214" 
d="M686 1188h-121l-137 225h131l68 -129l67 129h129zM1065 797q4 -55 4 -187v-610h-176v598q0 101 -4 156q-8 102 -68 161.5t-180 59.5q-67 0 -121.5 -26.5t-98.5 -82.5t-68.5 -155t-24.5 -234v-477h-176v1085h176v-186l67 125q66 52 130.5 71t152.5 19q175 0 275 -85.5
t112 -231.5z" />
    <glyph glyph-name="Eng" unicode="&#x14a;" horiz-adv-x="1470" 
d="M1311 1413v-1550q0 -55 -2 -84q-13 -129 -94.5 -182.5t-227.5 -53.5v144q80 0 113 35.5t33 107.5v107l-758 1288q6 -249 6 -518v-707h-176v1413h270l666 -1159q-6 249 -6 494v665h176z" />
    <glyph glyph-name="eng" unicode="&#x14b;" horiz-adv-x="1214" 
d="M1065 797q4 -55 4 -187v-721q0 -55 -2 -84q-5 -71 -29.5 -118t-70.5 -72t-102.5 -35t-137.5 -10v143q85 0 121.5 23t42.5 86q2 16 2 55v721q0 101 -4 156q-8 102 -68 161.5t-180 59.5q-67 0 -121.5 -26.5t-98.5 -82.5t-68.5 -155t-24.5 -234v-477h-176v1085h176v-186
l67 125q66 52 130.5 71t152.5 19q175 0 275 -85.5t112 -231.5z" />
    <glyph glyph-name="Omacron" unicode="&#x14c;" horiz-adv-x="1509" 
d="M1010 1550h-492v107h492v-107zM764 1442q211 0 363 -94t228.5 -259t76.5 -382t-76.5 -381.5t-229 -259.5t-362.5 -95t-362.5 95t-229 259.5t-76.5 381.5t76.5 382t228.5 259t363 94zM764 111q221 0 346 159.5t125 436.5q0 278 -124.5 437t-346.5 159t-346.5 -159
t-124.5 -437q0 -277 125 -436.5t346 -159.5z" />
    <glyph glyph-name="omacron" unicode="&#x14d;" horiz-adv-x="1200" 
d="M846 1237h-492v106h492v-106zM600 1114q134 0 239 -45.5t169.5 -125t97.5 -181t33 -219.5q0 -117 -33 -218.5t-97.5 -181.5t-169.5 -126t-239 -46t-239 46t-169.5 126t-97.5 181.5t-33 218.5q0 118 33 219.5t97.5 181t169.5 125t239 45.5zM600 106q161 0 253.5 121
t92.5 316q0 196 -92.5 316t-253.5 120t-253.5 -120t-92.5 -316q0 -195 92.5 -316t253.5 -121z" />
    <glyph glyph-name="Ohungarumlaut" unicode="&#x150;" horiz-adv-x="1509" 
d="M666 1507h-115l111 193h163zM774 1507l111 193h164l-160 -193h-115zM764 1442q211 0 363 -94t228.5 -259t76.5 -382t-76.5 -381.5t-229 -259.5t-362.5 -95t-362.5 95t-229 259.5t-76.5 381.5t76.5 382t228.5 259t363 94zM764 111q221 0 346 159.5t125 436.5
q0 278 -124.5 437t-346.5 159t-346.5 -159t-124.5 -437q0 -277 125 -436.5t346 -159.5z" />
    <glyph glyph-name="ohungarumlaut" unicode="&#x151;" horiz-adv-x="1200" 
d="M530 1188h-114l125 225h164zM666 1188l125 225h163l-174 -225h-114zM600 1114q134 0 239 -45.5t169.5 -125t97.5 -181t33 -219.5q0 -117 -33 -218.5t-97.5 -181.5t-169.5 -126t-239 -46t-239 46t-169.5 126t-97.5 181.5t-33 218.5q0 118 33 219.5t97.5 181t169.5 125
t239 45.5zM600 106q161 0 253.5 121t92.5 316q0 196 -92.5 316t-253.5 120t-253.5 -120t-92.5 -316q0 -195 92.5 -316t253.5 -121z" />
    <glyph glyph-name="OE" unicode="&#x152;" horiz-adv-x="2232" 
d="M2175 143v-143h-940v289l-55 -150q-147 -168 -437 -168q-150 0 -273.5 57.5t-204.5 157t-125 233.5t-44 288q0 155 44 289t125 233t204.5 156t273.5 57q156 0 255.5 -40t181.5 -136l55 -146v293h919v-143h-743v-492h682v-143h-682v-492h764zM764 111q219 0 345 164
t126 432q0 269 -125.5 432.5t-345.5 163.5t-345.5 -163.5t-125.5 -432.5q0 -268 126 -432t345 -164z" />
    <glyph glyph-name="oe" unicode="&#x153;" horiz-adv-x="2009" 
d="M1927 573q0 -45 -4 -84h-782q11 -193 95 -288t212 -95q108 0 185.5 64.5t95.5 179.5h184q-16 -95 -60.5 -169t-109 -119t-141 -68t-162.5 -23q-283 0 -404 258q-128 -258 -436 -258q-134 0 -239 46t-169.5 126t-97.5 181.5t-33 218.5q0 118 33 219.5t97.5 181t169.5 125
t239 45.5q316 0 444 -264q128 264 418 264q220 0 342.5 -149t122.5 -392zM600 106q161 0 253.5 121t92.5 316q0 196 -92.5 316t-253.5 120t-253.5 -120t-92.5 -316q0 -195 92.5 -316t253.5 -121zM1141 625h608q-14 172 -87 263t-204 91q-132 0 -216 -91.5t-101 -262.5z" />
    <glyph glyph-name="Racute" unicode="&#x154;" horiz-adv-x="1267" 
d="M707 1507h-115l110 193h164zM1135 371q13 -147 33 -232t61 -139h-195q-52 119 -76 354q-13 116 -62 180.5t-148 71.5q-33 2 -101 2h-266v-608h-176v1413h463q121 0 184 -8q163 -21 257.5 -114t94.5 -263q0 -130 -71.5 -215t-180.5 -119q82 -38 127.5 -124t55.5 -199z
M381 752h270q98 0 137 4q103 9 165.5 74.5t62.5 181.5q0 115 -52.5 174.5t-154.5 75.5q-52 8 -141 8h-287v-518z" />
    <glyph glyph-name="racute" unicode="&#x155;" horiz-adv-x="675" 
d="M422 1188h-115l125 225h164zM578 1110q45 0 73 -14v-133q-145 9 -234 -78.5t-89 -266.5v-618h-176v1085h176v-170l98 146q71 49 152 49z" />
    <glyph glyph-name="Rcommaaccent" unicode="&#x156;" horiz-adv-x="1267" 
d="M1135 371q13 -147 33 -232t61 -139h-195q-52 119 -76 354q-13 116 -62 180.5t-148 71.5q-33 2 -101 2h-266v-608h-176v1413h463q121 0 184 -8q163 -21 257.5 -114t94.5 -263q0 -130 -71.5 -215t-180.5 -119q82 -38 127.5 -124t55.5 -199zM381 752h270q98 0 137 4
q103 9 165.5 74.5t62.5 181.5q0 115 -52.5 174.5t-154.5 75.5q-52 8 -141 8h-287v-518zM598 -104h141v-25l-123 -270h-124z" />
    <glyph glyph-name="rcommaaccent" unicode="&#x157;" horiz-adv-x="675" 
d="M578 1110q45 0 73 -14v-133q-145 9 -234 -78.5t-89 -266.5v-618h-176v1085h176v-170l98 146q71 49 152 49zM176 -104h141v-25l-122 -270h-125z" />
    <glyph glyph-name="Rcaron" unicode="&#x158;" horiz-adv-x="1267" 
d="M600 1507l-137 193h137l62 -113l61 113h135l-137 -193h-121zM1135 371q13 -147 33 -232t61 -139h-195q-52 119 -76 354q-13 116 -62 180.5t-148 71.5q-33 2 -101 2h-266v-608h-176v1413h463q121 0 184 -8q163 -21 257.5 -114t94.5 -263q0 -130 -71.5 -215t-180.5 -119
q82 -38 127.5 -124t55.5 -199zM381 752h270q98 0 137 4q103 9 165.5 74.5t62.5 181.5q0 115 -52.5 174.5t-154.5 75.5q-52 8 -141 8h-287v-518z" />
    <glyph glyph-name="rcaron" unicode="&#x159;" horiz-adv-x="675" 
d="M317 1188l-137 225h131l68 -129l67 129h129l-137 -225h-121zM578 1110q45 0 73 -14v-133q-145 9 -234 -78.5t-89 -266.5v-618h-176v1085h176v-170l98 146q71 49 152 49z" />
    <glyph glyph-name="Sacute" unicode="&#x15a;" horiz-adv-x="1198" 
d="M670 1507h-115l111 193h163zM643 1442q211 0 331.5 -115t141.5 -305h-188q-12 134 -89 207.5t-210 73.5q-118 0 -193.5 -56t-75.5 -162q0 -113 69.5 -171.5t234.5 -96.5q239 -55 352.5 -158.5t113.5 -279.5q0 -121 -64.5 -215t-174.5 -143.5t-246 -49.5
q-233 0 -374.5 113t-164.5 317h189q31 -139 123.5 -214.5t230.5 -75.5q125 0 209 64t84 171q0 127 -78.5 195.5t-267.5 111.5q-79 18 -140.5 40t-116 55t-90.5 74t-56.5 97.5t-20.5 124.5q0 119 63.5 210.5t170.5 139.5t237 48z" />
    <glyph glyph-name="sacute" unicode="&#x15b;" horiz-adv-x="940" 
d="M694 1413l-174 -225h-114l124 225h164zM467 1114q177 0 279 -91.5t120 -246.5h-184q-19 97 -77 150t-152 53q-89 0 -135 -44t-46 -118q0 -76 57.5 -116.5t180.5 -73.5q192 -51 280.5 -132t88.5 -216q0 -148 -112.5 -228t-291.5 -80q-176 0 -289 85.5t-137 262.5h184
q39 -213 254 -213q92 0 151.5 41.5t59.5 116.5q0 77 -59 124.5t-197 84.5q-80 22 -138 47t-109 63t-77 91.5t-26 122.5q0 147 102.5 232t272.5 85z" />
    <glyph glyph-name="Scedilla" unicode="&#x15e;" horiz-adv-x="1198" 
d="M1130 379q0 -178 -130.5 -289t-331.5 -119l-29 -53q81 -10 123.5 -54t42.5 -116q0 -85 -68.5 -131.5t-183.5 -46.5q-59 0 -102 18v90q43 -22 108 -22q62 0 94.5 24t32.5 66q0 54 -47 77.5t-150 16.5l74 135q-198 20 -316.5 130t-140.5 296h189q31 -139 123.5 -214.5
t230.5 -75.5q125 0 209 64t84 171q0 127 -78.5 195.5t-267.5 111.5q-79 18 -140.5 40t-116 55t-90.5 74t-56.5 97.5t-20.5 124.5q0 119 63.5 210.5t170.5 139.5t237 48q211 0 331.5 -115t141.5 -305h-188q-12 134 -89 207.5t-210 73.5q-118 0 -193.5 -56t-75.5 -162
q0 -113 69.5 -171.5t234.5 -96.5q239 -55 352.5 -158.5t113.5 -279.5z" />
    <glyph glyph-name="scedilla" unicode="&#x15f;" horiz-adv-x="940" 
d="M879 279q0 -135 -93 -213.5t-247 -92.5l-31 -55q81 -10 123.5 -54t42.5 -116q0 -85 -68.5 -131.5t-183.5 -46.5q-60 0 -103 18v90q43 -22 109 -22q62 0 94.5 24t32.5 66q0 54 -47 77.5t-150 16.5l72 133q-103 6 -181.5 43.5t-131.5 114t-68 188.5h184q39 -213 254 -213
q92 0 151.5 41.5t59.5 116.5q0 77 -59 124.5t-197 84.5q-80 22 -138 47t-109 63t-77 91.5t-26 122.5q0 147 102.5 232t272.5 85q177 0 279 -91.5t120 -246.5h-184q-19 97 -77 150t-152 53q-89 0 -135 -44t-46 -118q0 -76 57.5 -116.5t180.5 -73.5q192 -51 280.5 -132
t88.5 -216z" />
    <glyph glyph-name="Scaron" unicode="&#x160;" horiz-adv-x="1198" 
d="M563 1507l-137 193h137l62 -113l61 113h135l-137 -193h-121zM664 817q239 -55 352.5 -158.5t113.5 -279.5q0 -121 -64.5 -215t-174.5 -143.5t-246 -49.5q-233 0 -374.5 113t-164.5 317h189q31 -139 123.5 -214.5t230.5 -75.5q125 0 209 64t84 171q0 127 -78.5 195.5
t-267.5 111.5q-79 18 -140.5 40t-116 55t-90.5 74t-56.5 97.5t-20.5 124.5q0 119 63.5 210.5t170.5 139.5t237 48q211 0 331.5 -115t141.5 -305h-188q-12 134 -89 207.5t-210 73.5q-118 0 -193.5 -56t-75.5 -162q0 -113 69.5 -171.5t234.5 -96.5z" />
    <glyph glyph-name="scaron" unicode="&#x161;" horiz-adv-x="940" 
d="M537 1188h-121l-137 225h131l67 -129l68 129h129zM510 627q192 -51 280.5 -132t88.5 -216q0 -148 -112.5 -228t-291.5 -80q-176 0 -289 85.5t-137 262.5h184q39 -213 254 -213q92 0 151.5 41.5t59.5 116.5q0 77 -59 124.5t-197 84.5q-80 22 -138 47t-109 63t-77 91.5
t-26 122.5q0 147 102.5 232t272.5 85q177 0 279 -91.5t120 -246.5h-184q-19 97 -77 150t-152 53q-89 0 -135 -44t-46 -118q0 -76 57.5 -116.5t180.5 -73.5z" />
    <glyph glyph-name="Tcedilla" unicode="&#x162;" horiz-adv-x="1253" 
d="M723 0l-45 -82q81 -10 123.5 -54t42.5 -116q0 -85 -68.5 -131.5t-183.5 -46.5q-60 0 -103 18v90q43 -22 109 -22q62 0 94.5 24t32.5 66q0 54 -47 77.5t-150 16.5l86 160h-41v1270h-503v143h1183v-143h-503v-1270h-27z" />
    <glyph glyph-name="tcedilla" unicode="&#x163;" horiz-adv-x="641" 
d="M362 942v-625q0 -41 3 -84q6 -77 45 -99.5t143 -10.5v-129q-61 -10 -143 -10l-37 -66q81 -10 123.5 -54t42.5 -116q0 -85 -68.5 -131.5t-183.5 -46.5q-59 0 -103 18v90q43 -22 109 -22q62 0 94.5 24t32.5 66q0 54 -47 77.5t-150 16.5l84 156q-108 37 -119 178
q-2 29 -2 135v633h-145v135h145v252h176v-252h203v-135h-203z" />
    <glyph glyph-name="Tcaron" unicode="&#x164;" horiz-adv-x="1253" 
d="M602 1507l-137 193h137l62 -113l61 113h135l-137 -193h-121zM1253 1270h-503v-1270h-177v1270h-503v143h1183v-143z" />
    <glyph glyph-name="tcaron" unicode="&#x165;" horiz-adv-x="620" 
d="M690 1505v-24l-123 -271h-125l107 295h141zM362 1077h203v-135h-203v-625q0 -41 3 -84q6 -77 45 -99.5t143 -10.5v-129q-64 -10 -150 -10q-103 0 -155.5 45t-59.5 145q-2 29 -2 135v633h-145v135h145v252h176v-252z" />
    <glyph glyph-name="Tbar" unicode="&#x166;" horiz-adv-x="1253" 
d="M750 1270v-531h229v-114h-229v-625h-177v625h-229v114h229v531h-503v143h1183v-143h-503z" />
    <glyph glyph-name="tbar" unicode="&#x167;" horiz-adv-x="641" 
d="M362 942v-229h170v-107h-170v-289q0 -41 3 -84q6 -77 45 -99.5t143 -10.5v-129q-64 -10 -150 -10q-103 0 -155.5 45t-59.5 145q-2 29 -2 135v297h-145v107h145v229h-145v135h145v252h176v-252h203v-135h-203z" />
    <glyph glyph-name="Umacron" unicode="&#x16a;" horiz-adv-x="1396" 
d="M969 1550h-492v107h492v-107zM1253 1413v-891q0 -86 -4 -127q-8 -91 -43 -166.5t-97.5 -134t-161 -91t-224.5 -32.5t-224.5 32.5t-161 91t-97.5 134t-43 166.5q-4 41 -4 127v891h176v-874q0 -88 4 -125q12 -138 102 -220.5t248 -82.5t248 82.5t102 220.5q4 37 4 125v874
h176z" />
    <glyph glyph-name="umacron" unicode="&#x16b;" horiz-adv-x="1212" 
d="M840 1237h-492v106h492v-106zM1053 1085v-1085h-176v184l-68 -127q-66 -49 -130.5 -67.5t-152.5 -18.5q-161 0 -261 79t-120 198q-10 69 -10 186v651h176v-618q0 -77 8 -150q12 -94 78 -150t174 -56q66 0 119.5 26t96.5 82.5t66.5 155t23.5 233.5v477h176z" />
    <glyph glyph-name="Uring" unicode="&#x16e;" horiz-adv-x="1396" 
d="M723 1790q82 0 134 -45.5t52 -116.5t-52 -116.5t-134 -45.5t-134 45.5t-52 116.5t52 116.5t134 45.5zM723 1716q-37 0 -60.5 -25t-23.5 -63t23.5 -63t60.5 -25t60.5 25t23.5 63t-23.5 63t-60.5 25zM1253 1413v-891q0 -86 -4 -127q-8 -91 -43 -166.5t-97.5 -134t-161 -91
t-224.5 -32.5t-224.5 32.5t-161 91t-97.5 134t-43 166.5q-4 41 -4 127v891h176v-874q0 -88 4 -125q12 -138 102 -220.5t248 -82.5t248 82.5t102 220.5q4 37 4 125v874h176z" />
    <glyph glyph-name="uring" unicode="&#x16f;" horiz-adv-x="1212" 
d="M594 1157q-82 0 -134 48.5t-52 123.5t52 123.5t134 48.5t134 -48.5t52 -123.5t-52 -123.5t-134 -48.5zM594 1427q-37 0 -60.5 -26.5t-23.5 -71.5t23.5 -71.5t60.5 -26.5t60.5 26.5t23.5 71.5t-23.5 71.5t-60.5 26.5zM1053 1085v-1085h-176v184l-68 -127
q-66 -49 -130.5 -67.5t-152.5 -18.5q-161 0 -261 79t-120 198q-10 69 -10 186v651h176v-618q0 -77 8 -150q12 -94 78 -150t174 -56q66 0 119.5 26t96.5 82.5t66.5 155t23.5 233.5v477h176z" />
    <glyph glyph-name="Uhungarumlaut" unicode="&#x170;" horiz-adv-x="1396" 
d="M625 1507h-115l111 193h163zM848 1507h-115l111 193h164zM1253 1413v-891q0 -86 -4 -127q-8 -91 -43 -166.5t-97.5 -134t-161 -91t-224.5 -32.5t-224.5 32.5t-161 91t-97.5 134t-43 166.5q-4 41 -4 127v891h176v-874q0 -88 4 -125q12 -138 102 -220.5t248 -82.5t248 82.5
t102 220.5q4 37 4 125v874h176z" />
    <glyph glyph-name="uhungarumlaut" unicode="&#x171;" horiz-adv-x="1212" 
d="M524 1188h-114l125 225h163zM659 1188l125 225h164l-174 -225h-115zM1053 1085v-1085h-176v184l-68 -127q-66 -49 -130.5 -67.5t-152.5 -18.5q-161 0 -261 79t-120 198q-10 69 -10 186v651h176v-618q0 -77 8 -150q12 -94 78 -150t174 -56q66 0 119.5 26t96.5 82.5
t66.5 155t23.5 233.5v477h176z" />
    <glyph glyph-name="Uogonek" unicode="&#x172;" horiz-adv-x="1396" 
d="M1253 1413v-891q0 -86 -4 -127q-13 -152 -100.5 -259.5t-251.5 -145.5q-68 -26 -112 -89t-44 -145q0 -55 22 -78.5t68 -23.5q63 0 115 41v-101q-74 -51 -182 -51q-191 0 -191 174q0 158 136 254q-122 2 -218 36t-157 92t-95 132.5t-42 163.5q-4 41 -4 127v891h176v-874
q0 -88 4 -125q12 -138 102 -220.5t248 -82.5t248 82.5t102 220.5q4 37 4 125v874h176z" />
    <glyph glyph-name="uogonek" unicode="&#x173;" horiz-adv-x="1212" 
d="M1053 0h-47q-81 -14 -137 -82t-56 -162q0 -55 22 -78.5t68 -23.5q63 0 115 41v-101q-74 -51 -182 -51q-191 0 -191 174q0 110 66.5 189.5t165.5 116.5v161l-68 -127q-66 -49 -130.5 -67.5t-152.5 -18.5q-161 0 -261 79t-120 198q-10 69 -10 186v651h176v-618
q0 -77 8 -150q12 -94 78 -150t174 -56q66 0 119.5 26t96.5 82.5t66.5 155t23.5 233.5v477h176v-1085z" />
    <glyph glyph-name="Wcircumflex" unicode="&#x174;" horiz-adv-x="1949" 
d="M936 1507h-135l137 193h121l137 -193h-137l-62 113zM1935 1413l-393 -1413h-231l-320 1219l-332 -1219h-233l-373 1413h201l297 -1255l328 1235h237l320 -1237l313 1257h186z" />
    <glyph glyph-name="wcircumflex" unicode="&#x175;" horiz-adv-x="1607" 
d="M735 1188h-129l137 225h121l137 -225h-131l-67 129zM1595 1085l-346 -1085h-209l-241 913l-242 -913h-209l-346 1085h203l252 -917l237 917h219l242 -911l252 911h188z" />
    <glyph glyph-name="Ycircumflex" unicode="&#x176;" horiz-adv-x="1189" 
d="M565 1507h-135l137 193h121l137 -193h-137l-61 113zM715 557v-557h-176v557l-500 856h203l393 -686l381 686h198z" />
    <glyph glyph-name="ycircumflex" unicode="&#x177;" horiz-adv-x="1050" 
d="M459 1188h-129l137 225h121l137 -225h-131l-68 129zM1038 1085l-446 -1177q-67 -173 -158.5 -255.5t-222.5 -82.5q-63 0 -90 4v143q27 -2 63 -2q84 0 140 43.5t96 147.5l14 39l-432 1140h199l323 -954l322 954h192z" />
    <glyph glyph-name="Ydieresis" unicode="&#x178;" horiz-adv-x="1189" 
d="M483 1509q-38 0 -66 28.5t-28 66.5t28 66t66 28t66.5 -28t28.5 -66t-28.5 -66.5t-66.5 -28.5zM770 1509q-38 0 -66 28.5t-28 66.5t28 66t66 28t66 -28t28 -66t-28 -66.5t-66 -28.5zM715 557v-557h-176v557l-500 856h203l393 -686l381 686h198z" />
    <glyph glyph-name="Zacute" unicode="&#x179;" horiz-adv-x="1210" 
d="M674 1507h-115l111 193h164zM1165 143v-143h-1071v135l854 1135h-796v143h1001v-141l-850 -1129h862z" />
    <glyph glyph-name="zacute" unicode="&#x17a;" horiz-adv-x="946" 
d="M516 1188h-115l125 225h164zM887 139v-139h-846v135l631 803h-586v139h791v-141l-627 -797h637z" />
    <glyph glyph-name="Zdotaccent" unicode="&#x17b;" horiz-adv-x="1210" 
d="M627 1509q-38 0 -66.5 28.5t-28.5 66.5t28.5 66t66.5 28t66 -28t28 -66t-28 -66.5t-66 -28.5zM1165 143v-143h-1071v135l854 1135h-796v143h1001v-141l-850 -1129h862z" />
    <glyph glyph-name="zdotaccent" unicode="&#x17c;" horiz-adv-x="946" 
d="M471 1217q-47 0 -80 32.5t-33 79.5t33 80t80 33t80 -33t33 -80t-33 -79.5t-80 -32.5zM887 139v-139h-846v135l631 803h-586v139h791v-141l-627 -797h637z" />
    <glyph glyph-name="Zcaron" unicode="&#x17d;" horiz-adv-x="1210" 
d="M567 1507l-137 193h137l62 -113l61 113h135l-137 -193h-121zM1165 143v-143h-1071v135l854 1135h-796v143h1001v-141l-850 -1129h862z" />
    <glyph glyph-name="zcaron" unicode="&#x17e;" horiz-adv-x="946" 
d="M412 1188l-138 225h132l67 -129l68 129h129l-138 -225h-120zM887 139v-139h-846v135l631 803h-586v139h791v-141l-627 -797h637z" />
    <glyph glyph-name="Scommaaccent" unicode="&#x218;" horiz-adv-x="1198" 
d="M643 1442q211 0 331.5 -115t141.5 -305h-188q-12 134 -89 207.5t-210 73.5q-118 0 -193.5 -56t-75.5 -162q0 -113 69.5 -171.5t234.5 -96.5q239 -55 352.5 -158.5t113.5 -279.5q0 -121 -64.5 -215t-174.5 -143.5t-246 -49.5q-233 0 -374.5 113t-164.5 317h189
q31 -139 123.5 -214.5t230.5 -75.5q125 0 209 64t84 171q0 127 -78.5 195.5t-267.5 111.5q-79 18 -140.5 40t-116 55t-90.5 74t-56.5 97.5t-20.5 124.5q0 119 63.5 210.5t170.5 139.5t237 48zM713 -129l-123 -270h-125l106 295h142v-25z" />
    <glyph glyph-name="scommaaccent" unicode="&#x219;" horiz-adv-x="940" 
d="M467 1114q177 0 279 -91.5t120 -246.5h-184q-19 97 -77 150t-152 53q-89 0 -135 -44t-46 -118q0 -76 57.5 -116.5t180.5 -73.5q192 -51 280.5 -132t88.5 -216q0 -148 -112.5 -228t-291.5 -80q-176 0 -289 85.5t-137 262.5h184q39 -213 254 -213q92 0 151.5 41.5
t59.5 116.5q0 77 -59 124.5t-197 84.5q-80 22 -138 47t-109 63t-77 91.5t-26 122.5q0 147 102.5 232t272.5 85zM569 -104v-25l-123 -270h-124l106 295h141z" />
    <glyph glyph-name="uni021A" unicode="&#x21a;" horiz-adv-x="1253" 
d="M1253 1413v-143h-503v-1270h-177v1270h-503v143h1183zM610 -104h142v-25l-123 -270h-125z" />
    <glyph glyph-name="uni021B" unicode="&#x21b;" horiz-adv-x="641" 
d="M362 942v-625q0 -41 3 -84q6 -77 45 -99.5t143 -10.5v-129q-64 -10 -150 -10q-103 0 -155.5 45t-59.5 145q-2 29 -2 135v633h-145v135h145v252h176v-252h203v-135h-203zM293 -104h141v-25l-123 -270h-125z" />
    <glyph glyph-name="circumflex" unicode="&#x2c6;" horiz-adv-x="614" 
d="M375 1188l-68 129l-67 -129h-129l137 225h121l137 -225h-131z" />
    <glyph glyph-name="caron" unicode="&#x2c7;" horiz-adv-x="614" 
d="M506 1413l-137 -225h-121l-137 225h131l67 -129l68 129h129z" />
    <glyph glyph-name="breve" unicode="&#x2d8;" horiz-adv-x="614" 
d="M408 1413h108q0 -129 -50.5 -191.5t-158.5 -62.5q-109 0 -159 62.5t-50 191.5h109q3 -141 100 -141q98 0 101 141z" />
    <glyph glyph-name="dotaccent" unicode="&#x2d9;" horiz-adv-x="614" 
d="M307 1442q47 0 80 -33t33 -80t-33 -79.5t-80 -32.5t-79.5 32.5t-32.5 79.5t32.5 80t79.5 33z" />
    <glyph glyph-name="ring" unicode="&#x2da;" horiz-adv-x="614" 
d="M307 1501q82 0 134.5 -48.5t52.5 -123.5t-52.5 -123.5t-134.5 -48.5t-134 48.5t-52 123.5t52 123.5t134 48.5zM307 1427q-37 0 -60.5 -26.5t-23.5 -71.5t23.5 -71.5t60.5 -26.5t60.5 26.5t23.5 71.5t-23.5 71.5t-60.5 26.5z" />
    <glyph glyph-name="ogonek" unicode="&#x2db;" horiz-adv-x="614" 
d="M307 23l129 -23q-80 -14 -136 -82t-56 -162q0 -55 22 -78.5t68 -23.5q63 0 115 41v-101q-74 -51 -183 -51q-190 0 -190 174q0 110 66 189.5t165 116.5z" />
    <glyph glyph-name="tilde" unicode="&#x2dc;" horiz-adv-x="614" 
d="M197 1374q48 0 127 -26q70 -23 90 -23q32 0 32 41h78q0 -82 -26.5 -113.5t-79.5 -31.5q-48 0 -127 26q-70 23 -90 23q-33 0 -33 -41h-78q0 82 27 113.5t80 31.5z" />
    <glyph glyph-name="hungarumlaut" unicode="&#x2dd;" horiz-adv-x="614" 
d="M238 1188h-115l125 225h164zM487 1188h-114l125 225h164z" />
    <glyph glyph-name="uni0326" unicode="&#x326;" horiz-adv-x="0" 
d="M397 -129l-123 -270h-124l106 295h141v-25z" />
    <glyph glyph-name="Wgrave" unicode="&#x1e80;" horiz-adv-x="1949" 
d="M948 1507l-160 193h164l111 -193h-115zM1935 1413l-393 -1413h-231l-320 1219l-332 -1219h-233l-373 1413h201l297 -1255l328 1235h237l320 -1237l313 1257h186z" />
    <glyph glyph-name="wgrave" unicode="&#x1e81;" horiz-adv-x="1607" 
d="M754 1188l-174 225h163l125 -225h-114zM1595 1085l-346 -1085h-209l-241 913l-242 -913h-209l-346 1085h203l252 -917l237 917h219l242 -911l252 911h188z" />
    <glyph glyph-name="Wacute" unicode="&#x1e82;" horiz-adv-x="1949" 
d="M1044 1507h-114l110 193h164zM1935 1413l-393 -1413h-231l-320 1219l-332 -1219h-233l-373 1413h201l297 -1255l328 1235h237l320 -1237l313 1257h186z" />
    <glyph glyph-name="wacute" unicode="&#x1e83;" horiz-adv-x="1607" 
d="M848 1188h-115l125 225h164zM1595 1085l-346 -1085h-209l-241 913l-242 -913h-209l-346 1085h203l252 -917l237 917h219l242 -911l252 911h188z" />
    <glyph glyph-name="Wdieresis" unicode="&#x1e84;" horiz-adv-x="1949" 
d="M854 1509q-38 0 -66 28.5t-28 66.5t28 66t66 28t66 -28t28 -66t-28 -66.5t-66 -28.5zM1141 1509q-38 0 -66 28.5t-28 66.5t28 66t66 28t66 -28t28 -66t-28 -66.5t-66 -28.5zM1935 1413l-393 -1413h-231l-320 1219l-332 -1219h-233l-373 1413h201l297 -1255l328 1235h237
l320 -1237l313 1257h186z" />
    <glyph glyph-name="wdieresis" unicode="&#x1e85;" horiz-adv-x="1607" 
d="M653 1194q-38 0 -66 28t-28 66t28 66t66 28t66.5 -28t28.5 -66t-28.5 -66t-66.5 -28zM952 1194q-38 0 -66 28t-28 66t28 66t66 28t66.5 -28t28.5 -66t-28.5 -66t-66.5 -28zM1595 1085l-346 -1085h-209l-241 913l-242 -913h-209l-346 1085h203l252 -917l237 917h219
l242 -911l252 911h188z" />
    <glyph glyph-name="Ygrave" unicode="&#x1ef2;" horiz-adv-x="1189" 
d="M578 1507l-160 193h164l110 -193h-114zM715 557v-557h-176v557l-500 856h203l393 -686l381 686h198z" />
    <glyph glyph-name="ygrave" unicode="&#x1ef3;" horiz-adv-x="1050" 
d="M477 1188l-174 225h164l125 -225h-115zM1038 1085l-446 -1177q-67 -173 -158.5 -255.5t-222.5 -82.5q-63 0 -90 4v143q27 -2 63 -2q84 0 140 43.5t96 147.5l14 39l-432 1140h199l323 -954l322 954h192z" />
    <glyph glyph-name="endash" unicode="&#x2013;" horiz-adv-x="1024" 
d="M881 541h-738v114h738v-114z" />
    <glyph glyph-name="emdash" unicode="&#x2014;" horiz-adv-x="2048" 
d="M1905 541h-1762v114h1762v-114z" />
    <glyph glyph-name="quoteleft" unicode="&#x2018;" horiz-adv-x="505" 
d="M111 1014l192 491h158l-160 -512h-190v21z" />
    <glyph glyph-name="quoteright" unicode="&#x2019;" horiz-adv-x="505" 
d="M395 1485l-192 -492h-158l160 512h190v-20z" />
    <glyph glyph-name="quotesinglbase" unicode="&#x201a;" horiz-adv-x="450" 
d="M287 184l-185 -430h-165l159 451h191v-21z" />
    <glyph glyph-name="quotedblleft" unicode="&#x201c;" horiz-adv-x="854" 
d="M111 1014l192 491h158l-160 -512h-190v21zM459 1014l192 491h158l-160 -512h-190v21z" />
    <glyph glyph-name="quotedblright" unicode="&#x201d;" horiz-adv-x="854" 
d="M395 1485l-192 -492h-158l160 512h190v-20zM743 1485l-192 -492h-158l160 512h190v-20z" />
    <glyph glyph-name="quotedblbase" unicode="&#x201e;" horiz-adv-x="798" 
d="M287 184l-185 -430h-165l159 451h191v-21zM635 184l-184 -430h-166l159 451h191v-21z" />
    <glyph glyph-name="dagger" unicode="&#x2020;" horiz-adv-x="1126" 
d="M1012 766l-369 16l25 -1110h-209l24 1110l-368 -16v160l368 -17l-24 504h209l-25 -504l369 17v-160z" />
    <glyph glyph-name="daggerdbl" unicode="&#x2021;" horiz-adv-x="1126" 
d="M643 782v-479l369 16v-159l-369 16l25 -504h-209l24 504l-368 -16v159l368 -16v479l-368 -16v160l368 -17l-24 504h209l-25 -504l369 17v-160z" />
    <glyph glyph-name="bullet" unicode="&#x2022;" horiz-adv-x="745" 
d="M373 838q91 0 152 -61t61 -152t-61 -152t-152 -61t-152 61t-61 152t61 152t152 61z" />
    <glyph glyph-name="ellipsis" unicode="&#x2026;" horiz-adv-x="1269" 
d="M207 233q57 0 94 -37t37 -94t-37 -94t-94 -37t-94 37t-37 94t37 94t94 37zM616 233q57 0 94.5 -37t37.5 -94t-37.5 -94t-94.5 -37t-94 37t-37 94t37 94t94 37zM1026 233q57 0 94 -37t37 -94t-37 -94t-94 -37t-94 37t-37 94t37 94t94 37z" />
    <glyph glyph-name="perthousand" unicode="&#x2030;" horiz-adv-x="2205" 
d="M690 1108q0 -149 -82.5 -237.5t-220.5 -88.5t-220.5 88.5t-82.5 237.5q0 150 82 238t221 88t221 -88t82 -238zM1307 1413l-918 -1413h-178l917 1413h179zM256 1108q0 -96 35.5 -149.5t95.5 -53.5t95.5 53.5t35.5 149.5q0 98 -35.5 150.5t-95.5 52.5t-95.5 -52.5
t-35.5 -150.5zM1128 623q139 0 221.5 -88t82.5 -238q0 -149 -83 -237.5t-221 -88.5t-220.5 88.5t-82.5 237.5q0 150 82 238t221 88zM1819 623q139 0 221 -88t82 -238q0 -149 -82.5 -237.5t-220.5 -88.5t-220.5 88.5t-82.5 237.5q0 150 82 238t221 88zM1128 94q60 0 96 53.5
t36 149.5q0 97 -36 150t-96 53t-95.5 -52.5t-35.5 -150.5q0 -96 35.5 -149.5t95.5 -53.5zM1819 94q60 0 95.5 53.5t35.5 149.5q0 98 -35.5 150.5t-95.5 52.5t-95.5 -52.5t-35.5 -150.5q0 -96 35.5 -149.5t95.5 -53.5z" />
    <glyph glyph-name="guilsinglleft" unicode="&#x2039;" horiz-adv-x="792" 
d="M676 848l-281 -340l281 -340h-150l-280 340l280 340h150z" />
    <glyph glyph-name="guilsinglright" unicode="&#x203a;" horiz-adv-x="792" 
d="M547 508l-281 -340h-149l280 340l-280 340h149z" />
    <glyph glyph-name="fraction" unicode="&#x2044;" horiz-adv-x="481" 
d="M-129 0h-178l917 1413h178z" />
    <glyph glyph-name="Euro" unicode="&#x20ac;" 
d="M952 532h-549q27 -219 128 -320t274 -101q172 0 301 82v-146q-133 -76 -311 -76q-130 0 -228 29t-175.5 93t-124 173.5t-62.5 265.5h-144l21 115h115v53q0 40 2 58h-101l21 114h88q39 285 198.5 427.5t409.5 142.5q225 0 334 -127l-86 -117q-45 51 -111 78t-141 27
q-165 0 -272.5 -102.5t-135.5 -328.5h607l-23 -114h-594v-49q0 -42 2 -62h576z" />
    <glyph glyph-name="trademark" unicode="&#x2122;" horiz-adv-x="1103" 
d="M446 1352v-84h-151v-334h-102v334h-152v84h405zM975 1350v-416h-103l5 291l-89 -283h-106l-86 281l2 -289h-102v416h153l88 -318l88 318h150z" />
    <glyph glyph-name="partialdiff" unicode="&#x2202;" 
d="M535 1552q125 0 222 -46.5t157.5 -123.5t99.5 -187t54 -225t15 -249q0 -162 -26 -290t-71.5 -213.5t-112 -141.5t-144 -80.5t-170.5 -24.5q-94 0 -178 33t-149.5 95.5t-103.5 161.5t-38 222q0 105 31 198t91 167t157.5 117t220.5 43q98 0 176 -37.5t121 -104.5
q-37 551 -361 551q-100 0 -166.5 -25.5t-138.5 -86.5l-78 108q88 74 179.5 106.5t212.5 32.5zM575 106q310 0 320 582q-94 184 -299 184q-154 0 -233.5 -103t-79.5 -280q0 -187 82 -285t210 -98z" />
    <glyph glyph-name="emptyset" unicode="&#x2205;" horiz-adv-x="1716" 
d="M1624 1409l-166 -166q88 -106 136 -238.5t48 -277.5q0 -217 -103.5 -400t-284 -290t-396.5 -107q-297 0 -518 195l-164 -164l-84 84l166 166q-88 106 -136 238.5t-48 277.5q0 217 103.5 400t284 290t396.5 107q297 0 518 -195l164 164zM201 727q0 -244 145 -428l942 942
q-185 164 -430 164q-136 0 -258.5 -54t-209.5 -145t-138 -216t-51 -263zM858 49q182 0 333.5 91t238 246.5t86.5 340.5q0 242 -146 428l-942 -942q185 -164 430 -164z" />
    <glyph glyph-name="product" unicode="&#x220f;" 
d="M1124 1270h-125v-1495h-176v1495h-458v-1495h-177v1495h-125v143h1061v-143z" />
    <glyph glyph-name="summation" unicode="&#x2211;" 
d="M1098 -82v-143h-1002v139l563 702l-501 658v139h927v-143h-723l502 -656l-567 -696h801z" />
    <glyph glyph-name="minus" unicode="&#x2212;" 
d="M1024 596h-860v115h860v-115z" />
    <glyph glyph-name="radical" unicode="&#x221a;" 
d="M1124 1597l-438 -1925h-149l-258 848h-138v115h232l237 -803l387 1765h127z" />
    <glyph glyph-name="infinity" unicode="&#x221e;" horiz-adv-x="2019" 
d="M1460 1114q126 0 223.5 -45.5t156.5 -125.5t88.5 -181t29.5 -219t-29.5 -219.5t-88.5 -181.5t-156.5 -125.5t-223.5 -45.5q-150 0 -266.5 82.5t-187.5 247.5q-78 -171 -183.5 -250.5t-263.5 -79.5q-126 0 -223.5 45.5t-156.5 125.5t-88.5 181.5t-29.5 219.5t29.5 219
t88.5 181t156.5 125.5t223.5 45.5q150 0 267 -83t188 -247q78 171 183 250.5t263 79.5zM559 106q127 0 218.5 107t119.5 330q-82 436 -338 436q-134 0 -219.5 -122t-85.5 -314t85.5 -314.5t219.5 -122.5zM1460 106q134 0 219.5 122.5t85.5 314.5t-85.5 314t-219.5 122
q-127 0 -218.5 -106.5t-119.5 -329.5q82 -437 338 -437z" />
    <glyph glyph-name="integral" unicode="&#x222b;" 
d="M694 1544q96 0 160 -45l-31 -110q-53 41 -123 41q-68 0 -110.5 -66.5t-42.5 -187.5q0 -95 19.5 -203.5t86.5 -349.5q63 -227 88 -351.5t25 -220.5q0 -178 -76.5 -278.5t-197.5 -100.5q-96 0 -160 45l30 111q53 -41 123 -41q68 0 111 66.5t43 187.5q0 94 -20 202.5
t-87 350.5q-63 225 -87.5 349.5t-24.5 221.5q0 178 76.5 278.5t197.5 100.5z" />
    <glyph glyph-name="approxequal" unicode="&#x2248;" 
d="M381 897q57 0 103 -17.5t137 -66.5q49 -27 74.5 -39t58.5 -22.5t61 -10.5q47 0 81 24t65 77l90 -68q-53 -81 -110.5 -119.5t-137.5 -38.5q-55 0 -101 17.5t-137 66.5q-49 27 -74.5 39t-58.5 22.5t-61 10.5q-46 0 -80.5 -24t-65.5 -76l-90 76q52 79 108.5 114t137.5 35z
M381 569q57 0 103 -17.5t137 -66.5q71 -38 112.5 -54.5t81.5 -16.5q47 0 81 23.5t65 76.5l90 -68q-53 -81 -110.5 -119t-137.5 -38q-55 0 -101 17.5t-137 66.5q-71 38 -112.5 54.5t-81.5 16.5q-46 0 -80.5 -24t-65.5 -76l-90 76q52 79 108.5 114t137.5 35z" />
    <glyph glyph-name="notequal" unicode="&#x2260;" 
d="M750 793l-175 -295h449v-115h-514l-104 -178h-136l105 178h-211v115h276l174 295h-450v114h516l104 178h136l-105 -178h209v-114h-274z" />
    <glyph glyph-name="lessequal" unicode="&#x2264;" 
d="M1044 911l-733 -282l733 -275v-143l-860 350v139l860 351v-140zM184 115h860v-115h-860v115z" />
    <glyph glyph-name="greaterequal" unicode="&#x2265;" 
d="M1004 700v-139l-861 -350v139l734 283l-734 274v144zM143 115h861v-115h-861v115z" />
    <glyph glyph-name="lozenge" unicode="&#x25ca;" horiz-adv-x="1048" 
d="M934 707l-342 -707h-135l-342 707l342 706h135zM799 707l-275 585l-274 -585l274 -586z" />
    </font>
</defs>
</svg>
