<?xml version="1.0" standalone="no"?>
<!DOCTYPE svg PUBLIC "-//W3C//DTD SVG 1.1//EN" "http://www.w3.org/Graphics/SVG/1.1/DTD/svg11.dtd" >
<svg xmlns="http://www.w3.org/2000/svg" xmlns:xlink="http://www.w3.org/1999/xlink" version="1.1">
<metadata>
Created by FontForge 20170731 at Wed Dec 14 12:20:11 2022
 By Aleksey,,,
No Rights Reserved.
</metadata>
<defs>
<font id="Aileron-SemiBold" horiz-adv-x="1230" >
  <font-face 
    font-family="Aileron SemiBold"
    font-weight="600"
    font-stretch="normal"
    units-per-em="2048"
    panose-1="0 0 7 0 0 0 0 0 0 0"
    ascent="1577"
    descent="-471"
    x-height="1079"
    cap-height="1413"
    bbox="-283 -457 2198 1839"
    underline-thickness="102"
    underline-position="-307"
    unicode-range="U+0020-FB02"
  />
<missing-glyph horiz-adv-x="1024" 
d="M0 0v1434h1024v-1434h-1024zM512 809l348 522h-696zM573 717l349 -522v1044zM164 102h696l-348 523zM102 1239v-1044l349 522z" />
    <glyph glyph-name="fi" unicode="fi" horiz-adv-x="1142" 
d="M995 1079v-1079h-223v922h-389v-922h-223v922h-117v157h117v25q0 90 4 127q15 155 126.5 234t340.5 79q77 0 141 -12v-168q-202 15 -286.5 -18.5t-96.5 -126.5q-6 -43 -6 -103v-37h612z" />
    <glyph glyph-name="fl" unicode="fl" horiz-adv-x="1128" 
d="M952 229q4 -51 33 -68t98 -9v-154q-82 -10 -153 -10q-92 0 -144.5 41.5t-56.5 140.5q-2 41 -2 156v1040q-57 14 -137 14q-201 0 -221 -161q-7 -51 -7 -103v-37h224v-157h-224v-922h-223v922h-96v157h96v25q0 86 4 123q32 317 453 317q223 0 354 -45v-1167q0 -70 2 -103z
" />
    <glyph glyph-name=".notdef" horiz-adv-x="1024" 
d="M0 0v1434h1024v-1434h-1024zM512 809l348 522h-696zM573 717l349 -522v1044zM164 102h696l-348 523zM102 1239v-1044l349 522z" />
    <glyph glyph-name=".null" horiz-adv-x="0" 
 />
    <glyph glyph-name="nonmarkingreturn" horiz-adv-x="682" 
 />
    <glyph glyph-name="space" unicode=" " horiz-adv-x="421" 
 />
    <glyph glyph-name="exclam" unicode="!" horiz-adv-x="516" 
d="M352 385h-190l-25 1028h240zM258 260q63 0 103 -41t40 -104t-40 -103.5t-103 -40.5t-104 40.5t-41 103.5t41 104t104 41z" />
    <glyph glyph-name="quotedbl" unicode="&#x22;" horiz-adv-x="731" 
d="M338 971h-168l-23 534h215zM651 971h-168l-24 534h215z" />
    <glyph glyph-name="numbersign" unicode="#" 
d="M877 840l-56 -265h203v-135h-231l-95 -440h-141l94 440h-184l-94 -440h-142l95 440h-183v135h211l56 265h-205v135h233l94 438h142l-94 -438h184l94 438h141l-94 -438h180v-135h-208zM735 840h-184l-55 -265h184z" />
    <glyph glyph-name="dollar" unicode="$" 
d="M1124 375q0 -113 -56.5 -200.5t-152 -137t-219.5 -62.5v-159h-139v157q-203 15 -324 123t-131 293h230q12 -99 70.5 -162t154.5 -82v476q-98 29 -168 63.5t-124.5 83t-81.5 115t-27 153.5q0 174 111.5 278t289.5 124v159h139v-157q186 -18 291.5 -128t126.5 -280h-229
q-23 203 -189 238v-447q232 -73 330 -177t98 -271zM381 1065q0 -88 42 -137.5t134 -79.5v422q-83 -14 -129.5 -66.5t-46.5 -138.5zM696 592v-449q94 12 146.5 64.5t52.5 146.5q0 83 -45 141.5t-154 96.5z" />
    <glyph glyph-name="percent" unicode="%" horiz-adv-x="1538" 
d="M389 1436q142 0 225.5 -88.5t83.5 -241.5t-83.5 -242.5t-225.5 -89.5q-143 0 -226 89t-83 243q0 153 83 241.5t226 88.5zM412 0h-197l918 1413h196zM389 1300q-59 0 -92 -50t-33 -144q0 -95 33 -146t92 -51q58 0 91.5 51.5t33.5 145.5t-33.5 144t-91.5 50zM1149 633
q143 0 226 -88.5t83 -241.5q0 -154 -83 -243t-226 -89q-142 0 -225.5 89.5t-83.5 242.5t83.5 241.5t225.5 88.5zM1149 498q-58 0 -91.5 -50.5t-33.5 -144.5t33.5 -145.5t91.5 -51.5q59 0 92 51t33 146q0 94 -33 144.5t-92 50.5z" />
    <glyph glyph-name="ampersand" unicode="&#x26;" horiz-adv-x="1357" 
d="M1311 807v-180h-195v-609q-206 -47 -430 -47q-130 0 -228.5 18.5t-176.5 61.5t-119 119.5t-41 185.5q0 136 89 235t241 130q-120 32 -192.5 115t-72.5 202q0 184 140.5 294t371.5 110q128 0 236 -21v-172q-110 21 -238 21q-127 0 -196.5 -61t-69.5 -169q0 -220 236 -231
q37 -2 125 -2h100v211h225v-211h195zM365 389q0 -134 77.5 -190t247.5 -56q99 0 201 17v467h-109q-79 0 -120 -2q-150 -13 -223.5 -76t-73.5 -160z" />
    <glyph glyph-name="quotesingle" unicode="'" horiz-adv-x="382" 
d="M272 971h-168l-22 534h215z" />
    <glyph glyph-name="parenleft" unicode="(" horiz-adv-x="690" 
d="M481 1597h133q-249 -402 -249 -880q0 -479 249 -881h-133q-127 171 -196.5 400t-69.5 481q0 253 69.5 480.5t196.5 399.5z" />
    <glyph glyph-name="parenright" unicode=")" horiz-adv-x="688" 
d="M66 1597h133q127 -172 196.5 -399.5t69.5 -480.5q0 -252 -69.5 -481t-196.5 -400h-133q249 402 249 881q0 478 -249 880z" />
    <glyph glyph-name="asterisk" unicode="*" horiz-adv-x="1183" 
d="M647 625l301 120l47 -147l-313 -78l225 -268l-125 -92l-190 299l-191 -299l-125 92l226 268l-314 78l48 147l301 -120l-23 348h156z" />
    <glyph glyph-name="plus" unicode="+" 
d="M1053 582h-367v-412h-141v412h-367v131h367v415h141v-415h367v-131z" />
    <glyph glyph-name="comma" unicode="," horiz-adv-x="475" 
d="M328 221l-193 -469h-196l161 490h228v-21z" />
    <glyph glyph-name="hyphen" unicode="-" horiz-adv-x="581" 
d="M516 512h-450v135h450v-135z" />
    <glyph glyph-name="period" unicode="." horiz-adv-x="475" 
d="M227 270q65 0 107.5 -41.5t42.5 -107.5q0 -65 -42.5 -107.5t-107.5 -42.5q-66 0 -107.5 42.5t-41.5 107.5q0 66 41.5 107.5t107.5 41.5z" />
    <glyph glyph-name="slash" unicode="/" horiz-adv-x="643" 
d="M139 -61h-149l514 1536h149z" />
    <glyph glyph-name="zero" unicode="0" 
d="M614 1442q529 0 529 -735q0 -736 -529 -736q-115 0 -205.5 36t-150.5 100.5t-99 158t-56 202t-17 239.5q0 735 528 735zM614 143q149 0 217 142.5t68 421.5q0 282 -68 422.5t-217 140.5q-148 0 -216 -141t-68 -422q0 -279 68.5 -421.5t215.5 -142.5z" />
    <glyph glyph-name="one" unicode="1" 
d="M885 1413v-1413h-226v1178l-399 -230v221l311 191q90 53 189 53h125z" />
    <glyph glyph-name="two" unicode="2" 
d="M459 180h649v-180h-985v115l493 497q141 140 198.5 228.5t57.5 185.5q0 108 -60 177t-171 69q-232 0 -260 -289l-2 -20h-225l2 20q22 224 153.5 342.5t356.5 118.5q216 0 333 -111t117 -286q0 -134 -75.5 -252t-270.5 -308z" />
    <glyph glyph-name="three" unicode="3" 
d="M842 750q138 -34 213 -123.5t75 -227.5q0 -129 -70.5 -227.5t-190 -149.5t-267.5 -51q-224 0 -357.5 108t-156.5 327l-2 20h225l2 -20q15 -127 95.5 -195t203.5 -68t199 66.5t76 179.5q0 241 -309 244h-41v166l41 2q123 2 199.5 69t76.5 183q0 97 -61.5 157t-163.5 60
q-106 0 -176 -66.5t-82 -185.5l-2 -21h-224l2 21q19 194 150.5 309t355.5 115q208 0 326.5 -101t118.5 -262q0 -122 -67.5 -208.5t-188.5 -120.5z" />
    <glyph glyph-name="four" unicode="4" 
d="M1163 346h-178v-346h-223v346h-692v117l684 950h231v-887h178v-180zM762 526v613q-63 -108 -107 -166l-321 -447h428z" />
    <glyph glyph-name="five" unicode="5" 
d="M666 940q225 0 348 -131t123 -346q0 -114 -43.5 -209t-116 -156t-166 -94t-195.5 -33q-224 0 -349.5 103t-147.5 307l-2 20h225l2 -20q48 -238 266 -238q131 0 207 83t76 227t-74 229.5t-203 85.5q-93 0 -157 -43t-109 -139h-211l101 827h837v-178h-655l-57 -449l79 97
q96 57 222 57z" />
    <glyph glyph-name="six" unicode="6" 
d="M664 952q220 0 343 -131t123 -340q0 -153 -69.5 -270t-186.5 -178.5t-262 -61.5q-518 0 -518 678q0 200 44 354.5t121.5 249t178 142t219.5 47.5q194 0 315.5 -104.5t141.5 -282.5l2 -21h-233l-4 21q-50 215 -238 215q-290 0 -309 -531l76 127q104 86 256 86zM612 143
q122 0 198.5 87.5t76.5 224.5q0 145 -69.5 235t-207.5 90q-113 0 -189.5 -84.5t-76.5 -236.5q0 -137 73.5 -226.5t194.5 -89.5z" />
    <glyph glyph-name="seven" unicode="7" 
d="M1143 1413v-113l-692 -1300h-242l665 1235h-768v178h1037z" />
    <glyph glyph-name="eight" unicode="8" 
d="M866 748q117 -37 194 -131t77 -220q0 -112 -43.5 -196.5t-118.5 -134t-165.5 -73.5t-195.5 -24q-112 0 -204 24t-164 73.5t-112 133.5t-40 197q0 126 80 220t199 131q-98 37 -156.5 116t-58.5 193q0 176 127 280.5t344 104.5q218 0 344.5 -104.5t126.5 -280.5
q0 -114 -65 -193.5t-169 -115.5zM629 1270q-112 0 -174 -62t-62 -159q0 -103 61 -165.5t173 -62.5q113 0 175 62.5t62 165.5q0 98 -61 159.5t-174 61.5zM618 141q136 0 205.5 68.5t69.5 185.5q0 111 -69.5 182.5t-207.5 71.5q-136 0 -208 -71.5t-72 -182.5q0 -116 73 -185
t209 -69z" />
    <glyph glyph-name="nine" unicode="9" 
d="M616 1442q256 0 388.5 -164.5t132.5 -513.5q0 -200 -44 -354.5t-122 -249t-178.5 -142t-219.5 -47.5q-195 0 -317 104.5t-139 284.5l-2 21h233l4 -21q46 -217 238 -217q289 0 309 531l-76 -127q-107 -86 -256 -86q-220 0 -343.5 131t-123.5 340q0 153 69 270t185.5 178.5
t261.5 61.5zM618 633q115 0 192 84.5t77 236.5q0 137 -74.5 226.5t-194.5 89.5q-122 0 -198 -87.5t-76 -224.5q0 -144 69 -234.5t205 -90.5z" />
    <glyph glyph-name="colon" unicode=":" horiz-adv-x="475" 
d="M227 1116q65 0 107.5 -41.5t42.5 -107.5q0 -65 -42.5 -107.5t-107.5 -42.5q-66 0 -107.5 42.5t-41.5 107.5q0 66 41.5 107.5t107.5 41.5zM227 270q65 0 107.5 -41.5t42.5 -107.5q0 -65 -42.5 -107.5t-107.5 -42.5q-66 0 -107.5 42.5t-41.5 107.5q0 66 41.5 107.5
t107.5 41.5z" />
    <glyph glyph-name="semicolon" unicode=";" horiz-adv-x="475" 
d="M227 1116q65 0 107.5 -41.5t42.5 -107.5q0 -65 -42.5 -107.5t-107.5 -42.5q-66 0 -107.5 42.5t-41.5 107.5q0 66 41.5 107.5t107.5 41.5zM330 229l-195 -477h-196l161 506h230v-29z" />
    <glyph glyph-name="less" unicode="&#x3c;" 
d="M1071 864l-713 -319l713 -320v-168l-858 400v174l858 399v-166z" />
    <glyph glyph-name="equal" unicode="=" 
d="M1063 786h-895v132h895v-132zM1063 377h-895v131h895v-131z" />
    <glyph glyph-name="greater" unicode="&#x3e;" 
d="M997 631v-174l-856 -400v164l711 320l-711 319v170z" />
    <glyph glyph-name="question" unicode="?" horiz-adv-x="1069" 
d="M551 1442q209 0 326.5 -104.5t117.5 -274.5q0 -110 -51.5 -205.5t-163.5 -202.5q-90 -87 -121.5 -140.5t-37.5 -129.5h-207q7 97 40.5 166.5t114.5 161.5q105 118 144 189.5t39 152.5q0 99 -55.5 157t-155.5 58q-106 0 -169.5 -68.5t-72.5 -200.5h-229q6 202 137 321.5
t344 119.5zM518 260q63 0 104.5 -41t41.5 -104t-41.5 -103.5t-104.5 -40.5t-103 40.5t-40 103.5t40 104t103 41z" />
    <glyph glyph-name="at" unicode="@" horiz-adv-x="1785" 
d="M1333 956l-112 -473q-17 -69 -17 -106q0 -88 80 -88q96 0 166 102.5t70 288.5q0 135 -42 243t-116.5 176.5t-173.5 105t-215 36.5q-132 0 -259 -50t-229.5 -140.5t-165.5 -232t-63 -310.5q0 -191 77 -327.5t209 -203.5t304 -67q130 0 263 40t237 116l55 -119
q-263 -176 -567 -176q-141 0 -268.5 44.5t-231.5 131t-166 230t-62 325.5q0 158 47.5 298t130.5 244.5t193.5 181t239 115.5t262.5 39q206 0 364 -90t242 -247t84 -355q0 -138 -37.5 -244.5t-100.5 -169t-138.5 -93.5t-159.5 -31q-197 0 -232 163l-47 -96q-95 -76 -198 -76
q-54 0 -102.5 17t-91 54t-68 104.5t-25.5 158.5q0 137 53.5 255t153.5 190.5t223 72.5q119 0 174 -61l21 -107l39 131h200zM1016 512l22 96q26 114 -6 167.5t-102 53.5q-103 0 -167.5 -101t-64.5 -239q0 -184 121 -184q70 0 123.5 61t73.5 146z" />
    <glyph glyph-name="A" unicode="A" horiz-adv-x="1343" 
d="M942 467h-502l-153 -467h-240l508 1413h291l493 -1413h-243zM500 645h383l-187 582z" />
    <glyph glyph-name="B" unicode="B" horiz-adv-x="1312" 
d="M956 756q283 -69 283 -338q0 -93 -32 -168t-86.5 -123t-119 -77t-137.5 -40q-70 -10 -188 -10h-481v1413h456q115 0 185 -8q170 -23 261 -112t91 -236q0 -223 -232 -301zM420 1235v-418h246q57 0 106 8q178 28 178 207q0 90 -51.5 139t-140.5 58q-49 6 -107 6h-231z
M795 182q91 8 148.5 67.5t57.5 158.5q0 205 -208 229q-41 6 -107 6h-266v-463h278q70 0 97 2z" />
    <glyph glyph-name="C" unicode="C" horiz-adv-x="1449" 
d="M776 1442q267 0 417 -132.5t173 -351.5l2 -20h-223l-4 20q-30 148 -122 230t-247 82q-195 0 -311.5 -153.5t-116.5 -405.5q0 -261 114.5 -414.5t303.5 -153.5q154 0 245.5 83.5t122.5 232.5l5 20h223l-2 -20q-23 -216 -180 -352t-424 -136q-198 0 -347 92.5t-227 257.5
t-78 379q0 164 50 303t139 235t214.5 150t272.5 54z" />
    <glyph glyph-name="D" unicode="D" horiz-adv-x="1472" 
d="M831 1405q125 -15 227.5 -63.5t180 -131t120 -206.5t42.5 -281q0 -155 -44 -283.5t-122 -217.5t-183 -144t-229 -70q-72 -8 -180 -8h-448v1413h456q108 0 180 -8zM784 188q173 25 274 164.5t101 370.5q0 219 -97 348t-269 154q-56 10 -162 10h-211v-1055h203q116 0 161 8
z" />
    <glyph glyph-name="E" unicode="E" horiz-adv-x="1228" 
d="M1171 180v-180h-976v1413h956v-178h-731v-438h674v-179h-674v-438h751z" />
    <glyph glyph-name="F" unicode="F" horiz-adv-x="1185" 
d="M420 1235v-438h653v-179h-653v-618h-225v1413h956v-178h-731z" />
    <glyph glyph-name="G" unicode="G" horiz-adv-x="1478" 
d="M823 700h535v-700h-189l-8 240l-63 -138q-122 -131 -357 -131q-198 0 -344 92.5t-221.5 257t-75.5 379.5q0 164 50.5 303t140 235t216 150t273.5 54q268 0 418.5 -132.5t173.5 -351.5l2 -20h-225l-4 20q-29 148 -121 230t-248 82q-196 0 -314 -154t-118 -405
q0 -261 116 -414.5t306 -153.5q157 0 260.5 103.5t112.5 273.5h-316v180z" />
    <glyph glyph-name="H" unicode="H" horiz-adv-x="1515" 
d="M1368 1413v-1413h-223v602h-725v-602h-225v1413h225v-629h725v629h223z" />
    <glyph glyph-name="I" unicode="I" horiz-adv-x="567" 
d="M420 0h-225v1413h225v-1413z" />
    <glyph glyph-name="J" unicode="J" horiz-adv-x="1163" 
d="M1051 1413v-854q0 -89 -7 -182q-11 -188 -130 -297t-347 -109q-216 0 -333 118.5t-123 328.5l-2 78h225l4 -78q14 -275 250 -275q110 0 168 64.5t67 183.5q2 43 2 158v864h226z" />
    <glyph glyph-name="K" unicode="K" horiz-adv-x="1316" 
d="M709 729l602 -729h-301l-465 590l-125 -135v-455h-225v1413h225v-719l657 719h266z" />
    <glyph glyph-name="L" unicode="L" horiz-adv-x="1204" 
d="M1171 186v-186h-976v1413h225v-1227h751z" />
    <glyph glyph-name="M" unicode="M" horiz-adv-x="1802" 
d="M1655 1413v-1413h-223v694q0 356 4 506q-61 -224 -154 -504l-227 -696h-260l-230 698q-98 303 -149 500q4 -152 4 -504v-694h-225v1413h362l373 -1212l373 1212h352z" />
    <glyph glyph-name="N" unicode="N" horiz-adv-x="1509" 
d="M1362 0h-324l-626 1165q8 -216 8 -489v-676h-225v1413h317l633 -1173q-6 240 -6 493v680h221z" />
    <glyph glyph-name="O" unicode="O" horiz-adv-x="1536" 
d="M782 1442q212 0 367 -92.5t234 -258t79 -384.5t-79 -384t-234 -258.5t-367 -93.5q-213 0 -368.5 93.5t-234.5 258.5t-79 384q0 164 46 299.5t132 232t215 150t289 53.5zM782 143q205 0 322 150.5t117 413.5q0 264 -116.5 413.5t-322.5 149.5q-207 0 -323.5 -149.5
t-116.5 -413.5q0 -263 117 -413.5t323 -150.5z" />
    <glyph glyph-name="P" unicode="P" horiz-adv-x="1249" 
d="M850 1405q171 -22 272 -130t101 -290q0 -91 -29.5 -167t-80.5 -127.5t-118 -83.5t-145 -42q-66 -8 -193 -8h-237v-557h-225v1413h462q127 0 193 -8zM807 748q80 15 129 73t49 164t-49 164.5t-129 73.5q-49 8 -143 8h-244v-492h244q88 0 143 9z" />
    <glyph glyph-name="Q" unicode="Q" horiz-adv-x="1531" 
d="M1219 178q125 -22 258 -133l-121 -149q-98 64 -157.5 86t-121.5 22q-63 0 -149 -18q-68 -15 -146 -15q-213 0 -368.5 93.5t-234.5 258.5t-79 384q0 164 46 299.5t132 232t215 150t289 53.5q212 0 367 -92.5t234 -258t79 -384.5q0 -167 -62.5 -304.5t-180.5 -224.5z
M342 707q0 -263 117 -413.5t323 -150.5q205 0 322 150.5t117 413.5q0 264 -116.5 413.5t-322.5 149.5q-207 0 -323.5 -149.5t-116.5 -413.5z" />
    <glyph glyph-name="R" unicode="R" horiz-adv-x="1300" 
d="M1167 365q12 -137 34.5 -222.5t64.5 -142.5h-248q-50 125 -72 336q-14 118 -62 182t-141 70q-35 2 -104 2h-219v-590h-225v1413h487q127 0 195 -8q165 -22 261.5 -113.5t96.5 -263.5q0 -132 -71.5 -217t-190.5 -121q170 -74 194 -325zM420 764h235q92 0 127 4
q98 10 156.5 67t58.5 164q0 108 -50 161.5t-146 66.5q-49 8 -131 8h-250v-471z" />
    <glyph glyph-name="S" unicode="S" horiz-adv-x="1218" 
d="M647 1442q225 0 349 -117.5t147 -312.5h-234q-12 123 -82 190.5t-192 67.5q-105 0 -171.5 -49.5t-66.5 -145.5q0 -102 68.5 -157.5t234.5 -94.5q236 -55 347.5 -160t111.5 -280q0 -124 -68.5 -219t-182 -144t-251.5 -49q-245 0 -391 113.5t-168 325.5h234
q27 -129 113 -198t212 -69q113 0 189 57.5t76 151.5q0 110 -72 173.5t-244 103.5q-107 25 -184 56.5t-138.5 79t-92.5 115.5t-31 158q0 121 67 214.5t177 141.5t243 48z" />
    <glyph glyph-name="T" unicode="T" horiz-adv-x="1263" 
d="M1270 1235h-494v-1235h-223v1235h-494v178h1211v-178z" />
    <glyph glyph-name="U" unicode="U" horiz-adv-x="1415" 
d="M1288 1413v-866q0 -93 -4 -146q-8 -91 -43.5 -167t-100.5 -136t-169 -93.5t-238 -33.5t-238 33.5t-169 93.5t-100 136t-42 167q-4 53 -4 146v866h223v-870q0 -74 5 -115q11 -132 94 -208.5t231 -76.5q150 0 233.5 76.5t94.5 208.5q4 33 4 115v870h223z" />
    <glyph glyph-name="V" unicode="V" horiz-adv-x="1335" 
d="M850 0h-291l-493 1413h243l400 -1241l409 1241h240z" />
    <glyph glyph-name="W" unicode="W" horiz-adv-x="1982" 
d="M1978 1413l-385 -1413h-297l-282 1204l-297 -1204h-299l-365 1413h248l270 -1227l293 1207h310l284 -1213l287 1233h233z" />
    <glyph glyph-name="X" unicode="X" horiz-adv-x="1327" 
d="M1063 0l-385 571l-369 -571h-264l506 713l-469 700h258l348 -553l363 553h258l-492 -694l508 -719h-262z" />
    <glyph glyph-name="Y" unicode="Y" horiz-adv-x="1232" 
d="M760 553v-553h-223v553l-500 860h256l364 -653l353 653h250z" />
    <glyph glyph-name="Z" unicode="Z" horiz-adv-x="1239" 
d="M1190 180v-180h-1092v172l820 1063h-762v178h1024v-176l-813 -1057h823z" />
    <glyph glyph-name="bracketleft" unicode="[" horiz-adv-x="681" 
d="M596 1597v-135h-250v-1491h250v-135h-389v1761h389z" />
    <glyph glyph-name="backslash" unicode="\" horiz-adv-x="643" 
d="M653 -61h-149l-514 1536h149z" />
    <glyph glyph-name="bracketright" unicode="]" horiz-adv-x="663" 
d="M457 -164h-389v135h249v1491h-249v135h389v-1761z" />
    <glyph glyph-name="asciicircum" unicode="^" 
d="M891 440l-275 686l-276 -686h-164l356 822h164l357 -822h-162z" />
    <glyph glyph-name="underscore" unicode="_" horiz-adv-x="1024" 
d="M922 -178h-820v135h820v-135z" />
    <glyph glyph-name="grave" unicode="`" horiz-adv-x="614" 
d="M391 1184h-135l-209 233h205z" />
    <glyph glyph-name="a" unicode="a" horiz-adv-x="1116" 
d="M768 0l-20 158l-56 -117q-102 -70 -270 -70q-151 0 -250.5 83.5t-99.5 230.5q0 372 604 372h69v27q0 78 -4 119q-10 149 -190 149q-192 0 -211 -209h-225q10 176 130.5 274.5t309.5 98.5q202 0 299 -78.5t111 -224.5q6 -68 6 -154v-383q0 -125 20 -276h-223zM504 135
q108 0 174.5 72t66.5 201v100q-135 10 -230.5 -7t-150.5 -67t-55 -131q0 -84 51.5 -126t143.5 -42z" />
    <glyph glyph-name="b" unicode="b" horiz-adv-x="1282" 
d="M733 1116q152 0 264 -72.5t169 -197t57 -283.5q0 -145 -42.5 -260t-116 -186.5t-167.5 -108.5t-201 -37q-71 0 -144.5 18.5t-113.5 49.5l-71 108v-147h-226v1505h226v-587l82 116q45 38 122.5 60t161.5 22zM670 135q140 0 227.5 106t87.5 302q0 182 -80.5 295.5
t-224.5 113.5q-66 0 -120.5 -21.5t-98.5 -67t-69 -124t-25 -184.5v-55q0 -95 27 -168.5t71.5 -114.5t96.5 -61.5t108 -20.5z" />
    <glyph glyph-name="c" unicode="c" horiz-adv-x="1114" 
d="M586 1116q202 0 328 -111t147 -294h-227q-48 241 -254 241q-125 0 -204 -101t-79 -296q0 -211 76 -315.5t198 -104.5q97 0 163 58t91 167h230q-37 -191 -168 -290t-328 -99q-224 0 -362 144.5t-138 423.5q0 135 42 246t114.5 182.5t167.5 110t203 38.5z" />
    <glyph glyph-name="d" unicode="d" horiz-adv-x="1288" 
d="M1141 1505v-1505h-226v172l-81 -119q-46 -37 -124 -59.5t-161 -22.5q-228 0 -359 155t-131 400q0 144 42.5 258.5t116 186t167.5 108.5t201 37q71 0 144.5 -18t113.5 -49l71 -109v565h226zM600 135q66 0 121 21.5t99.5 67t69.5 124t25 184.5v58q0 95 -27 167.5t-72 113.5
t-97 61t-109 20q-139 0 -226 -105.5t-87 -301.5q0 -182 80 -296t223 -114z" />
    <glyph glyph-name="e" unicode="e" horiz-adv-x="1150" 
d="M1077 571q0 -51 -4 -90h-780q24 -346 285 -346q100 0 169.5 58t86.5 159h227q-34 -186 -169 -283.5t-323 -97.5q-228 0 -369 146t-141 424q0 257 148.5 416t384.5 159q153 0 264.5 -73t166 -194.5t54.5 -277.5zM584 952q-118 0 -194.5 -79.5t-94.5 -233.5h551
q-12 152 -78.5 232.5t-183.5 80.5z" />
    <glyph glyph-name="f" unicode="f" horiz-adv-x="638" 
d="M389 1266q-6 -44 -6 -105v-82h223v-157h-223v-922h-223v922h-117v157h117v70q0 92 4 129q14 128 99 197t237 69q70 0 125 -12v-168q-101 19 -164 -6t-72 -92z" />
    <glyph glyph-name="g" unicode="g" horiz-adv-x="1288" 
d="M1141 1087v-817q0 -152 -2 -211q-9 -244 -152 -369.5t-393 -125.5q-232 0 -358.5 93.5t-143.5 270.5l-2 21h221l2 -19q11 -90 85 -143t198 -53q148 0 229.5 77.5t87.5 223.5q2 47 2 125v22l-81 -119q-46 -37 -121 -59t-158 -22q-230 0 -363 152t-133 396q0 144 42.5 258
t116 184.5t167.5 107t201 36.5q71 0 144.5 -18t113.5 -49l71 -109v147h226zM600 145q139 0 227 96.5t88 301.5v47q0 95 -27 167.5t-72 113.5t-97 61t-109 20q-140 0 -226.5 -103t-86.5 -298q0 -182 80 -294t223 -112z" />
    <glyph glyph-name="h" unicode="h" horiz-adv-x="1241" 
d="M1102 805q6 -83 6 -193v-612h-225v588q0 98 -4 153q-8 98 -64 154t-166 55q-128 -3 -205 -113t-77 -350v-487h-226v1516h226v-609l73 125q62 48 125.5 66t149.5 18q172 0 272 -83t115 -228z" />
    <glyph glyph-name="i" unicode="i" horiz-adv-x="514" 
d="M254 1466q57 0 95 -37t38 -92q0 -57 -38 -94t-95 -37t-94 37t-37 94q0 56 37 92.5t94 36.5zM367 0h-226v1087h226v-1087z" />
    <glyph glyph-name="j" unicode="j" horiz-adv-x="501" 
d="M246 1466q60 0 95.5 -35t35.5 -94q0 -60 -35.5 -95.5t-95.5 -35.5q-61 0 -97 35.5t-36 95.5q0 59 36 94t97 35zM356 1087v-1150q0 -58 -4 -132q-11 -117 -82.5 -176t-220.5 -59q-65 0 -94 4v170q87 -7 127.5 15.5t46.5 78.5q4 29 4 92v1157h223z" />
    <glyph glyph-name="k" unicode="k" horiz-adv-x="1126" 
d="M463 446l-96 -106v-340h-226v1505h226v-942l475 524h276l-495 -509l501 -578h-293z" />
    <glyph glyph-name="l" unicode="l" horiz-adv-x="536" 
d="M358 1505v-1173q0 -70 2 -103q3 -47 30.5 -63t98.5 -10v-158q-75 -10 -147 -10q-96 0 -148.5 41.5t-58.5 140.5q-2 41 -2 156v1179h225z" />
    <glyph glyph-name="m" unicode="m" horiz-adv-x="1808" 
d="M1665 850q10 -69 10 -193v-657h-225v575q0 124 -8 197q-10 87 -62.5 132.5t-140.5 45.5q-219 0 -219 -403v-547h-223v575q0 115 -9 197q-24 178 -202 178q-219 0 -219 -403v-547h-226v1087h226v-161l73 127q80 63 232 63q125 0 207 -56t114 -151l101 144q83 63 231 63
q145 0 232.5 -74t107.5 -192z" />
    <glyph glyph-name="n" unicode="n" horiz-adv-x="1241" 
d="M1102 805q6 -83 6 -193v-612h-225v588q0 98 -4 153q-8 98 -64 153.5t-166 55.5q-127 0 -204.5 -111t-77.5 -352v-487h-226v1087h226v-180l73 125q62 48 125.5 66t149.5 18q172 0 272 -83t115 -228z" />
    <glyph glyph-name="o" unicode="o" horiz-adv-x="1218" 
d="M610 1116q133 0 239.5 -44.5t173.5 -122.5t102.5 -181t35.5 -223t-35.5 -223.5t-102.5 -182t-173.5 -123.5t-239.5 -45q-134 0 -240.5 45t-173.5 123.5t-102 182t-35 223.5t35 223t102 181t173.5 122.5t240.5 44.5zM610 135q146 0 229 111.5t83 298.5t-83 297t-229 110
q-147 0 -230 -110t-83 -297t83 -298.5t230 -111.5z" />
    <glyph glyph-name="p" unicode="p" horiz-adv-x="1282" 
d="M733 1116q152 0 264 -72.5t169 -197t57 -283.5q0 -145 -42.5 -260t-116 -186.5t-167.5 -108.5t-201 -37q-71 0 -144.5 18.5t-113.5 49.5l-71 108v-548h-226v1488h226v-169l82 116q45 38 122.5 60t161.5 22zM670 135q140 0 227.5 106t87.5 302q0 182 -80.5 295.5
t-224.5 113.5q-66 0 -120.5 -21.5t-98.5 -67t-69 -124t-25 -184.5v-55q0 -95 27 -168.5t71.5 -114.5t96.5 -61.5t108 -20.5z" />
    <glyph glyph-name="q" unicode="q" horiz-adv-x="1288" 
d="M1141 1087v-1488h-226v573l-81 -119q-46 -37 -124 -59.5t-161 -22.5q-228 0 -359 155t-131 400q0 144 42.5 258.5t116 186t167.5 108.5t201 37q71 0 144.5 -18t113.5 -49l71 -109v147h226zM600 135q66 0 121 21.5t99.5 67t69.5 124t25 184.5v58q0 95 -27 167.5t-72 113.5
t-97 61t-109 20q-139 0 -226 -105.5t-87 -301.5q0 -182 80 -296t223 -114z" />
    <glyph glyph-name="r" unicode="r" horiz-adv-x="722" 
d="M627 1114q41 0 75 -12v-176q-160 11 -247.5 -77.5t-87.5 -283.5v-565h-226v1087h226v-184l92 150q77 61 168 61z" />
    <glyph glyph-name="s" unicode="s" horiz-adv-x="974" 
d="M492 1116q182 0 288 -92.5t125 -247.5h-229q-18 88 -68.5 135t-132.5 47q-77 0 -117.5 -38.5t-40.5 -102.5q0 -70 56 -109t186 -73q186 -48 274.5 -128t88.5 -220q0 -152 -118.5 -234t-305.5 -82q-189 0 -309 88.5t-142 266.5h227q19 -100 80.5 -147.5t151.5 -47.5
q82 0 135 35.5t53 103.5q0 70 -59 114t-199 81q-80 20 -139 46t-107.5 64t-74 92.5t-25.5 123.5q0 151 109.5 238t292.5 87z" />
    <glyph glyph-name="t" unicode="t" horiz-adv-x="686" 
d="M410 922v-570q0 -61 2 -90q6 -79 45.5 -102.5t150.5 -12.5v-155q-86 -12 -166 -12q-127 0 -186.5 49t-67.5 157q-2 37 -2 146v590h-153v157h153v260h224v-260h213v-157h-213z" />
    <glyph glyph-name="u" unicode="u" horiz-adv-x="1236" 
d="M1090 1087v-1087h-224v186l-75 -135q-63 -44 -126.5 -62t-148.5 -18q-161 0 -261 79t-120 198q-10 69 -10 192v647h223v-602q0 -76 8 -149q12 -92 72 -144.5t162 -52.5q127 0 201.5 105.5t74.5 330.5v512h224z" />
    <glyph glyph-name="v" unicode="v" horiz-adv-x="1101" 
d="M1096 1087l-416 -1087h-262l-416 1087h248l305 -921l301 921h240z" />
    <glyph glyph-name="w" unicode="w" horiz-adv-x="1650" 
d="M1645 1087l-347 -1087h-258l-215 879l-217 -879h-260l-346 1087h254l223 -886l211 884h275l217 -886l223 888h240z" />
    <glyph glyph-name="x" unicode="x" horiz-adv-x="1042" 
d="M641 553l383 -553h-260l-258 410l-258 -410h-258l387 551l-373 536h264l248 -393l246 393h258z" />
    <glyph glyph-name="y" unicode="y" horiz-adv-x="1099" 
d="M1094 1087l-443 -1157q-75 -194 -170 -277t-243 -83q-74 0 -107 6v166q27 -2 72 -2q79 0 132 39t89 131l16 39l-438 1138h252l299 -919l297 919h244z" />
    <glyph glyph-name="z" unicode="z" horiz-adv-x="978" 
d="M920 162v-162h-871v156l613 762h-572v161h821v-161l-608 -756h617z" />
    <glyph glyph-name="braceleft" unicode="{" horiz-adv-x="686" 
d="M600 1462h-31q-84 0 -117.5 -22.5t-33.5 -73.5q0 -44 22 -199q27 -197 27 -241q0 -86 -44.5 -139t-129.5 -68q83 -14 128.5 -68.5t45.5 -142.5q0 -46 -27 -242q-22 -153 -22 -198q0 -51 33.5 -74t117.5 -23h31v-135h-43q-143 0 -210.5 50.5t-67.5 172.5q0 66 24 228
q21 156 21 215q0 66 -38 103t-130 44v135q92 9 130 46.5t38 101.5q0 59 -21 215q-24 162 -24 229q0 121 67.5 171t210.5 50h43v-135z" />
    <glyph glyph-name="bar" unicode="|" horiz-adv-x="544" 
d="M346 -410h-147v2048h147v-2048z" />
    <glyph glyph-name="braceright" unicode="}" horiz-adv-x="686" 
d="M530 784v-135q-92 -7 -130 -44t-38 -103q0 -59 21 -215q25 -169 25 -228q0 -122 -68 -172.5t-211 -50.5h-43v135h31q84 0 117.5 23t33.5 74q0 45 -22 198q-27 197 -27 242q0 88 44.5 140.5t129.5 66.5q-83 13 -128.5 68.5t-45.5 142.5q0 44 27 241q22 155 22 199
q0 51 -33.5 73.5t-117.5 22.5h-31v135h43q143 0 211 -50t68 -171q0 -60 -25 -229q-21 -156 -21 -215q0 -64 38 -101.5t130 -46.5z" />
    <glyph glyph-name="asciitilde" unicode="~" 
d="M932 756h135q0 -299 -238 -299q-39 0 -78.5 11t-69 25t-93.5 48q-71 38 -112.5 54.5t-78.5 16.5q-54 0 -76 -38.5t-22 -116.5h-135q0 299 235 299q58 0 105.5 -18t138.5 -66q72 -39 112.5 -55.5t78.5 -16.5q54 0 76 38t22 118z" />
    <glyph glyph-name="exclamdown" unicode="&#xa1;" horiz-adv-x="516" 
d="M258 825q-63 0 -104 41.5t-41 104.5t41 103t104 40t103 -40t40 -103t-40 -104.5t-103 -41.5zM162 702h190l25 -1030h-240z" />
    <glyph glyph-name="cent" unicode="&#xa2;" horiz-adv-x="1200" 
d="M688 944v-801q74 18 125.5 73t71.5 144h219q-33 -170 -142 -268t-274 -117v-159h-139v157q-200 20 -320 163.5t-120 402.5q0 239 123.5 388.5t316.5 180.5v162h139v-158q180 -15 291.5 -124t130.5 -279h-217q-42 203 -205 235zM336 553q0 -176 58.5 -278t154.5 -130v793
q-96 -28 -154.5 -125.5t-58.5 -259.5z" />
    <glyph glyph-name="sterling" unicode="&#xa3;" 
d="M1104 180v-180h-967v160q115 26 166 97.5t51 168.5q0 103 -45 209h-153v131h94q-60 139 -60 250q0 191 129.5 308.5t327.5 117.5q106 0 190 -31.5t138 -88t84.5 -129.5t36.5 -161h-234q-27 238 -219 238q-100 0 -154.5 -65.5t-54.5 -157.5q0 -72 15 -129t57 -152h430
v-131h-379q31 -85 31 -176q0 -186 -172 -279h688z" />
    <glyph glyph-name="currency" unicode="&#xa4;" 
d="M983 616q0 -114 -65 -208l120 -119l-92 -92l-119 118q-95 -67 -213 -67q-117 0 -211 65l-116 -116l-92 92l116 117q-65 94 -65 210t65 213l-116 117l92 92l119 -118q94 65 208 65q117 0 211 -65l121 118l92 -92l-120 -119q65 -94 65 -211zM614 385q96 0 159 65t63 166
t-63 166.5t-159 65.5q-94 0 -156.5 -65.5t-62.5 -166.5t62.5 -166t156.5 -65z" />
    <glyph glyph-name="yen" unicode="&#xa5;" 
d="M811 743h242v-135h-318l-8 -16v-111h326v-135h-326v-346h-223v346h-326v135h326v107l-10 20h-316v135h240l-371 670h258l318 -661l311 661h248z" />
    <glyph glyph-name="brokenbar" unicode="&#xa6;" horiz-adv-x="536" 
d="M338 717h-139v696h139v-696zM338 -328h-139v697h139v-697z" />
    <glyph glyph-name="section" unicode="&#xa7;" horiz-adv-x="1183" 
d="M1126 498q0 -98 -52.5 -175.5t-141.5 -121.5q74 -90 74 -217q0 -108 -60 -187t-155 -116t-211 -37q-192 0 -312 90t-141 270h227q25 -103 86.5 -153t149.5 -50q81 0 131.5 42.5t50.5 121.5q0 87 -66.5 146t-242.5 104q-402 104 -402 389q0 107 52.5 184.5t144.5 120.5
q-65 81 -65 189q0 157 110 250.5t285 93.5q183 0 289 -92.5t124 -253.5h-227q-17 90 -65.5 139t-124.5 49q-69 0 -113.5 -42.5t-44.5 -115.5q0 -84 62 -138t208 -93q226 -62 328 -154.5t102 -242.5zM295 612q0 -76 70 -133t196 -90q119 -30 209 -74q57 19 90 62t33 98
q0 85 -66 139t-219 101q-115 34 -188 71q-58 -11 -91.5 -55t-33.5 -119z" />
    <glyph glyph-name="dieresis" unicode="&#xa8;" horiz-adv-x="614" 
d="M143 1403q46 0 78.5 -31.5t32.5 -77.5q0 -45 -32.5 -75.5t-78.5 -30.5t-77 30t-31 76t31 77.5t77 31.5zM471 1403q46 0 77.5 -31.5t31.5 -77.5q0 -45 -31.5 -75.5t-77.5 -30.5t-77.5 30.5t-31.5 75.5q0 46 31.5 77.5t77.5 31.5z" />
    <glyph glyph-name="copyright" unicode="&#xa9;" horiz-adv-x="1728" 
d="M864 1532q168 0 316.5 -61.5t255 -168t168 -256.5t61.5 -319t-61.5 -319t-168 -256.5t-255 -168t-316.5 -61.5t-316.5 61.5t-255 168t-168 256.5t-61.5 319t61.5 319t168 256.5t255 168t316.5 61.5zM864 1393q-183 0 -331.5 -87t-233 -239.5t-84.5 -339.5
q0 -188 84.5 -340.5t233 -239t331.5 -86.5q182 0 330.5 86.5t233.5 239t85 340.5q0 140 -50 263.5t-136 212t-206.5 139.5t-256.5 51zM879 1198q171 0 277.5 -93t133.5 -251h-217q-28 188 -199 188q-107 0 -163 -83.5t-56 -229.5q0 -148 60 -232.5t162 -84.5q79 0 131 51
t63 135h217q-34 -160 -140 -251t-288 -91q-192 0 -312 128t-120 341q0 217 123.5 345t327.5 128z" />
    <glyph glyph-name="guillemotleft" unicode="&#xab;" horiz-adv-x="1212" 
d="M719 848l-281 -340l281 -340h-178l-281 340l281 340h178zM1102 848l-281 -340l281 -340h-178l-281 340l281 340h178z" />
    <glyph glyph-name="logicalnot" unicode="&#xac;" 
d="M993 412h-141v247h-637v136h778v-383z" />
    <glyph glyph-name="registered" unicode="&#xae;" horiz-adv-x="1030" 
d="M514 1565q190 0 310 -120.5t120 -309.5t-120 -309.5t-310 -120.5q-189 0 -309.5 120.5t-120.5 309.5t120.5 309.5t309.5 120.5zM514 805q144 0 235 92.5t91 237.5q0 146 -90.5 238.5t-235.5 92.5q-143 0 -234.5 -92.5t-91.5 -238.5q0 -145 91.5 -237.5t234.5 -92.5z
M614 1135q55 -13 62 -93q7 -67 26 -110h-120q-10 40 -15 90q-5 49 -59 49h-43v-139h-107v422h148q37 0 55 -2q137 -13 137 -115q0 -77 -84 -102zM541 1161q41 8 41 53q0 42 -41 52q-12 2 -39 2h-37v-109h37q27 0 39 2z" />
    <glyph glyph-name="macron" unicode="&#xaf;" horiz-adv-x="614" 
d="M569 1229h-522v129h522v-129z" />
    <glyph glyph-name="degree" unicode="&#xb0;" horiz-adv-x="622" 
d="M311 1442q114 0 186 -70t72 -182t-72 -182t-186 -70t-186 70t-72 182t72 182t186 70zM311 1311q-50 0 -82 -33.5t-32 -87.5t32 -87.5t82 -33.5q48 0 81.5 34t33.5 87t-33.5 87t-81.5 34z" />
    <glyph glyph-name="plusminus" unicode="&#xb1;" 
d="M686 721h354v-135h-354v-350h-141v350h-355v135h355v342h141v-342zM1040 0h-850v131h850v-131z" />
    <glyph glyph-name="acute" unicode="&#xb4;" horiz-adv-x="614" 
d="M362 1184h-135l142 233h204z" />
    <glyph glyph-name="paragraph" unicode="&#xb6;" horiz-adv-x="1185" 
d="M1038 1413v-1638h-139v1503h-201v-1503h-139v880h-35q-79 0 -114 2q-151 9 -236.5 116.5t-85.5 260.5t85.5 260.5t236.5 116.5q35 2 114 2h514z" />
    <glyph glyph-name="periodcentered" unicode="&#xb7;" horiz-adv-x="454" 
d="M227 782q68 0 113 -45t45 -112t-45.5 -112.5t-112.5 -45.5t-112 45t-45 113q0 67 45 112t112 45z" />
    <glyph glyph-name="cedilla" unicode="&#xb8;" horiz-adv-x="614" 
d="M383 18l-53 -102q85 -10 128.5 -52.5t43.5 -113.5q0 -88 -75 -134t-200 -46q-65 0 -106 16v105q49 -21 110 -21q63 0 95 21t32 59q0 49 -46 70t-150 14l96 184h125z" />
    <glyph glyph-name="guillemotright" unicode="&#xbb;" horiz-adv-x="1196" 
d="M569 508l-280 -340h-178l280 340l-280 340h178zM952 508l-280 -340h-178l280 340l-280 340h178z" />
    <glyph glyph-name="questiondown" unicode="&#xbf;" horiz-adv-x="1040" 
d="M604 827q-63 0 -104 41.5t-41 104.5t41 103t104 40t103.5 -40t40.5 -103t-40.5 -104.5t-103.5 -41.5zM571 -354q-209 0 -326.5 105t-117.5 276q0 108 52 204t163 201q89 86 121.5 141.5t38.5 131.5h207q-7 -98 -41 -167.5t-115 -162.5q-105 -118 -143.5 -189t-38.5 -153
q0 -99 55.5 -157t155.5 -58q106 0 169 68t72 200h230q-6 -202 -137.5 -321t-344.5 -119z" />
    <glyph glyph-name="Agrave" unicode="&#xc0;" horiz-adv-x="1343" 
d="M645 1507l-199 209h205l129 -209h-135zM942 467h-502l-153 -467h-240l508 1413h291l493 -1413h-243zM500 645h383l-187 582z" />
    <glyph glyph-name="Aacute" unicode="&#xc1;" horiz-adv-x="1343" 
d="M758 1507h-135l129 209h204zM942 467h-502l-153 -467h-240l508 1413h291l493 -1413h-243zM500 645h383l-187 582z" />
    <glyph glyph-name="Acircumflex" unicode="&#xc2;" horiz-adv-x="1343" 
d="M637 1507h-154l135 209h166l136 -209h-156l-64 123zM942 467h-502l-153 -467h-240l508 1413h291l493 -1413h-243zM500 645h383l-187 582z" />
    <glyph glyph-name="Atilde" unicode="&#xc3;" horiz-adv-x="1343" 
d="M594 1579q-33 0 -33 -47h-106q0 96 31 137t94 41q57 0 137 -31q73 -24 90 -24q18 0 25.5 10.5t7.5 36.5h108q0 -96 -31.5 -137t-95.5 -41q-57 0 -137 30q-77 25 -90 25zM942 467h-502l-153 -467h-240l508 1413h291l493 -1413h-243zM500 645h383l-187 582z" />
    <glyph glyph-name="Adieresis" unicode="&#xc4;" horiz-adv-x="1343" 
d="M543 1501q-46 0 -78.5 31.5t-32.5 77.5q0 45 32.5 76.5t78.5 31.5t77 -31t31 -77t-31 -77.5t-77 -31.5zM860 1501q-46 0 -78 31.5t-32 77.5t32 77t78 31t77.5 -31t31.5 -77t-31.5 -77.5t-77.5 -31.5zM942 467h-502l-153 -467h-240l508 1413h291l493 -1413h-243zM500 645
h383l-187 582z" />
    <glyph glyph-name="Aring" unicode="&#xc5;" horiz-adv-x="1343" 
d="M700 1470q-88 0 -144 49t-56 126t56 126.5t144 49.5t144.5 -49.5t56.5 -126.5q0 -76 -56.5 -125.5t-144.5 -49.5zM700 1731q-36 0 -59 -24t-23 -62q0 -37 23.5 -61.5t58.5 -24.5t58.5 24.5t23.5 61.5q0 38 -23 62t-59 24zM942 467h-502l-153 -467h-240l508 1413h291
l493 -1413h-243zM500 645h383l-187 582z" />
    <glyph glyph-name="AE" unicode="&#xc6;" horiz-adv-x="1904" 
d="M1847 180v-180h-923l-35 481h-463l-260 -481h-242l797 1413h1106v-178h-768l33 -438h677v-179h-665l33 -438h710zM877 662l-43 571l-310 -571h353z" />
    <glyph glyph-name="Ccedilla" unicode="&#xc7;" horiz-adv-x="1449" 
d="M1135 479h223l-2 -20q-23 -211 -174 -346t-406 -142l-28 -55q85 -10 128.5 -52.5t43.5 -113.5q0 -88 -75 -134t-200 -46q-65 0 -106 16v105q49 -21 110 -21q63 0 95 21t32 59q0 49 -46 70t-150 14l75 143q-258 34 -406.5 229.5t-148.5 493.5q0 164 50 303t139 235
t214.5 150t272.5 54q267 0 417 -132.5t173 -351.5l2 -20h-223l-4 20q-30 148 -122 230t-247 82q-195 0 -311.5 -153.5t-116.5 -405.5q0 -261 114.5 -414.5t303.5 -153.5q154 0 245.5 83.5t122.5 232.5z" />
    <glyph glyph-name="Egrave" unicode="&#xc8;" horiz-adv-x="1228" 
d="M635 1507l-199 209h205l129 -209h-135zM1171 180v-180h-976v1413h956v-178h-731v-438h674v-179h-674v-438h751z" />
    <glyph glyph-name="Eacute" unicode="&#xc9;" horiz-adv-x="1228" 
d="M748 1507h-136l129 209h205zM1171 180v-180h-976v1413h956v-178h-731v-438h674v-179h-674v-438h751z" />
    <glyph glyph-name="Ecircumflex" unicode="&#xca;" horiz-adv-x="1228" 
d="M627 1507h-154l135 209h166l135 -209h-155l-64 123zM1171 180v-180h-976v1413h956v-178h-731v-438h674v-179h-674v-438h751z" />
    <glyph glyph-name="Edieresis" unicode="&#xcb;" horiz-adv-x="1228" 
d="M532 1501q-46 0 -78 31.5t-32 77.5t32 77t78 31t77.5 -31t31.5 -77t-31.5 -77.5t-77.5 -31.5zM850 1501q-46 0 -78.5 31.5t-32.5 77.5q0 45 32.5 76.5t78.5 31.5t77 -31t31 -77t-31 -77.5t-77 -31.5zM1171 180v-180h-976v1413h956v-178h-731v-438h674v-179h-674v-438h751
z" />
    <glyph glyph-name="Igrave" unicode="&#xcc;" horiz-adv-x="567" 
d="M387 1507h-135l-199 209h205zM420 0h-225v1413h225v-1413z" />
    <glyph glyph-name="Iacute" unicode="&#xcd;" horiz-adv-x="567" 
d="M365 1507h-136l129 209h205zM420 0h-225v1413h225v-1413z" />
    <glyph glyph-name="Icircumflex" unicode="&#xce;" horiz-adv-x="567" 
d="M244 1507h-154l135 209h166l135 -209h-155l-64 123zM195 1413h225v-1413h-225v1413z" />
    <glyph glyph-name="Idieresis" unicode="&#xcf;" horiz-adv-x="567" 
d="M150 1718q46 0 77 -31t31 -77t-31 -77.5t-77 -31.5t-78.5 31.5t-32.5 77.5q0 45 32.5 76.5t78.5 31.5zM467 1718q46 0 77 -31t31 -77t-31 -77.5t-77 -31.5t-78.5 31.5t-32.5 77.5q0 45 32.5 76.5t78.5 31.5zM420 0h-225v1413h225v-1413z" />
    <glyph glyph-name="Eth" unicode="&#xd0;" horiz-adv-x="1466" 
d="M823 1405q125 -15 227.5 -63.5t180 -131t120 -206.5t42.5 -281q0 -205 -76.5 -362t-205 -244.5t-294.5 -108.5q-72 -8 -180 -8h-449v618h-120v136h120v659h455q108 0 180 -8zM778 188q172 25 273.5 165t101.5 370q0 219 -97.5 348t-269.5 154q-59 10 -163 10h-211v-481
h262v-136h-262v-438h204q117 0 162 8z" />
    <glyph glyph-name="Ntilde" unicode="&#xd1;" horiz-adv-x="1509" 
d="M655 1710q58 0 138 -31q74 -24 90 -24q17 0 24.5 10.5t7.5 36.5h109q0 -96 -31.5 -137t-95.5 -41q-57 0 -137 30q-77 25 -90 25q-33 0 -33 -47h-107q0 96 31 137t94 41zM1362 0h-324l-626 1165q8 -216 8 -489v-676h-225v1413h317l633 -1173q-6 240 -6 493v680h221z" />
    <glyph glyph-name="Ograve" unicode="&#xd2;" horiz-adv-x="1536" 
d="M727 1507l-199 209h205l129 -209h-135zM782 1442q212 0 367 -92.5t234 -258t79 -384.5t-79 -384t-234 -258.5t-367 -93.5q-213 0 -368.5 93.5t-234.5 258.5t-79 384q0 164 46 299.5t132 232t215 150t289 53.5zM782 143q205 0 322 150.5t117 413.5q0 264 -116.5 413.5
t-322.5 149.5q-207 0 -323.5 -149.5t-116.5 -413.5q0 -263 117 -413.5t323 -150.5z" />
    <glyph glyph-name="Oacute" unicode="&#xd3;" horiz-adv-x="1536" 
d="M840 1507h-135l129 209h204zM782 1442q212 0 367 -92.5t234 -258t79 -384.5t-79 -384t-234 -258.5t-367 -93.5q-213 0 -368.5 93.5t-234.5 258.5t-79 384q0 164 46 299.5t132 232t215 150t289 53.5zM782 143q205 0 322 150.5t117 413.5q0 264 -116.5 413.5t-322.5 149.5
q-207 0 -323.5 -149.5t-116.5 -413.5q0 -263 117 -413.5t323 -150.5z" />
    <glyph glyph-name="Ocircumflex" unicode="&#xd4;" horiz-adv-x="1536" 
d="M719 1507h-154l135 209h166l135 -209h-155l-64 123zM782 1442q212 0 367 -92.5t234 -258t79 -384.5t-79 -384t-234 -258.5t-367 -93.5q-213 0 -368.5 93.5t-234.5 258.5t-79 384q0 164 46 299.5t132 232t215 150t289 53.5zM782 143q205 0 322 150.5t117 413.5
q0 264 -116.5 413.5t-322.5 149.5q-207 0 -323.5 -149.5t-116.5 -413.5q0 -263 117 -413.5t323 -150.5z" />
    <glyph glyph-name="Otilde" unicode="&#xd5;" horiz-adv-x="1536" 
d="M676 1579q-33 0 -33 -47h-106q0 96 31 137t94 41q57 0 137 -31q74 -24 90 -24q18 0 25.5 10.5t7.5 36.5h108q0 -96 -31.5 -137t-95.5 -41q-57 0 -137 30q-77 25 -90 25zM782 1442q212 0 367 -92.5t234 -258t79 -384.5t-79 -384t-234 -258.5t-367 -93.5
q-213 0 -368.5 93.5t-234.5 258.5t-79 384q0 164 46 299.5t132 232t215 150t289 53.5zM782 143q205 0 322 150.5t117 413.5q0 264 -116.5 413.5t-322.5 149.5q-207 0 -323.5 -149.5t-116.5 -413.5q0 -263 117 -413.5t323 -150.5z" />
    <glyph glyph-name="Odieresis" unicode="&#xd6;" horiz-adv-x="1536" 
d="M625 1501q-46 0 -78.5 31.5t-32.5 77.5q0 45 32.5 76.5t78.5 31.5t77 -31t31 -77t-31 -77.5t-77 -31.5zM942 1501q-46 0 -78.5 31.5t-32.5 77.5q0 45 32.5 76.5t78.5 31.5t77.5 -31t31.5 -77t-31.5 -77.5t-77.5 -31.5zM782 1442q212 0 367 -92.5t234 -258t79 -384.5
t-79 -384t-234 -258.5t-367 -93.5q-213 0 -368.5 93.5t-234.5 258.5t-79 384q0 164 46 299.5t132 232t215 150t289 53.5zM782 143q205 0 322 150.5t117 413.5q0 264 -116.5 413.5t-322.5 149.5q-207 0 -323.5 -149.5t-116.5 -413.5q0 -263 117 -413.5t323 -150.5z" />
    <glyph glyph-name="multiply" unicode="&#xd7;" 
d="M715 651l291 -291l-101 -98l-291 291l-290 -291l-99 98l291 291l-291 291l99 98l290 -290l291 290l101 -98z" />
    <glyph glyph-name="Oslash" unicode="&#xd8;" horiz-adv-x="1548" 
d="M1485 1305l-137 -138q122 -188 122 -460q0 -218 -79.5 -383.5t-235 -259t-367.5 -93.5q-287 0 -469 168l-129 -129l-98 99l137 137q-123 189 -123 461q0 334 181.5 534.5t500.5 200.5q287 0 469 -168l129 129zM348 707q0 -171 49 -293l711 710q-118 146 -320 146
q-207 0 -323.5 -149.5t-116.5 -413.5zM1229 707q0 170 -49 292l-711 -710q118 -146 319 -146q207 0 324 150.5t117 413.5z" />
    <glyph glyph-name="Ugrave" unicode="&#xd9;" horiz-adv-x="1415" 
d="M813 1507h-135l-199 209h205zM1288 1413v-866q0 -93 -4 -146q-8 -91 -43.5 -167t-100.5 -136t-169 -93.5t-238 -33.5t-238 33.5t-169 93.5t-100 136t-42 167q-4 53 -4 146v866h223v-870q0 -74 5 -115q11 -132 94 -208.5t231 -76.5q150 0 233.5 76.5t94.5 208.5
q4 33 4 115v870h223z" />
    <glyph glyph-name="Uacute" unicode="&#xda;" horiz-adv-x="1415" 
d="M791 1507h-136l129 209h205zM1288 1413v-866q0 -93 -4 -146q-8 -91 -43.5 -167t-100.5 -136t-169 -93.5t-238 -33.5t-238 33.5t-169 93.5t-100 136t-42 167q-4 53 -4 146v866h223v-870q0 -74 5 -115q11 -132 94 -208.5t231 -76.5q150 0 233.5 76.5t94.5 208.5q4 33 4 115
v870h223z" />
    <glyph glyph-name="Ucircumflex" unicode="&#xdb;" horiz-adv-x="1415" 
d="M670 1507h-154l135 209h166l135 -209h-155l-64 123zM1288 1413v-866q0 -93 -4 -146q-8 -91 -43.5 -167t-100.5 -136t-169 -93.5t-238 -33.5t-238 33.5t-169 93.5t-100 136t-42 167q-4 53 -4 146v866h223v-870q0 -74 5 -115q11 -132 94 -208.5t231 -76.5q150 0 233.5 76.5
t94.5 208.5q4 33 4 115v870h223z" />
    <glyph glyph-name="Udieresis" unicode="&#xdc;" horiz-adv-x="1415" 
d="M575 1718q46 0 77.5 -31t31.5 -77t-31.5 -77.5t-77.5 -31.5t-78 31.5t-32 77.5t32 77t78 31zM893 1718q46 0 77 -31t31 -77t-31 -77.5t-77 -31.5t-78.5 31.5t-32.5 77.5q0 45 32.5 76.5t78.5 31.5zM1288 1413v-866q0 -93 -4 -146q-8 -91 -43.5 -167t-100.5 -136
t-169 -93.5t-238 -33.5t-238 33.5t-169 93.5t-100 136t-42 167q-4 53 -4 146v866h223v-870q0 -74 5 -115q11 -132 94 -208.5t231 -76.5q150 0 233.5 76.5t94.5 208.5q4 33 4 115v870h223z" />
    <glyph glyph-name="Yacute" unicode="&#xdd;" horiz-adv-x="1232" 
d="M705 1507h-136l129 209h205zM760 553v-553h-223v553l-500 860h256l364 -653l353 653h250z" />
    <glyph glyph-name="Thorn" unicode="&#xde;" horiz-adv-x="1302" 
d="M862 1225q162 -21 261.5 -123.5t99.5 -276.5t-100 -278t-261 -125q-66 -8 -192 -8h-250v-414h-225v1413h225v-180h250q126 0 192 -8zM803 604q82 15 132 67.5t50 151.5q0 98 -50.5 151t-131.5 68q-55 9 -144 9h-239v-455h239q95 0 144 8z" />
    <glyph glyph-name="germandbls" unicode="&#xdf;" horiz-adv-x="1275" 
d="M641 1544q221 0 348 -100.5t127 -267.5q0 -106 -61 -201q-146 -79 -146 -160q0 -50 27 -89.5t96 -100.5q92 -79 130 -149.5t38 -178.5q0 -142 -112.5 -223.5t-278.5 -81.5q-121 0 -221 20v176q102 -26 192 -26q88 0 132 41.5t44 115.5q0 51 -25 98t-95 109
q-97 89 -133.5 147.5t-36.5 141.5q0 148 172 238q34 54 34 121q0 94 -60 146t-179 52q-112 0 -182.5 -68.5t-79.5 -197.5q-4 -58 -4 -131v-975h-226v958q0 78 4 152q12 210 148 322t348 112z" />
    <glyph glyph-name="agrave" unicode="&#xe0;" horiz-adv-x="1116" 
d="M504 1184l-209 233h205l139 -233h-135zM768 0l-20 158l-56 -117q-102 -70 -270 -70q-151 0 -250.5 83.5t-99.5 230.5q0 372 604 372h69v27q0 78 -4 119q-10 149 -190 149q-192 0 -211 -209h-225q10 176 130.5 274.5t309.5 98.5q202 0 299 -78.5t111 -224.5q6 -68 6 -154
v-383q0 -125 20 -276h-223zM504 135q108 0 174.5 72t66.5 201v100q-135 10 -230.5 -7t-150.5 -67t-55 -131q0 -84 51.5 -126t143.5 -42z" />
    <glyph glyph-name="aacute" unicode="&#xe1;" horiz-adv-x="1116" 
d="M610 1184h-135l141 233h205zM768 0l-20 158l-56 -117q-102 -70 -270 -70q-151 0 -250.5 83.5t-99.5 230.5q0 372 604 372h69v27q0 78 -4 119q-10 149 -190 149q-192 0 -211 -209h-225q10 176 130.5 274.5t309.5 98.5q202 0 299 -78.5t111 -224.5q6 -68 6 -154v-383
q0 -125 20 -276h-223zM504 135q108 0 174.5 72t66.5 201v100q-135 10 -230.5 -7t-150.5 -67t-55 -131q0 -84 51.5 -126t143.5 -42z" />
    <glyph glyph-name="acircumflex" unicode="&#xe2;" horiz-adv-x="1116" 
d="M487 1184h-149l135 233h166l135 -233h-151l-68 133zM768 0l-20 158l-56 -117q-102 -70 -270 -70q-151 0 -250.5 83.5t-99.5 230.5q0 372 604 372h69v27q0 78 -4 119q-10 149 -190 149q-192 0 -211 -209h-225q10 176 130.5 274.5t309.5 98.5q202 0 299 -78.5t111 -224.5
q6 -68 6 -154v-383q0 -125 20 -276h-223zM504 135q108 0 174.5 72t66.5 201v100q-135 10 -230.5 -7t-150.5 -67t-55 -131q0 -84 51.5 -126t143.5 -42z" />
    <glyph glyph-name="atilde" unicode="&#xe3;" horiz-adv-x="1116" 
d="M449 1262q-33 0 -33 -45h-107q0 96 31 136t94 40t137 -29q68 -25 91 -25q17 0 24.5 10.5t7.5 36.5h109q0 -98 -31.5 -138t-95.5 -40q-49 0 -137 29q-68 25 -90 25zM768 0l-20 158l-56 -117q-102 -70 -270 -70q-151 0 -250.5 83.5t-99.5 230.5q0 372 604 372h69v27
q0 78 -4 119q-10 149 -190 149q-192 0 -211 -209h-225q10 176 130.5 274.5t309.5 98.5q202 0 299 -78.5t111 -224.5q6 -68 6 -154v-383q0 -125 20 -276h-223zM504 135q108 0 174.5 72t66.5 201v100q-135 10 -230.5 -7t-150.5 -67t-55 -131q0 -84 51.5 -126t143.5 -42z" />
    <glyph glyph-name="adieresis" unicode="&#xe4;" horiz-adv-x="1116" 
d="M391 1188q-46 0 -77 30t-31 76t31 77.5t77 31.5t78.5 -31.5t32.5 -77.5q0 -45 -32.5 -75.5t-78.5 -30.5zM719 1188q-46 0 -77.5 30.5t-31.5 75.5q0 46 31.5 77.5t77.5 31.5t77 -31.5t31 -77.5t-31 -76t-77 -30zM768 0l-20 158l-56 -117q-102 -70 -270 -70
q-151 0 -250.5 83.5t-99.5 230.5q0 372 604 372h69v27q0 78 -4 119q-10 149 -190 149q-192 0 -211 -209h-225q10 176 130.5 274.5t309.5 98.5q202 0 299 -78.5t111 -224.5q6 -68 6 -154v-383q0 -125 20 -276h-223zM504 135q108 0 174.5 72t66.5 201v100q-135 10 -230.5 -7
t-150.5 -67t-55 -131q0 -84 51.5 -126t143.5 -42z" />
    <glyph glyph-name="aring" unicode="&#xe5;" horiz-adv-x="1116" 
d="M555 1159q-88 0 -144.5 51.5t-56.5 130.5q0 82 56.5 133.5t144.5 51.5t144.5 -51.5t56.5 -133.5q0 -79 -56.5 -130.5t-144.5 -51.5zM555 1438q-36 0 -59 -26.5t-23 -70.5q0 -43 23 -68.5t59 -25.5t59 25.5t23 68.5q0 44 -23 70.5t-59 26.5zM768 0l-20 158l-56 -117
q-102 -70 -270 -70q-151 0 -250.5 83.5t-99.5 230.5q0 372 604 372h69v27q0 78 -4 119q-10 149 -190 149q-192 0 -211 -209h-225q10 176 130.5 274.5t309.5 98.5q202 0 299 -78.5t111 -224.5q6 -68 6 -154v-383q0 -125 20 -276h-223zM504 135q108 0 174.5 72t66.5 201v100
q-135 10 -230.5 -7t-150.5 -67t-55 -131q0 -84 51.5 -126t143.5 -42z" />
    <glyph glyph-name="ae" unicode="&#xe6;" horiz-adv-x="1863" 
d="M1790 571q0 -31 -6 -90h-776q11 -177 87.5 -261.5t192.5 -84.5q101 0 170 57.5t86 159.5h230q-35 -186 -170 -283.5t-322 -97.5q-300 0 -420 240l-76 -127q-135 -113 -333 -113q-166 0 -273.5 83.5t-107.5 232.5q0 183 154 267.5t466 84.5h82v45q0 268 -217 268
q-102 0 -157 -53.5t-60 -155.5h-225q4 176 123 274.5t317 98.5q287 0 369 -194q130 194 385 194q150 0 260.5 -72.5t165.5 -195t55 -277.5zM1010 639h549q-14 153 -80 233t-183 80q-119 0 -193 -80t-93 -233zM774 430v51q-238 10 -351.5 -27.5t-113.5 -148.5
q0 -86 52.5 -128t148.5 -42q115 0 189.5 80.5t74.5 214.5z" />
    <glyph glyph-name="ccedilla" unicode="&#xe7;" horiz-adv-x="1114" 
d="M571 135q97 0 163 58t91 167h230q-36 -181 -155 -279.5t-300 -107.5l-29 -57q85 -10 128.5 -52.5t43.5 -113.5q0 -88 -74.5 -134t-199.5 -46q-66 0 -107 16v105q49 -21 111 -21q63 0 95 21t32 59q0 49 -46.5 70t-150.5 14l74 143q-191 24 -304.5 166.5t-113.5 395.5
q0 135 42 246t114.5 182.5t167.5 110t203 38.5q202 0 328 -111t147 -294h-227q-48 241 -254 241q-125 0 -204 -101t-79 -296q0 -211 76 -315.5t198 -104.5z" />
    <glyph glyph-name="egrave" unicode="&#xe8;" horiz-adv-x="1150" 
d="M528 1184l-209 233h205l140 -233h-136zM1077 571q0 -51 -4 -90h-780q24 -346 285 -346q100 0 169.5 58t86.5 159h227q-34 -186 -169 -283.5t-323 -97.5q-228 0 -369 146t-141 424q0 257 148.5 416t384.5 159q153 0 264.5 -73t166 -194.5t54.5 -277.5zM584 952
q-118 0 -194.5 -79.5t-94.5 -233.5h551q-12 152 -78.5 232.5t-183.5 80.5z" />
    <glyph glyph-name="eacute" unicode="&#xe9;" horiz-adv-x="1150" 
d="M635 1184h-135l141 233h205zM1077 571q0 -51 -4 -90h-780q24 -346 285 -346q100 0 169.5 58t86.5 159h227q-34 -186 -169 -283.5t-323 -97.5q-228 0 -369 146t-141 424q0 257 148.5 416t384.5 159q153 0 264.5 -73t166 -194.5t54.5 -277.5zM584 952q-118 0 -194.5 -79.5
t-94.5 -233.5h551q-12 152 -78.5 232.5t-183.5 80.5z" />
    <glyph glyph-name="ecircumflex" unicode="&#xea;" horiz-adv-x="1150" 
d="M512 1184h-150l136 233h166l135 -233h-152l-67 133zM1077 571q0 -51 -4 -90h-780q24 -346 285 -346q100 0 169.5 58t86.5 159h227q-34 -186 -169 -283.5t-323 -97.5q-228 0 -369 146t-141 424q0 257 148.5 416t384.5 159q153 0 264.5 -73t166 -194.5t54.5 -277.5z
M584 952q-118 0 -194.5 -79.5t-94.5 -233.5h551q-12 152 -78.5 232.5t-183.5 80.5z" />
    <glyph glyph-name="edieresis" unicode="&#xeb;" horiz-adv-x="1150" 
d="M416 1188q-46 0 -77.5 30.5t-31.5 75.5q0 46 31.5 77.5t77.5 31.5t78 -31.5t32 -77.5q0 -45 -32 -75.5t-78 -30.5zM743 1188q-46 0 -77 30t-31 76t31 77.5t77 31.5t77.5 -31.5t31.5 -77.5q0 -45 -31.5 -75.5t-77.5 -30.5zM1077 571q0 -51 -4 -90h-780q24 -346 285 -346
q100 0 169.5 58t86.5 159h227q-34 -186 -169 -283.5t-323 -97.5q-228 0 -369 146t-141 424q0 257 148.5 416t384.5 159q153 0 264.5 -73t166 -194.5t54.5 -277.5zM584 952q-118 0 -194.5 -79.5t-94.5 -233.5h551q-12 152 -78.5 232.5t-183.5 80.5z" />
    <glyph glyph-name="igrave" unicode="&#xec;" horiz-adv-x="514" 
d="M338 1184h-135l-209 233h205zM367 0h-226v1087h226v-1087z" />
    <glyph glyph-name="iacute" unicode="&#xed;" horiz-adv-x="514" 
d="M309 1184h-135l141 233h205zM367 0h-226v1087h226v-1087z" />
    <glyph glyph-name="icircumflex" unicode="&#xee;" horiz-adv-x="514" 
d="M186 1184h-149l135 233h166l135 -233h-151l-68 133zM141 1087h226v-1087h-226v1087z" />
    <glyph glyph-name="idieresis" unicode="&#xef;" horiz-adv-x="514" 
d="M90 1403q46 0 78.5 -31.5t32.5 -77.5q0 -45 -32.5 -75.5t-78.5 -30.5t-77 30t-31 76t31 77.5t77 31.5zM418 1403q46 0 77 -31.5t31 -77.5t-31 -76t-77 -30t-77.5 30.5t-31.5 75.5q0 46 31.5 77.5t77.5 31.5zM367 0h-226v1087h226v-1087z" />
    <glyph glyph-name="eth" unicode="&#xf0;" horiz-adv-x="1236" 
d="M1047 1335l-86 -28q95 -118 138.5 -284t43.5 -394q0 -117 -21 -215.5t-59 -169.5t-89 -124t-113 -85.5t-128.5 -48t-138.5 -15.5q-174 0 -296.5 73.5t-180.5 198t-58 289.5q0 135 41 246.5t111 184.5t161 113t193 40q69 0 120.5 -13t107.5 -46l92 -121q-18 183 -127 301
l-281 -94l-37 117l207 71q-61 39 -155 76l161 119q129 -56 209 -123l148 51zM905 532v60q0 90 -26 160.5t-69.5 112t-96.5 62.5t-111 21q-138 0 -220.5 -110t-82.5 -291q0 -194 77.5 -300t225.5 -106q136 0 219.5 100.5t83.5 290.5z" />
    <glyph glyph-name="ntilde" unicode="&#xf1;" horiz-adv-x="1241" 
d="M526 1262q-32 0 -32 -45h-107q0 96 31 136t94 40t137 -29q68 -25 90 -25q18 0 25.5 10.5t7.5 36.5h109q0 -98 -31.5 -138t-95.5 -40q-50 0 -138 29q-68 25 -90 25zM1102 805q6 -83 6 -193v-612h-225v588q0 98 -4 153q-8 98 -64 153.5t-166 55.5q-127 0 -204.5 -111
t-77.5 -352v-487h-226v1087h226v-180l73 125q62 48 125.5 66t149.5 18q172 0 272 -83t115 -228z" />
    <glyph glyph-name="ograve" unicode="&#xf2;" horiz-adv-x="1218" 
d="M559 1184l-209 233h205l139 -233h-135zM610 1116q133 0 239.5 -44.5t173.5 -122.5t102.5 -181t35.5 -223t-35.5 -223.5t-102.5 -182t-173.5 -123.5t-239.5 -45q-134 0 -240.5 45t-173.5 123.5t-102 182t-35 223.5t35 223t102 181t173.5 122.5t240.5 44.5zM610 135
q146 0 229 111.5t83 298.5t-83 297t-229 110q-147 0 -230 -110t-83 -297t83 -298.5t230 -111.5z" />
    <glyph glyph-name="oacute" unicode="&#xf3;" horiz-adv-x="1218" 
d="M666 1184h-136l142 233h205zM610 1116q133 0 239.5 -44.5t173.5 -122.5t102.5 -181t35.5 -223t-35.5 -223.5t-102.5 -182t-173.5 -123.5t-239.5 -45q-134 0 -240.5 45t-173.5 123.5t-102 182t-35 223.5t35 223t102 181t173.5 122.5t240.5 44.5zM610 135q146 0 229 111.5
t83 298.5t-83 297t-229 110q-147 0 -230 -110t-83 -297t83 -298.5t230 -111.5z" />
    <glyph glyph-name="ocircumflex" unicode="&#xf4;" horiz-adv-x="1218" 
d="M543 1184h-150l135 233h166l135 -233h-151l-68 133zM610 1116q133 0 239.5 -44.5t173.5 -122.5t102.5 -181t35.5 -223t-35.5 -223.5t-102.5 -182t-173.5 -123.5t-239.5 -45q-134 0 -240.5 45t-173.5 123.5t-102 182t-35 223.5t35 223t102 181t173.5 122.5t240.5 44.5z
M610 135q146 0 229 111.5t83 298.5t-83 297t-229 110q-147 0 -230 -110t-83 -297t83 -298.5t230 -111.5z" />
    <glyph glyph-name="otilde" unicode="&#xf5;" horiz-adv-x="1218" 
d="M504 1262q-33 0 -33 -45h-106q0 96 30.5 136t93.5 40q64 0 138 -29q68 -25 90 -25q18 0 25.5 10.5t7.5 36.5h108q0 -98 -31.5 -138t-95.5 -40q-49 0 -137 29q-68 25 -90 25zM610 1116q133 0 239.5 -44.5t173.5 -122.5t102.5 -181t35.5 -223t-35.5 -223.5t-102.5 -182
t-173.5 -123.5t-239.5 -45q-134 0 -240.5 45t-173.5 123.5t-102 182t-35 223.5t35 223t102 181t173.5 122.5t240.5 44.5zM610 135q146 0 229 111.5t83 298.5t-83 297t-229 110q-147 0 -230 -110t-83 -297t83 -298.5t230 -111.5z" />
    <glyph glyph-name="odieresis" unicode="&#xf6;" horiz-adv-x="1218" 
d="M446 1188q-46 0 -77 30t-31 76t31 77.5t77 31.5t78.5 -31.5t32.5 -77.5q0 -45 -32.5 -75.5t-78.5 -30.5zM774 1188q-46 0 -77 30t-31 76t31 77.5t77 31.5t77.5 -31.5t31.5 -77.5q0 -45 -31.5 -75.5t-77.5 -30.5zM610 1116q133 0 239.5 -44.5t173.5 -122.5t102.5 -181
t35.5 -223t-35.5 -223.5t-102.5 -182t-173.5 -123.5t-239.5 -45q-134 0 -240.5 45t-173.5 123.5t-102 182t-35 223.5t35 223t102 181t173.5 122.5t240.5 44.5zM610 135q146 0 229 111.5t83 298.5t-83 297t-229 110q-147 0 -230 -110t-83 -297t83 -298.5t230 -111.5z" />
    <glyph glyph-name="divide" unicode="&#xf7;" 
d="M618 1118q54 0 90.5 -36.5t36.5 -90.5t-36.5 -90.5t-90.5 -36.5t-90 36.5t-36 90.5t36 90.5t90 36.5zM1063 586h-895v135h895v-135zM618 434q54 0 90.5 -36.5t36.5 -90.5t-36.5 -90.5t-90.5 -36.5t-90 36.5t-36 90.5t36 90.5t90 36.5z" />
    <glyph glyph-name="oslash" unicode="&#xf8;" horiz-adv-x="1280" 
d="M1229 1034l-146 -145q93 -146 93 -344q0 -120 -35 -223.5t-102 -182t-173.5 -123.5t-240.5 -45q-210 0 -351 109l-124 -125l-99 98l127 127q-104 149 -104 365q0 120 35.5 223t102.5 181t173.5 122.5t239.5 44.5q227 0 366 -123l139 140zM313 545q0 -111 31 -199l504 504
q-82 102 -223 102q-146 0 -229 -110t-83 -297zM938 545q0 93 -25 176l-497 -500q80 -86 209 -86q147 0 230 111.5t83 298.5z" />
    <glyph glyph-name="ugrave" unicode="&#xf9;" horiz-adv-x="1236" 
d="M555 1184l-209 233h205l139 -233h-135zM1090 1087v-1087h-224v186l-75 -135q-63 -44 -126.5 -62t-148.5 -18q-161 0 -261 79t-120 198q-10 69 -10 192v647h223v-602q0 -76 8 -149q12 -92 72 -144.5t162 -52.5q127 0 201.5 105.5t74.5 330.5v512h224z" />
    <glyph glyph-name="uacute" unicode="&#xfa;" horiz-adv-x="1236" 
d="M662 1184h-136l142 233h204zM1090 1087v-1087h-224v186l-75 -135q-63 -44 -126.5 -62t-148.5 -18q-161 0 -261 79t-120 198q-10 69 -10 192v647h223v-602q0 -76 8 -149q12 -92 72 -144.5t162 -52.5q127 0 201.5 105.5t74.5 330.5v512h224z" />
    <glyph glyph-name="ucircumflex" unicode="&#xfb;" horiz-adv-x="1236" 
d="M539 1184h-150l135 233h166l135 -233h-151l-68 133zM1090 1087v-1087h-224v186l-75 -135q-63 -44 -126.5 -62t-148.5 -18q-161 0 -261 79t-120 198q-10 69 -10 192v647h223v-602q0 -76 8 -149q12 -92 72 -144.5t162 -52.5q127 0 201.5 105.5t74.5 330.5v512h224z" />
    <glyph glyph-name="udieresis" unicode="&#xfc;" horiz-adv-x="1236" 
d="M442 1188q-46 0 -77 30t-31 76t31 77.5t77 31.5t78.5 -31.5t32.5 -77.5q0 -45 -32.5 -75.5t-78.5 -30.5zM770 1188q-46 0 -77 30t-31 76t31 77.5t77 31.5t77.5 -31.5t31.5 -77.5q0 -45 -31.5 -75.5t-77.5 -30.5zM1090 1087v-1087h-224v186l-75 -135q-63 -44 -126.5 -62
t-148.5 -18q-161 0 -261 79t-120 198q-10 69 -10 192v647h223v-602q0 -76 8 -149q12 -92 72 -144.5t162 -52.5q127 0 201.5 105.5t74.5 330.5v512h224z" />
    <glyph glyph-name="yacute" unicode="&#xfd;" horiz-adv-x="1099" 
d="M604 1184h-135l141 233h205zM1094 1087l-443 -1157q-75 -194 -170 -277t-243 -83q-74 0 -107 6v166q27 -2 72 -2q79 0 132 39t89 131l16 39l-438 1138h252l299 -919l297 919h244z" />
    <glyph glyph-name="thorn" unicode="&#xfe;" horiz-adv-x="1282" 
d="M733 1116q152 0 264 -72.5t169 -197t57 -283.5q0 -145 -42.5 -260t-116 -186.5t-167.5 -108.5t-201 -37q-71 0 -144.5 18.5t-113.5 49.5l-71 108v-548h-226v1906h226v-587l82 116q45 38 122.5 60t161.5 22zM670 135q140 0 227.5 106t87.5 302q0 182 -80.5 295.5
t-224.5 113.5q-66 0 -120.5 -21.5t-98.5 -67t-69 -124t-25 -184.5v-55q0 -95 27 -168.5t71.5 -114.5t96.5 -61.5t108 -20.5z" />
    <glyph glyph-name="ydieresis" unicode="&#xff;" horiz-adv-x="1099" 
d="M385 1188q-46 0 -77.5 30.5t-31.5 75.5q0 46 31.5 77.5t77.5 31.5t78.5 -31.5t32.5 -77.5q0 -45 -32.5 -75.5t-78.5 -30.5zM713 1188q-46 0 -77.5 30.5t-31.5 75.5q0 46 31.5 77.5t77.5 31.5t77 -31.5t31 -77.5t-31 -76t-77 -30zM1094 1087l-443 -1157
q-75 -194 -170 -277t-243 -83q-74 0 -107 6v166q27 -2 72 -2q79 0 132 39t89 131l16 39l-438 1138h252l299 -919l297 919h244z" />
    <glyph glyph-name="Amacron" unicode="&#x100;" horiz-adv-x="1343" 
d="M963 1552h-523v129h523v-129zM942 467h-502l-153 -467h-240l508 1413h291l493 -1413h-243zM500 645h383l-187 582z" />
    <glyph glyph-name="amacron" unicode="&#x101;" horiz-adv-x="1116" 
d="M817 1229h-522v129h522v-129zM768 0l-20 158l-56 -117q-102 -70 -270 -70q-151 0 -250.5 83.5t-99.5 230.5q0 372 604 372h69v27q0 78 -4 119q-10 149 -190 149q-192 0 -211 -209h-225q10 176 130.5 274.5t309.5 98.5q202 0 299 -78.5t111 -224.5q6 -68 6 -154v-383
q0 -125 20 -276h-223zM504 135q108 0 174.5 72t66.5 201v100q-135 10 -230.5 -7t-150.5 -67t-55 -131q0 -84 51.5 -126t143.5 -42z" />
    <glyph glyph-name="Abreve" unicode="&#x102;" horiz-adv-x="1343" 
d="M700 1483q-225 0 -225 233h127q3 -106 98 -106q45 0 71.5 26.5t27.5 79.5h127q0 -233 -226 -233zM942 467h-502l-153 -467h-240l508 1413h291l493 -1413h-243zM500 645h383l-187 582z" />
    <glyph glyph-name="abreve" unicode="&#x103;" horiz-adv-x="1116" 
d="M555 1161q-112 0 -168.5 62t-56.5 194h127q3 -129 98 -129t98 129h127q0 -256 -225 -256zM768 0l-20 158l-56 -117q-102 -70 -270 -70q-151 0 -250.5 83.5t-99.5 230.5q0 372 604 372h69v27q0 78 -4 119q-10 149 -190 149q-192 0 -211 -209h-225q10 176 130.5 274.5
t309.5 98.5q202 0 299 -78.5t111 -224.5q6 -68 6 -154v-383q0 -125 20 -276h-223zM504 135q108 0 174.5 72t66.5 201v100q-135 10 -230.5 -7t-150.5 -67t-55 -131q0 -84 51.5 -126t143.5 -42z" />
    <glyph glyph-name="Aogonek" unicode="&#x104;" horiz-adv-x="1343" 
d="M1083 -219q0 -103 91 -103q56 0 108 41v-112q-83 -64 -207 -64q-201 0 -201 174q0 103 62 183t154 120l-148 447h-502l-153 -467h-240l508 1413h291l493 -1413h-88q-70 -11 -119 -72.5t-49 -146.5zM500 645h383l-187 582z" />
    <glyph glyph-name="aogonek" unicode="&#x105;" horiz-adv-x="1116" 
d="M760 -219q0 -103 90 -103q56 0 108 41v-112q-83 -64 -206 -64q-201 0 -201 174q0 103 62 183t153 118l-18 140l-56 -117q-102 -70 -270 -70q-151 0 -250.5 83.5t-99.5 230.5q0 372 604 372h69v27q0 78 -4 119q-10 149 -190 149q-192 0 -211 -209h-225q10 176 130.5 274.5
t309.5 98.5q202 0 299 -78.5t111 -224.5q6 -68 6 -154v-383q0 -125 20 -276h-63q-70 -11 -119 -72.5t-49 -146.5zM504 135q108 0 174.5 72t66.5 201v100q-135 10 -230.5 -7t-150.5 -67t-55 -131q0 -84 51.5 -126t143.5 -42z" />
    <glyph glyph-name="Cacute" unicode="&#x106;" horiz-adv-x="1449" 
d="M817 1507h-135l129 209h205zM776 1442q267 0 417 -132.5t173 -351.5l2 -20h-223l-4 20q-30 148 -122 230t-247 82q-195 0 -311.5 -153.5t-116.5 -405.5q0 -261 114.5 -414.5t303.5 -153.5q154 0 245.5 83.5t122.5 232.5l5 20h223l-2 -20q-23 -216 -180 -352t-424 -136
q-198 0 -347 92.5t-227 257.5t-78 379q0 164 50 303t139 235t214.5 150t272.5 54z" />
    <glyph glyph-name="cacute" unicode="&#x107;" horiz-adv-x="1114" 
d="M618 1184h-135l142 233h204zM586 1116q202 0 328 -111t147 -294h-227q-48 241 -254 241q-125 0 -204 -101t-79 -296q0 -211 76 -315.5t198 -104.5q97 0 163 58t91 167h230q-37 -191 -168 -290t-328 -99q-224 0 -362 144.5t-138 423.5q0 135 42 246t114.5 182.5t167.5 110
t203 38.5z" />
    <glyph glyph-name="Cdotaccent" unicode="&#x10a;" horiz-adv-x="1449" 
d="M760 1735q51 0 85 -33t34 -82q0 -51 -34 -84t-85 -33t-85 33t-34 84q0 49 34 82t85 33zM776 1442q267 0 417 -132.5t173 -351.5l2 -20h-223l-4 20q-30 148 -122 230t-247 82q-195 0 -311.5 -153.5t-116.5 -405.5q0 -261 114.5 -414.5t303.5 -153.5q154 0 245.5 83.5
t122.5 232.5l5 20h223l-2 -20q-23 -216 -180 -352t-424 -136q-198 0 -347 92.5t-227 257.5t-78 379q0 164 50 303t139 235t214.5 150t272.5 54z" />
    <glyph glyph-name="cdotaccent" unicode="&#x10b;" horiz-adv-x="1114" 
d="M563 1466q57 0 95 -37t38 -92q0 -57 -38 -94t-95 -37t-94 37t-37 94q0 56 37 92.5t94 36.5zM586 1116q202 0 328 -111t147 -294h-227q-48 241 -254 241q-125 0 -204 -101t-79 -296q0 -211 76 -315.5t198 -104.5q97 0 163 58t91 167h230q-37 -191 -168 -290t-328 -99
q-224 0 -362 144.5t-138 423.5q0 135 42 246t114.5 182.5t167.5 110t203 38.5z" />
    <glyph glyph-name="Ccaron" unicode="&#x10c;" horiz-adv-x="1449" 
d="M678 1507l-135 209h155l64 -125l63 125h154l-135 -209h-166zM1135 479h223l-2 -20q-23 -216 -180 -352t-424 -136q-198 0 -347 92.5t-227 257.5t-78 379q0 164 50 303t139 235t214.5 150t272.5 54q267 0 417 -132.5t173 -351.5l2 -20h-223l-4 20q-30 148 -122 230
t-247 82q-195 0 -311.5 -153.5t-116.5 -405.5q0 -261 114.5 -414.5t303.5 -153.5q154 0 245.5 83.5t122.5 232.5z" />
    <glyph glyph-name="ccaron" unicode="&#x10d;" horiz-adv-x="1114" 
d="M481 1184l-135 233h152l67 -135l68 135h149l-135 -233h-166zM571 135q97 0 163 58t91 167h230q-37 -191 -168 -290t-328 -99q-224 0 -362 144.5t-138 423.5q0 135 42 246t114.5 182.5t167.5 110t203 38.5q202 0 328 -111t147 -294h-227q-48 241 -254 241
q-125 0 -204 -101t-79 -296q0 -211 76 -315.5t198 -104.5z" />
    <glyph glyph-name="Dcaron" unicode="&#x10e;" horiz-adv-x="1472" 
d="M684 1507l-135 209h156l63 -125l63 125h154l-135 -209h-166zM831 1405q125 -15 227.5 -63.5t180 -131t120 -206.5t42.5 -281q0 -155 -44 -283.5t-122 -217.5t-183 -144t-229 -70q-72 -8 -180 -8h-448v1413h456q108 0 180 -8zM784 188q173 25 274 164.5t101 370.5
q0 219 -97 348t-269 154q-56 10 -162 10h-211v-1055h203q116 0 161 8z" />
    <glyph glyph-name="dcaron" unicode="&#x10f;" horiz-adv-x="1288" 
d="M1481 1507v-24l-146 -289h-143l123 313h166zM915 1505h226v-1505h-226v172l-81 -119q-46 -37 -124 -59.5t-161 -22.5q-228 0 -359 155t-131 400q0 144 42.5 258.5t116 186t167.5 108.5t201 37q71 0 144.5 -18t113.5 -49l71 -109v565zM600 135q66 0 121 21.5t99.5 67
t69.5 124t25 184.5v58q0 95 -27 167.5t-72 113.5t-97 61t-109 20q-139 0 -226 -105.5t-87 -301.5q0 -182 80 -296t223 -114z" />
    <glyph glyph-name="Dcroat" unicode="&#x110;" horiz-adv-x="1466" 
d="M823 1405q125 -15 227.5 -63.5t180 -131t120 -206.5t42.5 -281q0 -205 -76.5 -362t-205 -244.5t-294.5 -108.5q-72 -8 -180 -8h-449v618h-120v136h120v659h455q108 0 180 -8zM778 188q172 25 273.5 165t101.5 370q0 219 -97.5 348t-269.5 154q-59 10 -163 10h-211v-481
h262v-136h-262v-438h204q117 0 162 8z" />
    <glyph glyph-name="dcroat" unicode="&#x111;" horiz-adv-x="1294" 
d="M1229 1208h-88v-1208h-226v172l-81 -119q-46 -37 -124 -59.5t-161 -22.5q-228 0 -359 155t-131 400q0 144 42.5 258.5t116 186t167.5 108.5t201 37q71 0 144.5 -18t113.5 -49l71 -109v268h-239v135h239v162h226v-162h88v-135zM600 135q66 0 121 21.5t99.5 67t69.5 124
t25 184.5v58q0 95 -27 167.5t-72 113.5t-97 61t-109 20q-139 0 -226 -105.5t-87 -301.5q0 -182 80 -296t223 -114z" />
    <glyph glyph-name="Emacron" unicode="&#x112;" horiz-adv-x="1228" 
d="M952 1552h-522v129h522v-129zM1171 180v-180h-976v1413h956v-178h-731v-438h674v-179h-674v-438h751z" />
    <glyph glyph-name="emacron" unicode="&#x113;" horiz-adv-x="1150" 
d="M842 1229h-523v129h523v-129zM1077 571q0 -51 -4 -90h-780q24 -346 285 -346q100 0 169.5 58t86.5 159h227q-34 -186 -169 -283.5t-323 -97.5q-228 0 -369 146t-141 424q0 257 148.5 416t384.5 159q153 0 264.5 -73t166 -194.5t54.5 -277.5zM584 952q-118 0 -194.5 -79.5
t-94.5 -233.5h551q-12 152 -78.5 232.5t-183.5 80.5z" />
    <glyph glyph-name="Edotaccent" unicode="&#x116;" horiz-adv-x="1228" 
d="M690 1503q-51 0 -85 33t-34 84q0 49 34 82t85 33t85 -33t34 -82q0 -51 -34 -84t-85 -33zM1171 180v-180h-976v1413h956v-178h-731v-438h674v-179h-674v-438h751z" />
    <glyph glyph-name="edotaccent" unicode="&#x117;" horiz-adv-x="1150" 
d="M580 1206q-57 0 -94 37t-37 94q0 56 37 92.5t94 36.5t95 -37t38 -92q0 -57 -38 -94t-95 -37zM1077 571q0 -51 -4 -90h-780q24 -346 285 -346q100 0 169.5 58t86.5 159h227q-34 -186 -169 -283.5t-323 -97.5q-228 0 -369 146t-141 424q0 257 148.5 416t384.5 159
q153 0 264.5 -73t166 -194.5t54.5 -277.5zM584 952q-118 0 -194.5 -79.5t-94.5 -233.5h551q-12 152 -78.5 232.5t-183.5 80.5z" />
    <glyph glyph-name="Eogonek" unicode="&#x118;" horiz-adv-x="1228" 
d="M1069 -322q57 0 109 41v-112q-83 -64 -207 -64q-201 0 -201 174q0 92 49 165.5t127 117.5h-751v1413h956v-178h-731v-438h674v-179h-674v-438h751v-180h-24q-70 -11 -119 -72.5t-49 -146.5q0 -103 90 -103z" />
    <glyph glyph-name="eogonek" unicode="&#x119;" horiz-adv-x="1150" 
d="M1077 571q0 -51 -4 -90h-780q24 -346 285 -346q100 0 169.5 58t86.5 159h227q-25 -135 -105 -224.5t-198 -127.5q-29 -8 -39 -10q-56 -24 -92.5 -80t-36.5 -129q0 -103 90 -103q56 0 108 41v-112q-83 -64 -206 -64q-201 0 -201 174q0 79 37 144.5t98 111.5
q-207 18 -332 163t-125 405q0 257 148.5 416t384.5 159q153 0 264.5 -73t166 -194.5t54.5 -277.5zM584 952q-118 0 -194.5 -79.5t-94.5 -233.5h551q-12 152 -78.5 232.5t-183.5 80.5z" />
    <glyph glyph-name="Ecaron" unicode="&#x11a;" horiz-adv-x="1228" 
d="M608 1507l-135 209h156l63 -125l64 125h153l-135 -209h-166zM1171 180v-180h-976v1413h956v-178h-731v-438h674v-179h-674v-438h751z" />
    <glyph glyph-name="ecaron" unicode="&#x11b;" horiz-adv-x="1150" 
d="M498 1184l-136 233h152l68 -135l67 135h150l-135 -233h-166zM1077 571q0 -51 -4 -90h-780q24 -346 285 -346q100 0 169.5 58t86.5 159h227q-34 -186 -169 -283.5t-323 -97.5q-228 0 -369 146t-141 424q0 257 148.5 416t384.5 159q153 0 264.5 -73t166 -194.5t54.5 -277.5
zM584 952q-118 0 -194.5 -79.5t-94.5 -233.5h551q-12 152 -78.5 232.5t-183.5 80.5z" />
    <glyph glyph-name="Gbreve" unicode="&#x11e;" horiz-adv-x="1478" 
d="M756 1483q-226 0 -226 233h127q1 -53 27.5 -79.5t71.5 -26.5q95 0 98 106h127q0 -233 -225 -233zM823 700h535v-700h-189l-8 240l-63 -138q-122 -131 -357 -131q-198 0 -344 92.5t-221.5 257t-75.5 379.5q0 164 50.5 303t140 235t216 150t273.5 54q268 0 418.5 -132.5
t173.5 -351.5l2 -20h-225l-4 20q-29 148 -121 230t-248 82q-196 0 -314 -154t-118 -405q0 -261 116 -414.5t306 -153.5q157 0 260.5 103.5t112.5 273.5h-316v180z" />
    <glyph glyph-name="gbreve" unicode="&#x11f;" horiz-adv-x="1288" 
d="M635 1161q-112 0 -168.5 62t-56.5 194h127q3 -129 98 -129t98 129h127q0 -256 -225 -256zM1141 1087v-817q0 -152 -2 -211q-9 -244 -152 -369.5t-393 -125.5q-232 0 -358.5 93.5t-143.5 270.5l-2 21h221l2 -19q11 -90 85 -143t198 -53q148 0 229.5 77.5t87.5 223.5
q2 47 2 125v22l-81 -119q-46 -37 -121 -59t-158 -22q-230 0 -363 152t-133 396q0 144 42.5 258t116 184.5t167.5 107t201 36.5q71 0 144.5 -18t113.5 -49l71 -109v147h226zM600 145q139 0 227 96.5t88 301.5v47q0 95 -27 167.5t-72 113.5t-97 61t-109 20q-140 0 -226.5 -103
t-86.5 -298q0 -182 80 -294t223 -112z" />
    <glyph glyph-name="Gdotaccent" unicode="&#x120;" horiz-adv-x="1478" 
d="M756 1503q-51 0 -85 33t-34 84q0 49 34 82t85 33t84.5 -32.5t33.5 -82.5q0 -51 -33.5 -84t-84.5 -33zM823 700h535v-700h-189l-8 240l-63 -138q-122 -131 -357 -131q-198 0 -344 92.5t-221.5 257t-75.5 379.5q0 164 50.5 303t140 235t216 150t273.5 54
q268 0 418.5 -132.5t173.5 -351.5l2 -20h-225l-4 20q-29 148 -121 230t-248 82q-196 0 -314 -154t-118 -405q0 -261 116 -414.5t306 -153.5q157 0 260.5 103.5t112.5 273.5h-316v180z" />
    <glyph glyph-name="gdotaccent" unicode="&#x121;" horiz-adv-x="1288" 
d="M635 1206q-57 0 -94 37t-37 94q0 56 37 92.5t94 36.5t95 -37t38 -92q0 -57 -38 -94t-95 -37zM1141 1087v-817q0 -152 -2 -211q-9 -244 -152 -369.5t-393 -125.5q-232 0 -358.5 93.5t-143.5 270.5l-2 21h221l2 -19q11 -90 85 -143t198 -53q148 0 229.5 77.5t87.5 223.5
q2 47 2 125v22l-81 -119q-46 -37 -121 -59t-158 -22q-230 0 -363 152t-133 396q0 144 42.5 258t116 184.5t167.5 107t201 36.5q71 0 144.5 -18t113.5 -49l71 -109v147h226zM600 145q139 0 227 96.5t88 301.5v47q0 95 -27 167.5t-72 113.5t-97 61t-109 20q-140 0 -226.5 -103
t-86.5 -298q0 -182 80 -294t223 -112z" />
    <glyph glyph-name="Gcommaaccent" unicode="&#x122;" horiz-adv-x="1478" 
d="M823 700h535v-700h-189l-8 240l-63 -138q-122 -131 -357 -131q-198 0 -344 92.5t-221.5 257t-75.5 379.5q0 164 50.5 303t140 235t216 150t273.5 54q268 0 418.5 -132.5t173.5 -351.5l2 -20h-225l-4 20q-29 148 -121 230t-248 82q-196 0 -314 -154t-118 -405
q0 -261 116 -414.5t306 -153.5q157 0 260.5 103.5t112.5 273.5h-316v180zM698 -98h166v-23l-145 -289h-144z" />
    <glyph glyph-name="gcommaaccent" unicode="&#x123;" horiz-adv-x="1288" 
d="M702 1184h-163v22l143 289h143zM1141 1087v-817q0 -152 -2 -211q-9 -244 -152 -369.5t-393 -125.5q-232 0 -358.5 93.5t-143.5 270.5l-2 21h221l2 -19q11 -90 85 -143t198 -53q148 0 229.5 77.5t87.5 223.5q2 47 2 125v22l-81 -119q-46 -37 -121 -59t-158 -22
q-230 0 -363 152t-133 396q0 144 42.5 258t116 184.5t167.5 107t201 36.5q71 0 144.5 -18t113.5 -49l71 -109v147h226zM600 145q139 0 227 96.5t88 301.5v47q0 95 -27 167.5t-72 113.5t-97 61t-109 20q-140 0 -226.5 -103t-86.5 -298q0 -182 80 -294t223 -112z" />
    <glyph glyph-name="Hbar" unicode="&#x126;" horiz-adv-x="1515" 
d="M1450 1018h-82v-1018h-223v602h-725v-602h-225v1018h-82v135h82v260h225v-260h725v260h223v-260h82v-135zM1145 1018h-725v-234h725v234z" />
    <glyph glyph-name="hbar" unicode="&#x127;" horiz-adv-x="1271" 
d="M1133 805q6 -83 6 -193v-612h-226v588q0 98 -4 153q-8 98 -63.5 154t-165.5 55q-128 -3 -205.5 -113t-77.5 -350v-487h-225v1208h-113v135h113v173h225v-173h215v-135h-215v-301l74 125q62 48 125 66t149 18q172 0 272.5 -83t115.5 -228z" />
    <glyph glyph-name="Imacron" unicode="&#x12a;" horiz-adv-x="567" 
d="M569 1552h-522v129h522v-129zM420 0h-225v1413h225v-1413z" />
    <glyph glyph-name="imacron" unicode="&#x12b;" horiz-adv-x="514" 
d="M516 1229h-524v129h524v-129zM367 0h-226v1087h226v-1087z" />
    <glyph glyph-name="Iogonek" unicode="&#x12e;" horiz-adv-x="567" 
d="M420 0h-68q-70 -11 -119 -72.5t-49 -146.5q0 -103 90 -103q57 0 109 41v-112q-83 -64 -207 -64q-201 0 -201 174q0 104 63 184.5t155 118.5h2v1393h225v-1413z" />
    <glyph glyph-name="iogonek" unicode="&#x12f;" horiz-adv-x="514" 
d="M254 1206q-57 0 -94 37t-37 94q0 56 37 92.5t94 36.5t95 -37t38 -92q0 -57 -38 -94t-95 -37zM141 1087h226v-1087h-66q-70 -11 -119 -72.5t-49 -146.5q0 -103 90 -103q57 0 109 41v-112q-83 -64 -207 -64q-201 0 -201 174q0 104 62.5 184.5t154.5 118.5v1067z" />
    <glyph glyph-name="Idotaccent" unicode="&#x130;" horiz-adv-x="567" 
d="M307 1735q51 0 85 -33t34 -82q0 -51 -34 -84t-85 -33t-85 33t-34 84q0 49 34 82t85 33zM420 0h-225v1413h225v-1413z" />
    <glyph glyph-name="dotlessi" unicode="&#x131;" horiz-adv-x="514" 
d="M367 0h-226v1087h226v-1087z" />
    <glyph glyph-name="IJ" unicode="&#x132;" horiz-adv-x="1728" 
d="M420 0h-225v1413h225v-1413zM1618 1413v-854q0 -102 -6 -182q-11 -188 -130 -297t-347 -109q-216 0 -333.5 119t-123.5 328l-2 78h225l4 -78q14 -275 250 -275q110 0 168.5 64.5t67.5 183.5q2 43 2 158v864h225z" />
    <glyph glyph-name="ij" unicode="&#x133;" horiz-adv-x="1015" 
d="M254 1466q57 0 95 -37t38 -92q0 -57 -38 -94t-95 -37t-94 37t-37 94q0 56 37 92.5t94 36.5zM760 1466q60 0 95.5 -35t35.5 -94q0 -60 -35.5 -95.5t-95.5 -35.5q-61 0 -97 35.5t-36 95.5q0 59 36 94t97 35zM367 0h-226v1087h226v-1087zM870 1087v-1150q0 -58 -4 -132
q-11 -117 -82.5 -176t-220.5 -59q-65 0 -94 4v170q87 -7 127.5 15.5t46.5 78.5q4 29 4 92v1157h223z" />
    <glyph glyph-name="Kcommaaccent" unicode="&#x136;" horiz-adv-x="1316" 
d="M709 729l602 -729h-301l-465 590l-125 -135v-455h-225v1413h225v-719l657 719h266zM641 -98h166v-23l-145 -289h-144z" />
    <glyph glyph-name="kcommaaccent" unicode="&#x137;" horiz-adv-x="1126" 
d="M1124 0h-293l-368 446l-96 -106v-340h-226v1505h226v-942l475 524h276l-495 -509zM516 -98h166v-23l-145 -289h-144z" />
    <glyph glyph-name="Lacute" unicode="&#x139;" horiz-adv-x="1204" 
d="M365 1507h-136l129 209h205zM1171 186v-186h-976v1413h225v-1227h751z" />
    <glyph glyph-name="lacute" unicode="&#x13a;" horiz-adv-x="536" 
d="M297 1606h-135l141 233h205zM358 1505v-1173q0 -70 2 -103q3 -47 30.5 -63t98.5 -10v-158q-75 -10 -147 -10q-96 0 -148.5 41.5t-58.5 140.5q-2 41 -2 156v1179h225z" />
    <glyph glyph-name="Lcommaaccent" unicode="&#x13b;" horiz-adv-x="1204" 
d="M1171 186v-186h-976v1413h225v-1227h751zM621 -98h165v-23l-145 -289h-143z" />
    <glyph glyph-name="lcommaaccent" unicode="&#x13c;" horiz-adv-x="536" 
d="M358 1505v-1173q0 -70 2 -103q3 -47 30.5 -63t98.5 -10v-158q-75 -10 -147 -10q-96 0 -148.5 41.5t-58.5 140.5q-2 41 -2 156v1179h225zM369 -121l-146 -289h-143l123 312h166v-23z" />
    <glyph glyph-name="Lcaron" unicode="&#x13d;" horiz-adv-x="1204" 
d="M1171 186v-186h-976v1413h225v-1227h751z" />
    <glyph glyph-name="lcaron" unicode="&#x13e;" horiz-adv-x="536" 
d="M358 1505v-1173q0 -70 2 -103q3 -47 30.5 -63t98.5 -10v-158q-75 -10 -147 -10q-96 0 -148.5 41.5t-58.5 140.5q-2 41 -2 156v1179h225z" />
    <glyph glyph-name="Ldot" unicode="&#x13f;" horiz-adv-x="1204" 
d="M1171 186v-186h-976v1413h225v-1227h751zM834 684q-58 0 -98 39t-40 96q0 58 39.5 96.5t98.5 38.5q57 0 96 -38.5t39 -96.5q0 -57 -39 -96t-96 -39z" />
    <glyph glyph-name="ldot" unicode="&#x140;" horiz-adv-x="784" 
d="M358 1505v-1173q0 -70 2 -103q3 -47 30.5 -63t98.5 -10v-158q-75 -10 -147 -10q-96 0 -148.5 41.5t-58.5 140.5q-2 41 -2 156v1179h225zM627 948q57 0 94 -36.5t37 -92.5t-37 -92.5t-94 -36.5t-95 37t-38 92t38 92t95 37z" />
    <glyph glyph-name="Lslash" unicode="&#x141;" horiz-adv-x="1259" 
d="M1225 186v-186h-975v588l-215 -123v160l215 123v665h223v-536l238 137v-160l-238 -137v-531h752z" />
    <glyph glyph-name="lslash" unicode="&#x142;" horiz-adv-x="608" 
d="M414 229q3 -47 30.5 -63t98.5 -10v-158q-75 -10 -148 -10q-96 0 -149.5 41.5t-57.5 140.5q-2 41 -2 156v186l-131 -80v164l131 80v829h224v-696l131 80v-164l-131 -80v-313q0 -70 4 -103z" />
    <glyph glyph-name="Nacute" unicode="&#x143;" horiz-adv-x="1509" 
d="M834 1507h-136l129 209h205zM1362 0h-324l-626 1165q8 -216 8 -489v-676h-225v1413h317l633 -1173q-6 240 -6 493v680h221z" />
    <glyph glyph-name="nacute" unicode="&#x144;" horiz-adv-x="1241" 
d="M899 1417l-211 -233h-135l141 233h205zM1102 805q6 -83 6 -193v-612h-225v588q0 98 -4 153q-8 98 -64 153.5t-166 55.5q-127 0 -204.5 -111t-77.5 -352v-487h-226v1087h226v-180l73 125q62 48 125.5 66t149.5 18q172 0 272 -83t115 -228z" />
    <glyph glyph-name="Ncommaaccent" unicode="&#x145;" horiz-adv-x="1509" 
d="M1362 0h-324l-626 1165q8 -216 8 -489v-676h-225v1413h317l633 -1173q-6 240 -6 493v680h221zM883 -121l-146 -289h-143l123 312h166v-23z" />
    <glyph glyph-name="ncommaaccent" unicode="&#x146;" horiz-adv-x="1241" 
d="M1102 805q6 -83 6 -193v-612h-225v588q0 98 -4 153q-8 98 -64 153.5t-166 55.5q-127 0 -204.5 -111t-77.5 -352v-487h-226v1087h226v-180l73 125q62 48 125.5 66t149.5 18q172 0 272 -83t115 -228zM428 -410l123 312h166v-23l-146 -289h-143z" />
    <glyph glyph-name="Ncaron" unicode="&#x147;" horiz-adv-x="1509" 
d="M694 1507l-135 209h156l63 -125l64 125h153l-135 -209h-166zM1038 0l-626 1165q8 -216 8 -489v-676h-225v1413h317l633 -1173q-6 240 -6 493v680h221l2 -1413h-324z" />
    <glyph glyph-name="ncaron" unicode="&#x148;" horiz-adv-x="1241" 
d="M717 1184h-166l-135 233h151l68 -135l67 135h150zM1102 805q6 -83 6 -193v-612h-225v588q0 98 -4 153q-8 98 -64 153.5t-166 55.5q-127 0 -204.5 -111t-77.5 -352v-487h-226v1087h226v-180l73 125q62 48 125.5 66t149.5 18q172 0 272 -83t115 -228z" />
    <glyph glyph-name="Eng" unicode="&#x14a;" horiz-adv-x="1509" 
d="M1362 1413v-1546q0 -55 -2 -84q-13 -130 -104 -185t-267 -55v174q82 3 115 36.5t33 101.5v88l-725 1210q8 -216 8 -477v-676h-225v1413h317l633 -1091q-6 240 -6 462v629h223z" />
    <glyph glyph-name="eng" unicode="&#x14b;" horiz-adv-x="1241" 
d="M1102 805q6 -83 6 -193v-712q0 -55 -2 -84q-12 -139 -101 -192.5t-284 -53.5v174q81 0 117.5 22t42.5 82q2 16 2 58v682q0 98 -4 153q-8 98 -64 153.5t-166 55.5q-127 0 -204.5 -111t-77.5 -352v-487h-226v1087h226v-180l73 125q62 48 125.5 66t149.5 18q172 0 272 -83
t115 -228z" />
    <glyph glyph-name="Omacron" unicode="&#x14c;" horiz-adv-x="1536" 
d="M1044 1552h-522v129h522v-129zM782 1442q212 0 367 -92.5t234 -258t79 -384.5t-79 -384t-234 -258.5t-367 -93.5q-213 0 -368.5 93.5t-234.5 258.5t-79 384q0 164 46 299.5t132 232t215 150t289 53.5zM782 143q205 0 322 150.5t117 413.5q0 264 -116.5 413.5
t-322.5 149.5q-207 0 -323.5 -149.5t-116.5 -413.5q0 -263 117 -413.5t323 -150.5z" />
    <glyph glyph-name="omacron" unicode="&#x14d;" horiz-adv-x="1218" 
d="M872 1229h-522v129h522v-129zM610 1116q133 0 239.5 -44.5t173.5 -122.5t102.5 -181t35.5 -223t-35.5 -223.5t-102.5 -182t-173.5 -123.5t-239.5 -45q-134 0 -240.5 45t-173.5 123.5t-102 182t-35 223.5t35 223t102 181t173.5 122.5t240.5 44.5zM610 135q146 0 229 111.5
t83 298.5t-83 297t-229 110q-147 0 -230 -110t-83 -297t83 -298.5t230 -111.5z" />
    <glyph glyph-name="Ohungarumlaut" unicode="&#x150;" horiz-adv-x="1536" 
d="M668 1507h-136l130 209h204zM803 1507l129 209h205l-199 -209h-135zM782 1442q212 0 367 -92.5t234 -258t79 -384.5t-79 -384t-234 -258.5t-367 -93.5q-213 0 -368.5 93.5t-234.5 258.5t-79 384q0 164 46 299.5t132 232t215 150t289 53.5zM782 143q205 0 322 150.5
t117 413.5q0 264 -116.5 413.5t-322.5 149.5q-207 0 -323.5 -149.5t-116.5 -413.5q0 -263 117 -413.5t323 -150.5z" />
    <glyph glyph-name="ohungarumlaut" unicode="&#x151;" horiz-adv-x="1218" 
d="M520 1184h-135l139 233h205zM670 1184l139 233h205l-209 -233h-135zM610 1116q133 0 239.5 -44.5t173.5 -122.5t102.5 -181t35.5 -223t-35.5 -223.5t-102.5 -182t-173.5 -123.5t-239.5 -45q-134 0 -240.5 45t-173.5 123.5t-102 182t-35 223.5t35 223t102 181t173.5 122.5
t240.5 44.5zM610 135q146 0 229 111.5t83 298.5t-83 297t-229 110q-147 0 -230 -110t-83 -297t83 -298.5t230 -111.5z" />
    <glyph glyph-name="OE" unicode="&#x152;" horiz-adv-x="2254" 
d="M2198 180v-180h-977v264l-58 -141q-78 -81 -178 -116.5t-240 -35.5q-194 0 -342 96.5t-225.5 263t-77.5 376.5q0 211 77.5 377t225 262t342.5 96q151 0 245 -35t173 -121l58 -141v268h956v-178h-731v-438h674v-179h-674v-438h752zM782 143q204 0 321.5 154t117.5 410
q0 258 -117.5 410.5t-321.5 152.5q-205 0 -322.5 -152t-117.5 -411q0 -256 117.5 -410t322.5 -154z" />
    <glyph glyph-name="oe" unicode="&#x153;" horiz-adv-x="2015" 
d="M1942 571q0 -22 -7 -90h-776q6 -90 30 -158t62.5 -108.5t85.5 -60t103 -19.5q101 0 170 57.5t86 159.5h229q-24 -125 -96 -212.5t-172 -128t-221 -40.5q-276 0 -402 240q-129 -240 -424 -240q-134 0 -240.5 45t-173.5 123.5t-102 182t-35 223.5t35 223t102 181
t173.5 122.5t240.5 44.5q302 0 432 -248q134 248 418 248q150 0 261 -72.5t166 -195t55 -277.5zM610 135q146 0 229 111.5t83 298.5t-83 297t-229 110q-147 0 -230 -110t-83 -297t83 -298.5t230 -111.5zM1161 639h549q-14 153 -79.5 233t-182.5 80q-119 0 -193.5 -80
t-93.5 -233z" />
    <glyph glyph-name="Racute" unicode="&#x154;" horiz-adv-x="1300" 
d="M737 1507h-135l129 209h205zM1167 365q12 -137 34.5 -222.5t64.5 -142.5h-248q-50 125 -72 336q-14 118 -62 182t-141 70q-35 2 -104 2h-219v-590h-225v1413h487q127 0 195 -8q165 -22 261.5 -113.5t96.5 -263.5q0 -132 -71.5 -217t-190.5 -121q170 -74 194 -325z
M420 764h235q92 0 127 4q98 10 156.5 67t58.5 164q0 108 -50 161.5t-146 66.5q-49 8 -131 8h-250v-471z" />
    <glyph glyph-name="racute" unicode="&#x155;" horiz-adv-x="722" 
d="M446 1184h-135l142 233h204zM627 1114q41 0 75 -12v-176q-160 11 -247.5 -77.5t-87.5 -283.5v-565h-226v1087h226v-184l92 150q77 61 168 61z" />
    <glyph glyph-name="Rcommaaccent" unicode="&#x156;" horiz-adv-x="1300" 
d="M1167 365q12 -137 34.5 -222.5t64.5 -142.5h-248q-50 125 -72 336q-14 118 -62 182t-141 70q-35 2 -104 2h-219v-590h-225v1413h487q127 0 195 -8q165 -22 261.5 -113.5t96.5 -263.5q0 -132 -71.5 -217t-190.5 -121q170 -74 194 -325zM420 764h235q92 0 127 4
q98 10 156.5 67t58.5 164q0 108 -50 161.5t-146 66.5q-49 8 -131 8h-250v-471zM608 -98h166v-23l-145 -289h-144z" />
    <glyph glyph-name="rcommaaccent" unicode="&#x157;" horiz-adv-x="722" 
d="M627 1114q41 0 75 -12v-176q-160 11 -247.5 -77.5t-87.5 -283.5v-565h-226v1087h226v-184l92 150q77 61 168 61zM184 -98h166v-23l-145 -289h-144z" />
    <glyph glyph-name="Rcaron" unicode="&#x158;" horiz-adv-x="1300" 
d="M598 1507l-135 209h155l64 -125l63 125h154l-135 -209h-166zM1167 365q12 -137 34.5 -222.5t64.5 -142.5h-248q-50 125 -72 336q-14 118 -62 182t-141 70q-35 2 -104 2h-219v-590h-225v1413h487q127 0 195 -8q165 -22 261.5 -113.5t96.5 -263.5q0 -132 -71.5 -217
t-190.5 -121q170 -74 194 -325zM420 764h235q92 0 127 4q98 10 156.5 67t58.5 164q0 108 -50 161.5t-146 66.5q-49 8 -131 8h-250v-471z" />
    <glyph glyph-name="rcaron" unicode="&#x159;" horiz-adv-x="722" 
d="M309 1184l-135 233h152l67 -135l68 135h149l-135 -233h-166zM627 1114q41 0 75 -12v-176q-160 11 -247.5 -77.5t-87.5 -283.5v-565h-226v1087h226v-184l92 150q77 61 168 61z" />
    <glyph glyph-name="Sacute" unicode="&#x15a;" horiz-adv-x="1218" 
d="M692 1507h-135l129 209h205zM647 1442q225 0 349 -117.5t147 -312.5h-234q-12 123 -82 190.5t-192 67.5q-105 0 -171.5 -49.5t-66.5 -145.5q0 -102 68.5 -157.5t234.5 -94.5q236 -55 347.5 -160t111.5 -280q0 -124 -68.5 -219t-182 -144t-251.5 -49q-245 0 -391 113.5
t-168 325.5h234q27 -129 113 -198t212 -69q113 0 189 57.5t76 151.5q0 110 -72 173.5t-244 103.5q-107 25 -184 56.5t-138.5 79t-92.5 115.5t-31 158q0 121 67 214.5t177 141.5t243 48z" />
    <glyph glyph-name="sacute" unicode="&#x15b;" horiz-adv-x="974" 
d="M760 1417l-211 -233h-135l141 233h205zM492 1116q182 0 288 -92.5t125 -247.5h-229q-18 88 -68.5 135t-132.5 47q-77 0 -117.5 -38.5t-40.5 -102.5q0 -70 56 -109t186 -73q186 -48 274.5 -128t88.5 -220q0 -152 -118.5 -234t-305.5 -82q-189 0 -309 88.5t-142 266.5h227
q19 -100 80.5 -147.5t151.5 -47.5q82 0 135 35.5t53 103.5q0 70 -59 114t-199 81q-80 20 -139 46t-107.5 64t-74 92.5t-25.5 123.5q0 151 109.5 238t292.5 87z" />
    <glyph glyph-name="Scedilla" unicode="&#x15e;" horiz-adv-x="1218" 
d="M1159 383q0 -121 -65.5 -215t-174 -143.5t-241.5 -53.5l-29 -55q85 -10 128.5 -52.5t43.5 -113.5q0 -88 -74.5 -134t-199.5 -46q-66 0 -107 16v105q49 -21 111 -21q63 0 95 21t32 59q0 49 -46.5 70t-150.5 14l74 143q-200 22 -319 133t-138 300h234q27 -129 113 -198
t212 -69q113 0 189 57.5t76 151.5q0 110 -72 173.5t-244 103.5q-107 25 -184 56.5t-138.5 79t-92.5 115.5t-31 158q0 121 67 214.5t177 141.5t243 48q225 0 349 -117.5t147 -312.5h-234q-12 123 -82 190.5t-192 67.5q-105 0 -171.5 -49.5t-66.5 -145.5q0 -102 68.5 -157.5
t234.5 -94.5q236 -55 347.5 -160t111.5 -280z" />
    <glyph glyph-name="scedilla" unicode="&#x15f;" horiz-adv-x="974" 
d="M922 287q0 -140 -100.5 -220.5t-264.5 -93.5l-29 -57q85 -10 128.5 -52.5t43.5 -113.5q0 -88 -74.5 -134t-199.5 -46q-66 0 -107 16v105q49 -21 111 -21q63 0 95 21t32 59q0 49 -46.5 70t-150.5 14l74 139q-162 14 -264 102.5t-123 250.5h227q19 -100 80.5 -147.5
t151.5 -47.5q82 0 135 35.5t53 103.5q0 70 -59 114t-199 81q-80 20 -139 46t-107.5 64t-74 92.5t-25.5 123.5q0 151 109.5 238t292.5 87q182 0 288 -92.5t125 -247.5h-229q-18 88 -68.5 135t-132.5 47q-77 0 -117.5 -38.5t-40.5 -102.5q0 -70 56 -109t186 -73
q186 -48 274.5 -128t88.5 -220z" />
    <glyph glyph-name="Scaron" unicode="&#x160;" horiz-adv-x="1218" 
d="M553 1507l-135 209h155l64 -125l63 125h154l-135 -209h-166zM700 823q236 -55 347.5 -160t111.5 -280q0 -124 -68.5 -219t-182 -144t-251.5 -49q-245 0 -391 113.5t-168 325.5h234q27 -129 113 -198t212 -69q113 0 189 57.5t76 151.5q0 110 -72 173.5t-244 103.5
q-107 25 -184 56.5t-138.5 79t-92.5 115.5t-31 158q0 121 67 214.5t177 141.5t243 48q225 0 349 -117.5t147 -312.5h-234q-12 123 -82 190.5t-192 67.5q-105 0 -171.5 -49.5t-66.5 -145.5q0 -102 68.5 -157.5t234.5 -94.5z" />
    <glyph glyph-name="scaron" unicode="&#x161;" horiz-adv-x="974" 
d="M578 1184h-166l-136 233h152l68 -135l67 135h150zM559 635q186 -48 274.5 -128t88.5 -220q0 -152 -118.5 -234t-305.5 -82q-189 0 -309 88.5t-142 266.5h227q19 -100 80.5 -147.5t151.5 -47.5q82 0 135 35.5t53 103.5q0 70 -59 114t-199 81q-80 20 -139 46t-107.5 64
t-74 92.5t-25.5 123.5q0 151 109.5 238t292.5 87q182 0 288 -92.5t125 -247.5h-229q-18 88 -68.5 135t-132.5 47q-77 0 -117.5 -38.5t-40.5 -102.5q0 -70 56 -109t186 -73z" />
    <glyph glyph-name="Tcedilla" unicode="&#x162;" horiz-adv-x="1263" 
d="M729 0l-43 -84q85 -10 128.5 -52.5t43.5 -113.5q0 -88 -74.5 -134t-199.5 -46q-66 0 -107 16v105q49 -21 111 -21q63 0 95 21t32 59q0 49 -46.5 70t-150.5 14l86 166h-51v1235h-494v178h1211v-178h-494v-1235h-47z" />
    <glyph glyph-name="tcedilla" unicode="&#x163;" horiz-adv-x="686" 
d="M410 922v-570q0 -61 2 -90q6 -79 45.5 -102.5t150.5 -12.5v-155q-86 -12 -166 -12h-4l-32 -64q85 -10 128.5 -52.5t43.5 -113.5q0 -88 -75 -134t-200 -46q-65 0 -106 16v105q49 -21 110 -21q63 0 95 21t32 59q0 49 -46 70t-150 14l84 160q-122 38 -134 192q-2 37 -2 146
v590h-153v157h153v260h224v-260h213v-157h-213z" />
    <glyph glyph-name="Tcaron" unicode="&#x164;" horiz-adv-x="1263" 
d="M582 1507l-136 209h156l64 -125l63 125h154l-135 -209h-166zM1270 1235h-494v-1235h-223v1235h-494v178h1211v-178z" />
    <glyph glyph-name="tcaron" unicode="&#x165;" horiz-adv-x="667" 
d="M770 1505v-22l-145 -291h-144l123 313h166zM410 1079h213v-157h-213v-570q0 -61 2 -90q6 -79 45.5 -102.5t150.5 -12.5v-155q-86 -12 -166 -12q-127 0 -186.5 49t-67.5 157q-2 37 -2 146v590h-153v157h153v260h224v-260z" />
    <glyph glyph-name="Tbar" unicode="&#x166;" horiz-adv-x="1263" 
d="M776 1235v-481h219v-136h-219v-618h-223v618h-219v136h219v481h-494v178h1211v-178h-494z" />
    <glyph glyph-name="tbar" unicode="&#x167;" horiz-adv-x="686" 
d="M410 922v-211h163v-129h-163v-230q0 -61 2 -90q6 -79 45.5 -102.5t150.5 -12.5v-155q-86 -12 -166 -12q-127 0 -186.5 49t-67.5 157q-2 37 -2 146v250h-135v129h135v211h-153v157h153v260h224v-260h213v-157h-213z" />
    <glyph glyph-name="Umacron" unicode="&#x16a;" horiz-adv-x="1415" 
d="M995 1552h-522v129h522v-129zM1288 1413v-866q0 -93 -4 -146q-8 -91 -43.5 -167t-100.5 -136t-169 -93.5t-238 -33.5t-238 33.5t-169 93.5t-100 136t-42 167q-4 53 -4 146v866h223v-870q0 -74 5 -115q11 -132 94 -208.5t231 -76.5q150 0 233.5 76.5t94.5 208.5
q4 33 4 115v870h223z" />
    <glyph glyph-name="umacron" unicode="&#x16b;" horiz-adv-x="1236" 
d="M868 1229h-522v129h522v-129zM1090 1087v-1087h-224v186l-75 -135q-63 -44 -126.5 -62t-148.5 -18q-161 0 -261 79t-120 198q-10 69 -10 192v647h223v-602q0 -76 8 -149q12 -92 72 -144.5t162 -52.5q127 0 201.5 105.5t74.5 330.5v512h224z" />
    <glyph glyph-name="Uring" unicode="&#x16e;" horiz-adv-x="1415" 
d="M733 1821q88 0 144.5 -49.5t56.5 -126.5q0 -76 -56.5 -125.5t-144.5 -49.5t-144.5 49.5t-56.5 125.5q0 77 56.5 126.5t144.5 49.5zM733 1731q-36 0 -59 -24t-23 -62q0 -37 23.5 -61.5t58.5 -24.5t58.5 24.5t23.5 61.5q0 38 -23 62t-59 24zM1288 1413v-866q0 -93 -4 -146
q-8 -91 -43.5 -167t-100.5 -136t-169 -93.5t-238 -33.5t-238 33.5t-169 93.5t-100 136t-42 167q-4 53 -4 146v866h223v-870q0 -74 5 -115q11 -132 94 -208.5t231 -76.5q150 0 233.5 76.5t94.5 208.5q4 33 4 115v870h223z" />
    <glyph glyph-name="uring" unicode="&#x16f;" horiz-adv-x="1236" 
d="M606 1159q-88 0 -144 51t-56 131q0 82 56 133.5t144 51.5t144.5 -51.5t56.5 -133.5q0 -79 -56.5 -130.5t-144.5 -51.5zM606 1438q-36 0 -59 -26.5t-23 -70.5q0 -43 23 -68.5t59 -25.5t59 25.5t23 68.5q0 44 -23 70.5t-59 26.5zM1090 1087v-1087h-224v186l-75 -135
q-63 -44 -126.5 -62t-148.5 -18q-161 0 -261 79t-120 198q-10 69 -10 192v647h223v-602q0 -76 8 -149q12 -92 72 -144.5t162 -52.5q127 0 201.5 105.5t74.5 330.5v512h224z" />
    <glyph glyph-name="Uhungarumlaut" unicode="&#x170;" horiz-adv-x="1415" 
d="M618 1507h-135l129 209h205zM889 1507h-135l129 209h204zM1288 1413v-866q0 -93 -4 -146q-8 -91 -43.5 -167t-100.5 -136t-169 -93.5t-238 -33.5t-238 33.5t-169 93.5t-100 136t-42 167q-4 53 -4 146v866h223v-870q0 -74 5 -115q11 -132 94 -208.5t231 -76.5
q150 0 233.5 76.5t94.5 208.5q4 33 4 115v870h223z" />
    <glyph glyph-name="uhungarumlaut" unicode="&#x171;" horiz-adv-x="1236" 
d="M516 1184h-135l139 233h205zM666 1184l139 233h205l-209 -233h-135zM1090 1087v-1087h-224v186l-75 -135q-63 -44 -126.5 -62t-148.5 -18q-161 0 -261 79t-120 198q-10 69 -10 192v647h223v-602q0 -76 8 -149q12 -92 72 -144.5t162 -52.5q127 0 201.5 105.5t74.5 330.5
v512h224z" />
    <glyph glyph-name="Uogonek" unicode="&#x172;" horiz-adv-x="1415" 
d="M1288 1413v-866q0 -93 -4 -146q-13 -152 -102.5 -261t-259.5 -148q-59 -23 -97.5 -80t-38.5 -131q0 -103 91 -103q56 0 108 41v-112q-83 -64 -207 -64q-200 0 -200 174q0 78 36.5 143.5t96.5 110.5q-128 3 -227.5 37.5t-162 94t-96.5 134.5t-41 164q-4 53 -4 146v866h223
v-870q0 -74 5 -115q11 -132 94 -208.5t231 -76.5q150 0 233.5 76.5t94.5 208.5q4 33 4 115v870h223z" />
    <glyph glyph-name="uogonek" unicode="&#x173;" horiz-adv-x="1236" 
d="M1090 0h-64q-70 -11 -119 -72.5t-49 -146.5q0 -103 90 -103q57 0 109 41v-112q-83 -64 -207 -64q-201 0 -201 174q0 104 62.5 184.5t154.5 118.5v166l-75 -135q-63 -44 -126.5 -62t-148.5 -18q-161 0 -261 79t-120 198q-10 69 -10 192v647h223v-602q0 -76 8 -149
q12 -92 72 -144.5t162 -52.5q127 0 201.5 105.5t74.5 330.5v512h224v-1087z" />
    <glyph glyph-name="Wcircumflex" unicode="&#x174;" horiz-adv-x="1982" 
d="M954 1507h-153l135 209h166l135 -209h-156l-63 123zM1978 1413l-385 -1413h-297l-282 1204l-297 -1204h-299l-365 1413h248l270 -1227l293 1207h310l284 -1213l287 1233h233z" />
    <glyph glyph-name="wcircumflex" unicode="&#x175;" horiz-adv-x="1650" 
d="M760 1184h-150l135 233h166l136 -233h-152l-68 133zM1645 1087l-347 -1087h-258l-215 879l-217 -879h-260l-346 1087h254l223 -886l211 884h275l217 -886l223 888h240z" />
    <glyph glyph-name="Ycircumflex" unicode="&#x176;" horiz-adv-x="1232" 
d="M584 1507h-154l135 209h166l135 -209h-155l-64 123zM760 553v-553h-223v553l-500 860h256l364 -653l353 653h250z" />
    <glyph glyph-name="ycircumflex" unicode="&#x177;" horiz-adv-x="1099" 
d="M481 1184h-149l135 233h166l135 -233h-152l-67 133zM1094 1087l-443 -1157q-75 -194 -170 -277t-243 -83q-74 0 -107 6v166q27 -2 72 -2q79 0 132 39t89 131l16 39l-438 1138h252l299 -919l297 919h244z" />
    <glyph glyph-name="Ydieresis" unicode="&#x178;" horiz-adv-x="1232" 
d="M489 1501q-46 0 -78 31.5t-32 77.5t32 77t78 31t77.5 -31t31.5 -77t-31.5 -77.5t-77.5 -31.5zM807 1501q-46 0 -78.5 31.5t-32.5 77.5q0 45 32.5 76.5t78.5 31.5t77 -31t31 -77t-31 -77.5t-77 -31.5zM760 553v-553h-223v553l-500 860h256l364 -653l353 653h250z" />
    <glyph glyph-name="Zacute" unicode="&#x179;" horiz-adv-x="1239" 
d="M702 1507h-135l129 209h205zM1190 180v-180h-1092v172l820 1063h-762v178h1024v-176l-813 -1057h823z" />
    <glyph glyph-name="zacute" unicode="&#x17a;" horiz-adv-x="978" 
d="M551 1184h-135l141 233h205zM920 162v-162h-871v156l613 762h-572v161h821v-161l-608 -756h617z" />
    <glyph glyph-name="Zdotaccent" unicode="&#x17b;" horiz-adv-x="1239" 
d="M645 1503q-51 0 -85 33t-34 84q0 49 34 82t85 33t85 -33t34 -82q0 -51 -34 -84t-85 -33zM1190 180v-180h-1092v172l820 1063h-762v178h1024v-176l-813 -1057h823z" />
    <glyph glyph-name="zdotaccent" unicode="&#x17c;" horiz-adv-x="978" 
d="M496 1206q-57 0 -94 37t-37 94q0 56 37 92.5t94 36.5t95 -37t38 -92q0 -57 -38 -94t-95 -37zM920 162v-162h-871v156l613 762h-572v161h821v-161l-608 -756h617z" />
    <glyph glyph-name="Zcaron" unicode="&#x17d;" horiz-adv-x="1239" 
d="M563 1507l-135 209h156l63 -125l64 125h153l-135 -209h-166zM1190 180v-180h-1092v172l820 1063h-762v178h1024v-176l-813 -1057h823z" />
    <glyph glyph-name="zcaron" unicode="&#x17e;" horiz-adv-x="978" 
d="M414 1184l-135 233h151l68 -135l67 135h150l-135 -233h-166zM920 162v-162h-871v156l613 762h-572v161h821v-161l-608 -756h617z" />
    <glyph glyph-name="Scommaaccent" unicode="&#x218;" horiz-adv-x="1218" 
d="M647 1442q225 0 349 -117.5t147 -312.5h-234q-12 123 -82 190.5t-192 67.5q-105 0 -171.5 -49.5t-66.5 -145.5q0 -102 68.5 -157.5t234.5 -94.5q236 -55 347.5 -160t111.5 -280q0 -124 -68.5 -219t-182 -144t-251.5 -49q-245 0 -391 113.5t-168 325.5h234
q27 -129 113 -198t212 -69q113 0 189 57.5t76 151.5q0 110 -72 173.5t-244 103.5q-107 25 -184 56.5t-138.5 79t-92.5 115.5t-31 158q0 121 67 214.5t177 141.5t243 48zM733 -121l-145 -289h-144l123 312h166v-23z" />
    <glyph glyph-name="scommaaccent" unicode="&#x219;" horiz-adv-x="974" 
d="M492 1116q182 0 288 -92.5t125 -247.5h-229q-18 88 -68.5 135t-132.5 47q-77 0 -117.5 -38.5t-40.5 -102.5q0 -70 56 -109t186 -73q186 -48 274.5 -128t88.5 -220q0 -152 -118.5 -234t-305.5 -82q-189 0 -309 88.5t-142 266.5h227q19 -100 80.5 -147.5t151.5 -47.5
q82 0 135 35.5t53 103.5q0 70 -59 114t-199 81q-80 20 -139 46t-107.5 64t-74 92.5t-25.5 123.5q0 151 109.5 238t292.5 87zM604 -98v-23l-145 -289h-144l123 312h166z" />
    <glyph glyph-name="uni021A" unicode="&#x21a;" horiz-adv-x="1263" 
d="M1270 1235h-494v-1235h-223v1235h-494v178h1211v-178zM604 -98h166v-23l-145 -289h-144z" />
    <glyph glyph-name="uni021B" unicode="&#x21b;" horiz-adv-x="686" 
d="M410 922v-570q0 -61 2 -90q6 -79 45.5 -102.5t150.5 -12.5v-155q-86 -12 -166 -12q-127 0 -186.5 49t-67.5 157q-2 37 -2 146v590h-153v157h153v260h224v-260h213v-157h-213zM315 -98h166v-23l-145 -289h-143z" />
    <glyph glyph-name="circumflex" unicode="&#x2c6;" horiz-adv-x="614" 
d="M375 1184l-68 133l-67 -133h-150l135 233h166l135 -233h-151z" />
    <glyph glyph-name="caron" unicode="&#x2c7;" horiz-adv-x="614" 
d="M526 1417l-135 -233h-166l-135 233h152l67 -135l68 135h149z" />
    <glyph glyph-name="breve" unicode="&#x2d8;" horiz-adv-x="614" 
d="M406 1417h126q0 -256 -225 -256q-112 0 -168.5 62t-56.5 194h127q3 -129 98 -129q96 0 99 129z" />
    <glyph glyph-name="dotaccent" unicode="&#x2d9;" horiz-adv-x="614" 
d="M307 1466q57 0 95 -37t38 -92q0 -57 -38 -94t-95 -37t-94 37t-37 94q0 56 37 92.5t94 36.5z" />
    <glyph glyph-name="ring" unicode="&#x2da;" horiz-adv-x="614" 
d="M307 1526q88 0 144.5 -51.5t56.5 -133.5q0 -79 -56.5 -130.5t-144.5 -51.5t-144.5 51.5t-56.5 130.5q0 82 56.5 133.5t144.5 51.5zM307 1438q-36 0 -59 -26.5t-23 -70.5q0 -43 23 -68.5t59 -25.5t59 25.5t23 68.5q0 44 -23 70.5t-59 26.5z" />
    <glyph glyph-name="ogonek" unicode="&#x2db;" horiz-adv-x="614" 
d="M307 20l160 -20q-70 -11 -119 -72.5t-49 -146.5q0 -103 90 -103q57 0 109 41v-112q-83 -64 -207 -64q-201 0 -201 174q0 104 62.5 184.5t154.5 118.5z" />
    <glyph glyph-name="tilde" unicode="&#x2dc;" horiz-adv-x="614" 
d="M186 1393q64 0 138 -29q68 -25 90 -25q17 0 24.5 10.5t7.5 36.5h109q0 -98 -31.5 -138t-95.5 -40q-49 0 -137 29q-68 25 -90 25q-33 0 -33 -45h-107q0 96 31 136t94 40z" />
    <glyph glyph-name="hungarumlaut" unicode="&#x2dd;" horiz-adv-x="614" 
d="M217 1184h-135l139 233h205zM502 1184h-135l139 233h205z" />
    <glyph glyph-name="uni0326" unicode="&#x326;" horiz-adv-x="0" 
d="M414 -121l-146 -289h-143l123 312h166v-23z" />
    <glyph glyph-name="Wgrave" unicode="&#x1e80;" horiz-adv-x="1982" 
d="M963 1507l-199 209h205l129 -209h-135zM1978 1413l-385 -1413h-297l-282 1204l-297 -1204h-299l-365 1413h248l270 -1227l293 1207h310l284 -1213l287 1233h233z" />
    <glyph glyph-name="wgrave" unicode="&#x1e81;" horiz-adv-x="1650" 
d="M776 1184l-209 233h205l139 -233h-135zM1645 1087l-347 -1087h-258l-215 879l-217 -879h-260l-346 1087h254l223 -886l211 884h275l217 -886l223 888h240z" />
    <glyph glyph-name="Wacute" unicode="&#x1e82;" horiz-adv-x="1982" 
d="M1075 1507h-135l129 209h205zM1978 1413l-385 -1413h-297l-282 1204l-297 -1204h-299l-365 1413h248l270 -1227l293 1207h310l284 -1213l287 1233h233z" />
    <glyph glyph-name="wacute" unicode="&#x1e83;" horiz-adv-x="1650" 
d="M883 1184h-135l141 233h205zM1645 1087l-347 -1087h-258l-215 879l-217 -879h-260l-346 1087h254l223 -886l211 884h275l217 -886l223 888h240z" />
    <glyph glyph-name="Wdieresis" unicode="&#x1e84;" horiz-adv-x="1982" 
d="M860 1501q-46 0 -78 31.5t-32 77.5t32 77t78 31t77.5 -31t31.5 -77t-31.5 -77.5t-77.5 -31.5zM1178 1501q-46 0 -78.5 31.5t-32.5 77.5q0 45 32.5 76.5t78.5 31.5t77 -31t31 -77t-31 -77.5t-77 -31.5zM1978 1413l-385 -1413h-297l-282 1204l-297 -1204h-299l-365 1413
h248l270 -1227l293 1207h310l284 -1213l287 1233h233z" />
    <glyph glyph-name="wdieresis" unicode="&#x1e85;" horiz-adv-x="1650" 
d="M664 1188q-46 0 -77.5 30.5t-31.5 75.5q0 46 31.5 77.5t77.5 31.5t78 -31.5t32 -77.5q0 -45 -32 -75.5t-78 -30.5zM991 1188q-46 0 -77 30t-31 76t31 77.5t77 31.5t77.5 -31.5t31.5 -77.5q0 -45 -31.5 -75.5t-77.5 -30.5zM1645 1087l-347 -1087h-258l-215 879l-217 -879
h-260l-346 1087h254l223 -886l211 884h275l217 -886l223 888h240z" />
    <glyph glyph-name="Ygrave" unicode="&#x1ef2;" horiz-adv-x="1232" 
d="M592 1507l-199 209h205l129 -209h-135zM760 553v-553h-223v553l-500 860h256l364 -653l353 653h250z" />
    <glyph glyph-name="ygrave" unicode="&#x1ef3;" horiz-adv-x="1099" 
d="M498 1184l-209 233h205l139 -233h-135zM1094 1087l-443 -1157q-75 -194 -170 -277t-243 -83q-74 0 -107 6v166q27 -2 72 -2q79 0 132 39t89 131l16 39l-438 1138h252l299 -919l297 919h244z" />
    <glyph glyph-name="endash" unicode="&#x2013;" horiz-adv-x="1024" 
d="M870 530h-716v136h716v-136z" />
    <glyph glyph-name="emdash" unicode="&#x2014;" horiz-adv-x="2048" 
d="M1894 530h-1740v136h1740v-136z" />
    <glyph glyph-name="quoteleft" unicode="&#x2018;" horiz-adv-x="544" 
d="M113 991l200 514h189l-160 -534h-229v20z" />
    <glyph glyph-name="quoteright" unicode="&#x2019;" horiz-adv-x="544" 
d="M432 1485l-201 -514h-188l160 534h229v-20z" />
    <glyph glyph-name="quotesinglbase" unicode="&#x201a;" horiz-adv-x="475" 
d="M328 221l-193 -469h-196l161 490h228v-21z" />
    <glyph glyph-name="quotedblleft" unicode="&#x201c;" horiz-adv-x="927" 
d="M113 991l200 516h189l-160 -536h-229v20zM496 991l200 516h189l-160 -536h-229v20z" />
    <glyph glyph-name="quotedblright" unicode="&#x201d;" horiz-adv-x="927" 
d="M432 1485l-201 -514h-188l160 534h229v-20zM815 1485l-199 -514h-190l162 534h227v-20z" />
    <glyph glyph-name="quotedblbase" unicode="&#x201e;" horiz-adv-x="858" 
d="M328 221l-193 -469h-196l161 490h228v-21zM713 221l-195 -469h-194l159 490h230v-21z" />
    <glyph glyph-name="dagger" unicode="&#x2020;" horiz-adv-x="1136" 
d="M1032 748l-368 14l24 -1090h-239l24 1088l-369 -12v196l367 -12l-22 481h239l-22 -481l366 12v-196z" />
    <glyph glyph-name="daggerdbl" unicode="&#x2021;" horiz-adv-x="1136" 
d="M664 762v-438l368 14v-197l-366 13l22 -482h-239l22 482l-367 -13v197l369 -12v434l-369 -12v196l367 -12l-22 481h239l-22 -481l366 12v-196z" />
    <glyph glyph-name="bullet" unicode="&#x2022;" horiz-adv-x="759" 
d="M381 852q97 0 161 -64.5t64 -162.5t-64 -162t-161 -64q-98 0 -162.5 64t-64.5 162t64.5 162.5t162.5 64.5z" />
    <glyph glyph-name="ellipsis" unicode="&#x2026;" horiz-adv-x="1376" 
d="M227 270q65 0 107.5 -41.5t42.5 -107.5q0 -65 -42.5 -107.5t-107.5 -42.5q-66 0 -107.5 42.5t-41.5 107.5q0 66 41.5 107.5t107.5 41.5zM678 270q65 0 107 -41.5t42 -107.5q0 -65 -42.5 -107.5t-106.5 -42.5q-66 0 -108 42.5t-42 107.5q0 66 42 107.5t108 41.5zM1128 270
q65 0 107.5 -41.5t42.5 -107.5q0 -65 -43 -107.5t-107 -42.5q-66 0 -107.5 42.5t-41.5 107.5q0 66 41.5 107.5t107.5 41.5z" />
    <glyph glyph-name="perthousand" unicode="&#x2030;" horiz-adv-x="2234" 
d="M698 1106q0 -153 -83.5 -242.5t-225.5 -89.5q-143 0 -226 89t-83 243q0 153 83 241.5t226 88.5q142 0 225.5 -88.5t83.5 -241.5zM1329 1413l-917 -1413h-197l918 1413h196zM264 1106q0 -95 33 -146t92 -51q58 0 91.5 51.5t33.5 145.5t-33.5 144t-91.5 50q-59 0 -92 -50
t-33 -144zM1149 633q143 0 226 -88.5t83 -241.5q0 -154 -83 -243t-226 -89q-142 0 -225.5 89.5t-83.5 242.5t83.5 241.5t225.5 88.5zM1845 633q143 0 226 -88.5t83 -241.5q0 -154 -83 -243t-226 -89q-142 0 -225.5 89.5t-83.5 242.5t83.5 241.5t225.5 88.5zM1149 106
q59 0 92 51t33 146q0 94 -33 144.5t-92 50.5q-58 0 -91.5 -50.5t-33.5 -144.5t33.5 -145.5t91.5 -51.5zM1845 106q59 0 92 51t33 146q0 94 -33 144.5t-92 50.5q-58 0 -91.5 -50.5t-33.5 -144.5t33.5 -145.5t91.5 -51.5z" />
    <glyph glyph-name="guilsinglleft" unicode="&#x2039;" horiz-adv-x="829" 
d="M719 848l-281 -340l281 -340h-178l-281 340l281 340h178z" />
    <glyph glyph-name="guilsinglright" unicode="&#x203a;" horiz-adv-x="811" 
d="M569 508l-280 -340h-178l280 340l-280 340h178z" />
    <glyph glyph-name="fraction" unicode="&#x2044;" horiz-adv-x="550" 
d="M-86 0h-197l918 1413h196z" />
    <glyph glyph-name="Euro" unicode="&#x20ac;" 
d="M967 514h-506q28 -195 121 -283t249 -88q173 0 302 82v-176q-137 -78 -332 -78q-256 0 -404 126.5t-182 416.5h-149l24 135h115v51q0 40 2 58h-98l26 135h84q43 274 205 411.5t407 137.5q240 0 355 -127l-96 -144q-99 99 -256 99q-313 0 -373 -377h575l-28 -135h-559v-49
v-60h540z" />
    <glyph glyph-name="trademark" unicode="&#x2122;" horiz-adv-x="1103" 
d="M451 1352v-86h-150v-332h-108v332h-150v86h408zM985 1350v-416h-108l4 291l-82 -283h-113l-80 281l2 -289h-108v416h162l83 -310l82 310h158z" />
    <glyph glyph-name="partialdiff" unicode="&#x2202;" 
d="M561 1552q124 0 222 -44t162 -119t106 -182t59.5 -226.5t17.5 -259.5q0 -159 -26 -285.5t-73.5 -212.5t-115.5 -143.5t-149.5 -83t-179.5 -25.5q-101 0 -189.5 33t-157 95.5t-108 163t-39.5 226.5q0 151 57 270t173.5 190t275.5 71q99 0 172.5 -34.5t114.5 -94.5
q-6 87 -20 158t-40.5 134.5t-64 107t-92.5 68.5t-125 25q-93 0 -158 -24t-135 -80l-86 139q91 71 183 102t216 31zM600 141q284 0 293 543q-82 166 -275 166q-142 0 -215 -94.5t-73 -259.5q0 -172 74.5 -263.5t195.5 -91.5z" />
    <glyph glyph-name="emptyset" unicode="&#x2205;" horiz-adv-x="1716" 
d="M1642 1403l-165 -166q178 -219 178 -510q0 -221 -106.5 -406.5t-289.5 -293t-401 -107.5q-292 0 -510 186l-174 -174l-98 101l172 172q-89 108 -138 241.5t-49 280.5q0 221 106.5 406.5t289.5 293t401 107.5q148 0 282 -51.5t240 -145.5l164 164zM213 727
q0 -236 139 -418l926 926q-181 160 -420 160q-177 0 -325.5 -89t-234 -242.5t-85.5 -336.5zM858 59q133 0 252.5 52.5t205.5 141.5t136.5 212.5t50.5 261.5q0 225 -131 406l-923 -924q177 -150 409 -150z" />
    <glyph glyph-name="product" unicode="&#x220f;" 
d="M1163 1235h-123v-1460h-223v1460h-403v-1460h-224v1460h-122v178h1095v-178z" />
    <glyph glyph-name="summation" unicode="&#x2211;" 
d="M1137 -47v-178h-1039v162l549 679l-487 635v162h964v-178h-696l479 -621l-542 -661h772z" />
    <glyph glyph-name="minus" unicode="&#x2212;" 
d="M1053 586h-875v135h875v-135z" />
    <glyph glyph-name="radical" unicode="&#x221a;" 
d="M1159 1597l-444 -1925h-180l-261 832h-143v131h256l236 -787l387 1749h149z" />
    <glyph glyph-name="infinity" unicode="&#x221e;" horiz-adv-x="2037" 
d="M1475 1114q123 0 220 -44t159 -122t94 -181t32 -224q0 -120 -32.5 -223t-94.5 -181.5t-160.5 -123t-222.5 -44.5q-314 0 -458 303q-77 -159 -183.5 -231t-265.5 -72q-123 0 -220 44.5t-158.5 123t-93.5 181.5t-32 223q0 121 32 224t94 181t160.5 122t223.5 44
q315 0 459 -303q77 159 182.5 231t264.5 72zM573 135q116 0 198.5 99.5t107.5 308.5q-73 407 -306 407q-122 0 -199 -113t-77 -294t77 -294.5t199 -113.5zM1464 135q123 0 200 113.5t77 294.5t-77 294t-200 113q-115 0 -196.5 -98.5t-106.5 -308.5q73 -408 303 -408z" />
    <glyph glyph-name="integral" unicode="&#x222b;" horiz-adv-x="1228" 
d="M715 1544q55 0 92.5 -9.5t75.5 -35.5l-31 -129q-54 39 -125 39q-68 0 -111 -58.5t-43 -168.5q0 -96 21.5 -207t93.5 -352q66 -222 91.5 -348.5t25.5 -227.5q0 -174 -80.5 -274.5t-210.5 -100.5q-55 0 -92.5 9.5t-75.5 35.5l31 129q54 -39 125 -39q68 0 110.5 59.5
t42.5 170.5q0 97 -21 207t-93 350q-66 223 -91.5 348.5t-25.5 228.5q0 172 80.5 272.5t210.5 100.5z" />
    <glyph glyph-name="approxequal" unicode="&#x2248;" 
d="M399 928q57 0 104.5 -18t137.5 -66q75 -40 115.5 -56t79.5 -16q47 0 83 23.5t70 74.5l96 -84q-54 -85 -114.5 -123t-143.5 -38q-57 0 -103.5 17.5t-137.5 66.5q-53 28 -78 40t-56.5 21.5t-58.5 9.5q-47 0 -83 -23.5t-70 -76.5l-97 90q54 84 114 121t142 37zM399 580
q57 0 104.5 -18t137.5 -66q75 -40 115.5 -56t79.5 -16q47 0 83 23.5t70 74.5l96 -84q-54 -85 -114.5 -123.5t-143.5 -38.5q-57 0 -103.5 17.5t-137.5 66.5q-55 29 -78.5 40t-55.5 21.5t-59 10.5q-47 0 -83 -23.5t-70 -76.5l-97 90q54 84 114 121t142 37z" />
    <glyph glyph-name="notequal" unicode="&#x2260;" 
d="M770 786l-154 -278h447v-131h-520l-107 -191h-155l106 191h-219v131h293l153 278h-446v132h520l107 190h155l-106 -190h219v-132h-293z" />
    <glyph glyph-name="lessequal" unicode="&#x2264;" 
d="M1071 893l-723 -258l723 -254v-162l-870 332v174l870 330v-162zM201 135h870v-135h-870v135z" />
    <glyph glyph-name="greaterequal" unicode="&#x2265;" 
d="M1026 725v-174l-866 -332v162l719 258l-719 254v162zM160 135h866v-135h-866v135z" />
    <glyph glyph-name="lozenge" unicode="&#x25ca;" horiz-adv-x="1071" 
d="M963 707l-338 -707h-179l-337 707l337 706h179zM793 707l-256 559l-258 -559l258 -560z" />
    </font>
</defs>
</svg>
