<?xml version="1.0" standalone="no"?>
<!DOCTYPE svg PUBLIC "-//W3C//DTD SVG 1.1//EN" "http://www.w3.org/Graphics/SVG/1.1/DTD/svg11.dtd" >
<svg xmlns="http://www.w3.org/2000/svg" xmlns:xlink="http://www.w3.org/1999/xlink" version="1.1">
<metadata>
Created by FontForge 20170731 at Wed Dec 14 12:20:10 2022
 By Aleksey,,,
No Rights Reserved.
</metadata>
<defs>
<font id="Aileron-UltraLightItalic" horiz-adv-x="1085" >
  <font-face 
    font-family="Aileron UltraLight"
    font-weight="250"
    font-style="italic"
    font-stretch="normal"
    units-per-em="2048"
    panose-1="0 0 3 0 0 0 0 0 0 0"
    ascent="1577"
    descent="-471"
    x-height="1069"
    cap-height="1413"
    bbox="-258 -457 2365 1833"
    underline-thickness="102"
    underline-position="-307"
    slope="-10"
    unicode-range="U+0020-FB02"
  />
<missing-glyph horiz-adv-x="1179" 
d="M156 0v1434h1024v-1434h-1024zM668 809l348 522h-697zM729 717l348 -522v1044zM319 102h697l-348 523zM258 1239v-1044l348 522z" />
    <glyph glyph-name="fi" unicode="fi" horiz-adv-x="796" 
d="M330 1262q-11 -42 -23 -103l-16 -90h454l-188 -1069h-45l180 1026h-407l-181 -1026h-45l181 1026h-97l9 43h94l16 90q12 63 25 109q34 126 139.5 201t259.5 75q50 0 96 -10l-8 -43q-100 15 -175.5 3.5t-131.5 -48.5t-89 -83t-48 -101z" />
    <glyph glyph-name="fl" unicode="fl" horiz-adv-x="825" 
d="M578 82q0 -35 22.5 -46t79.5 -3l-6 -39q-20 -4 -60 -4q-84 0 -84 80q0 27 27 176l215 1231q-44 24 -151 24q-120 0 -191.5 -67.5t-97.5 -171.5q-19 -71 -23 -103l-16 -90h219l-8 -43h-217l-183 -1026h-45l183 1026h-99l9 43h96l16 90q6 49 23 109q34 124 121 200t219 76
q56 0 114.5 -10.5t81.5 -28.5l-221 -1259q-24 -128 -24 -164z" />
    <glyph glyph-name=".notdef" horiz-adv-x="1179" 
d="M156 0v1434h1024v-1434h-1024zM668 809l348 522h-697zM729 717l348 -522v1044zM319 102h697l-348 523zM258 1239v-1044l348 522z" />
    <glyph glyph-name=".null" horiz-adv-x="0" 
 />
    <glyph glyph-name="nonmarkingreturn" horiz-adv-x="682" 
 />
    <glyph glyph-name="space" unicode=" " horiz-adv-x="337" 
 />
    <glyph glyph-name="exclam" unicode="!" horiz-adv-x="319" 
d="M123 225h-39l209 1188h47zM74 53q15 0 23.5 -9.5t8.5 -23.5q0 -20 -15 -34.5t-34 -14.5q-15 0 -23.5 9.5t-8.5 23.5q0 20 15 34.5t34 14.5z" />
    <glyph glyph-name="quotedbl" unicode="&#x22;" horiz-adv-x="327" 
d="M139 1006h-33l84 499h46zM307 1006h-33l84 499h45z" />
    <glyph glyph-name="numbersign" unicode="#" 
d="M791 868l-125 -323h245l-8 -43h-254l-196 -502h-43l196 502h-227l-197 -502h-43l197 502h-232l9 43h239l125 323h-246l9 43h254l196 502h43l-196 -502h227l197 502h43l-197 -502h231l-8 -43h-239zM750 868h-228l-127 -323h228z" />
    <glyph glyph-name="dollar" unicode="$" 
d="M1065 1053h-45q-3 327 -289 346l-121 -674q165 -52 250.5 -140.5t85.5 -228.5q0 -55 -16 -107.5t-52.5 -102.5t-90 -87.5t-133.5 -61.5t-177 -26l-26 -155h-45l26 155q-82 3 -146.5 29.5t-104.5 66t-66.5 91.5t-36 104t-8.5 107h45q20 -342 325 -355l119 674
q-134 44 -222.5 135.5t-88.5 220.5q0 72 26 139.5t77 125.5t139.5 94.5t201.5 38.5l29 155h45l-29 -155q86 -5 150 -37.5t101.5 -86.5t56 -120t20.5 -145zM295 1049q0 -112 75 -194t197 -122l119 666q-99 -2 -176 -34t-122.5 -83t-69 -110.5t-23.5 -122.5zM899 354
q0 130 -73.5 204.5t-223.5 119.5l-117 -664q106 3 188.5 34t130 80.5t71.5 106.5t24 119z" />
    <glyph glyph-name="percent" unicode="%" horiz-adv-x="1431" 
d="M461 791q-103 0 -163 73.5t-60 190.5q0 64 20 130.5t57.5 124.5t100 95t137.5 37q103 0 163 -73.5t60 -190.5q0 -64 -20 -130.5t-57.5 -124.5t-100 -95t-137.5 -37zM1350 1413l-1162 -1413h-57l1161 1413h58zM547 1399q-65 0 -117 -33t-82.5 -85.5t-46.5 -111t-16 -114.5
q0 -103 48 -162t134 -59q65 0 117 33t82.5 85.5t46.5 111t16 114.5q0 103 -48 162t-134 59zM1028 623q103 0 163 -73.5t60 -191.5q0 -64 -20 -130.5t-57.5 -124.5t-100 -95t-137.5 -37q-103 0 -163 73.5t-60 191.5q0 64 20 130.5t57.5 124.5t100 95t137.5 37zM942 14
q65 0 117 33t82.5 85.5t46.5 111t16 114.5q0 103 -48 162.5t-134 59.5q-65 0 -117 -33t-82.5 -85.5t-46.5 -111t-16 -114.5q0 -103 48 -162.5t134 -59.5z" />
    <glyph glyph-name="ampersand" unicode="&#x26;" horiz-adv-x="1306" 
d="M1300 727l-8 -43h-225l-119 -682q-188 -31 -364 -31q-116 0 -201 14t-150.5 46t-99 88.5t-33.5 138.5q0 130 64 227.5t169 151t240 68.5q-122 16 -194 85t-72 199q0 128 70.5 232t193 162.5t271.5 58.5q127 0 241 -21l-8 -45q-115 23 -248 23q-127 0 -233.5 -47
t-172 -140t-65.5 -215q0 -250 324 -268q41 -2 125 -2h225l55 311h45l-55 -311h225zM1022 684h-225q-84 0 -125 -4q-522 -45 -522 -412q0 -73 31 -123.5t92.5 -78.5t139 -40t183.5 -12q179 0 313 25z" />
    <glyph glyph-name="quotesingle" unicode="'" horiz-adv-x="159" 
d="M139 1006h-33l84 499h46z" />
    <glyph glyph-name="parenleft" unicode="(" horiz-adv-x="497" 
d="M334 -164h-45q-109 229 -109 565q0 291 109.5 623t310.5 573h45q-211 -268 -314.5 -583.5t-103.5 -612.5q0 -317 107 -565z" />
    <glyph glyph-name="parenright" unicode=")" horiz-adv-x="497" 
d="M225 1597h45q109 -229 109 -565q0 -291 -109.5 -623t-310.5 -573h-45q211 268 314.5 583.5t103.5 612.5q0 317 -107 565z" />
    <glyph glyph-name="asterisk" unicode="*" 
d="M559 573l346 117l6 -45l-346 -106l176 -306l-45 -28l-164 315l-278 -315l-37 28l285 306l-307 106l22 45l305 -117l64 398h49z" />
    <glyph glyph-name="plus" unicode="+" 
d="M967 629h-387l-80 -451h-45l80 451h-388l9 43h387l80 450h45l-80 -450h387z" />
    <glyph glyph-name="comma" unicode="," horiz-adv-x="260" 
d="M2 39l-154 -277h-43l146 287h51v-10z" />
    <glyph glyph-name="hyphen" unicode="-" horiz-adv-x="561" 
d="M492 555h-431l9 43h430z" />
    <glyph glyph-name="period" unicode="." horiz-adv-x="260" 
d="M-2 53q17 0 27 -10.5t10 -24.5q0 -21 -13.5 -34t-31.5 -13q-17 0 -27 10.5t-10 24.5q0 21 13.5 34t31.5 13z" />
    <glyph glyph-name="slash" unicode="/" horiz-adv-x="538" 
d="M-72 -61h-45l785 1536h45z" />
    <glyph glyph-name="zero" unicode="0" 
d="M700 1442q181 0 274 -127t93 -357q0 -79 -10 -166.5t-32.5 -184t-56 -186.5t-84.5 -172.5t-113.5 -143.5t-147 -97.5t-181.5 -36.5q-181 0 -273.5 127t-92.5 357q0 79 10 166t32.5 184t56 187t84.5 172.5t113 143.5t146.5 97.5t181.5 36.5zM449 14q104 0 192.5 48.5
t149 129.5t106.5 179.5t72 207t38.5 203t12.5 174.5q0 208 -82 325.5t-244 117.5q-104 0 -192.5 -48.5t-149 -129.5t-106.5 -179.5t-72 -207t-38.5 -203t-12.5 -174.5q0 -208 82 -325.5t244 -117.5z" />
    <glyph glyph-name="one" unicode="1" 
d="M844 1413l-250 -1413h-45l239 1366l-432 -242l11 50l362 204q60 35 92 35h23z" />
    <glyph glyph-name="two" unicode="2" 
d="M66 43h829l-8 -43h-903l6 33l567 475q271 226 362 352t91 275q0 120 -73.5 192t-207.5 72q-106 0 -203 -46t-166.5 -134t-89.5 -199l-4 -21h-45l4 21q38 191 181.5 306.5t328.5 115.5q156 0 241 -89t85 -216q0 -85 -26 -159t-89 -153.5t-141.5 -154t-210.5 -185.5z" />
    <glyph glyph-name="three" unicode="3" 
d="M709 731q129 -22 199.5 -95t70.5 -196q0 -140 -73.5 -248.5t-195 -164.5t-268.5 -56q-182 0 -283.5 111t-86.5 315v21h45v-21q-12 -172 73 -277.5t261 -105.5q132 0 240 49t173.5 144t65.5 219q0 137 -91 206.5t-284 69.5h-35l8 43h35q78 0 160 26.5t151 73.5
t113.5 119.5t44.5 155.5q0 136 -77 207.5t-216 71.5q-164 0 -289.5 -95t-158.5 -262l-4 -20h-45l4 20q37 187 178.5 293.5t325.5 106.5q159 0 245 -88.5t86 -227.5t-109 -252t-263 -143z" />
    <glyph glyph-name="four" unicode="4" 
d="M1014 410h-203l-72 -410h-45l72 410h-741l6 32l934 971h34l-180 -960h203zM774 453l166 882q-71 -83 -227 -245l-615 -637h676z" />
    <glyph glyph-name="five" unicode="5" 
d="M438 1362l-233 -670l92 96q134 97 319 97q165 0 258 -103.5t93 -267.5q0 -163 -79 -289t-202.5 -190t-267.5 -64q-75 0 -139.5 22.5t-116 68.5t-77.5 124t-19 179l2 20h45l-2 -20q-13 -159 66.5 -255t250.5 -96q68 0 136 18.5t132 58.5t113 96.5t79 139.5t30 181
q0 161 -84.5 247.5t-229.5 86.5q-270 0 -426 -238h-45l275 801h716l-6 -43h-680z" />
    <glyph glyph-name="six" unicode="6" 
d="M733 1442q91 0 157.5 -27.5t105 -77.5t57 -113.5t20.5 -142.5v-20h-45v20q0 318 -303 318q-72 0 -142.5 -22t-146 -78.5t-136.5 -142t-109 -223.5t-68 -312l70 116q86 98 198 149.5t234 51.5q91 0 164 -34.5t117 -92t67.5 -127.5t23.5 -147q0 -115 -40 -218.5
t-110.5 -180.5t-174 -122t-223.5 -45q-174 0 -278.5 119.5t-104.5 335.5q0 205 45 388t127.5 323.5t210.5 222.5t284 82zM612 895q-128 0 -242 -63t-185.5 -180t-71.5 -261q0 -165 92.5 -271t253.5 -106q141 0 254 70.5t174 187.5t61 256q0 163 -89.5 265t-246.5 102z" />
    <glyph glyph-name="seven" unicode="7" 
d="M1167 1413l-4 -22l-991 -1391h-53l977 1370h-863l9 43h925z" />
    <glyph glyph-name="eight" unicode="8" 
d="M735 735q121 -30 184.5 -112.5t63.5 -194.5q0 -108 -46 -196.5t-123 -145t-173.5 -87t-200.5 -30.5q-171 0 -286 87.5t-115 240.5q0 166 108 283t291 157q-90 25 -147.5 99t-57.5 176q0 177 136.5 303.5t345.5 126.5q160 0 256 -88t96 -219q0 -136 -93 -251.5
t-239 -148.5zM285 1024q0 -131 79.5 -199.5t229.5 -68.5q61 0 120 13.5t114.5 43.5t97.5 72.5t67 105t25 137.5q0 125 -82 198t-227 73q-180 0 -302 -105t-122 -270zM451 12q64 0 129.5 14.5t129 46.5t112.5 78t79.5 115t30.5 152q0 135 -90 215t-262 80
q-223 0 -357.5 -115.5t-134.5 -292.5q0 -74 31 -132t83 -92t115.5 -51.5t133.5 -17.5z" />
    <glyph glyph-name="nine" unicode="9" 
d="M696 1442q174 0 278.5 -119.5t104.5 -335.5q0 -205 -45 -388t-127.5 -323.5t-210.5 -222.5t-284 -82q-91 0 -157.5 27.5t-105 77.5t-57 113.5t-20.5 142.5v20h45v-20q0 -318 303 -318q59 0 118 16.5t122 51t119.5 96t105 144.5t84.5 204t53 267l-70 -117
q-86 -98 -198 -149.5t-234 -51.5q-91 0 -164 34.5t-117.5 92t-68 128.5t-23.5 147q0 154 68 282.5t194.5 205.5t286.5 77zM532 518q128 0 242 63t186 180t72 261q0 165 -92.5 271t-253.5 106q-141 0 -254 -70.5t-174 -187.5t-61 -256q0 -163 89.5 -265t245.5 -102z" />
    <glyph glyph-name="colon" unicode=":" horiz-adv-x="260" 
d="M186 1106q17 0 27 -10.5t10 -24.5q0 -21 -13.5 -34t-31.5 -13q-17 0 -27 10.5t-10 24.5q0 21 13.5 34t31.5 13zM-2 53q17 0 27 -10.5t10 -24.5q0 -21 -13.5 -34t-31.5 -13q-17 0 -27 10.5t-10 24.5q0 21 13.5 34t31.5 13z" />
    <glyph glyph-name="semicolon" unicode=";" horiz-adv-x="260" 
d="M186 1106q17 0 27 -10.5t10 -24.5q0 -21 -13.5 -34t-31.5 -13q-17 0 -27 10.5t-10 24.5q0 21 13.5 34t31.5 13zM2 39l-154 -277h-43l146 287h51v-10z" />
    <glyph glyph-name="less" unicode="&#x3c;" 
d="M1030 911l-827 -368l696 -369l-8 -51l-752 399l8 41l891 400z" />
    <glyph glyph-name="equal" unicode="=" 
d="M1020 813h-860l8 43h860zM954 444h-860l8 43h861z" />
    <glyph glyph-name="greater" unicode="&#x3e;" 
d="M956 563l-8 -41l-891 -399l9 51l827 369l-696 368l8 52z" />
    <glyph glyph-name="question" unicode="?" horiz-adv-x="1044" 
d="M707 1442q80 0 145 -26t104 -68t59.5 -92.5t20.5 -102.5q0 -113 -58.5 -209t-205.5 -242q-82 -80 -123.5 -125t-77.5 -101t-53.5 -111.5t-30.5 -139.5h-41q14 107 48 185.5t87 145t160 173.5q145 145 196.5 233.5t51.5 190.5t-80 174t-209 72q-177 0 -290.5 -103.5
t-157.5 -283.5h-45q40 195 175 312.5t325 117.5zM449 53q15 0 23.5 -9.5t8.5 -23.5q0 -20 -15 -34.5t-34 -14.5q-15 0 -24 9.5t-9 23.5q0 20 15.5 34.5t34.5 14.5z" />
    <glyph glyph-name="at" unicode="@" horiz-adv-x="1728" 
d="M1212 952l-102 -428q-27 -117 -27 -180q0 -70 43.5 -108.5t118.5 -38.5q137 0 230.5 134.5t93.5 350.5q0 294 -174 464.5t-459 170.5q-89 0 -180.5 -25t-178 -72t-162.5 -118.5t-132.5 -159t-89.5 -200.5t-33 -236q0 -161 53 -292t142 -213.5t202 -126.5t238 -44
q164 0 289.5 38.5t271.5 139.5l24 -39q-162 -109 -290 -145.5t-295 -36.5q-103 0 -201 27.5t-186 85.5t-154 140.5t-104.5 201t-38.5 258.5q0 157 48.5 296t131.5 240.5t190 175.5t227 111t240 37q298 0 484 -186t186 -482q0 -128 -31.5 -232.5t-84.5 -170t-120 -100.5
t-141 -35q-40 0 -75 9.5t-65.5 31.5t-48.5 62.5t-18 96.5l-37 -78q-104 -139 -247 -139q-46 0 -87 14.5t-80 47t-62 96t-23 151.5q0 144 56 268t156.5 199.5t221.5 75.5q103 0 153 -69l43 -107l33 139h51zM1075 571l19 82q28 122 -20 207.5t-150 85.5q-98 0 -184.5 -65
t-139.5 -179t-53 -247q0 -137 56 -206t155 -69q102 0 186 94t131 297z" />
    <glyph glyph-name="A" unicode="A" horiz-adv-x="1269" 
d="M975 551h-633l-309 -551h-56l797 1413h68l297 -1413h-49zM967 594l-162 780l-438 -780h600z" />
    <glyph glyph-name="B" unicode="B" horiz-adv-x="1187" 
d="M788 745q133 -23 201 -103t68 -202q0 -96 -39 -177.5t-104.5 -135.5t-148.5 -86t-173 -37q-51 -4 -141 -4h-394l250 1413h357q87 0 159 -4q140 -9 221.5 -84t81.5 -197q0 -150 -93.5 -255.5t-244.5 -127.5zM238 762h333q66 0 113 2q54 3 105.5 14.5t104.5 38.5t92 65.5
t64 99.5t25 136q0 239 -287 250q-47 2 -133 2h-309zM578 45q62 4 120.5 19.5t115.5 46.5t99.5 74t68.5 107.5t26 141.5q0 54 -15.5 101t-49.5 87.5t-94.5 65.5t-143.5 29q-47 2 -107 2h-369l-118 -676h374q66 0 93 2z" />
    <glyph glyph-name="C" unicode="C" horiz-adv-x="1423" 
d="M915 1442q224 0 347.5 -126.5t123.5 -324.5v-20h-45v20q0 193 -116 300.5t-326 107.5q-85 0 -169.5 -25t-164.5 -72t-148.5 -120.5t-120 -165t-81 -211t-29.5 -252.5q0 -132 35.5 -236t98.5 -169.5t146.5 -99.5t182.5 -34q110 0 206 33t168.5 93t126.5 136t91 168l8 21
h45l-8 -21q-41 -101 -98.5 -184t-136.5 -149.5t-184 -103t-228 -36.5q-228 0 -365 154.5t-137 425.5q0 201 63.5 370.5t170.5 282.5t248 175.5t296 62.5z" />
    <glyph glyph-name="D" unicode="D" horiz-adv-x="1372" 
d="M842 1409q77 -6 145.5 -30t129 -70t104 -111t69 -159t25.5 -208q0 -154 -52.5 -298.5t-145 -257t-227.5 -185t-292 -84.5q-74 -6 -182 -6h-359l250 1413h387q99 0 148 -4zM608 51q151 14 277.5 85t209 178.5t128 240t45.5 272.5q0 250 -118 385.5t-316 153.5
q-45 4 -148 4h-340l-235 -1327h321q83 0 176 8z" />
    <glyph glyph-name="E" unicode="E" horiz-adv-x="1099" 
d="M344 1372l-113 -645h773l-9 -41h-772l-112 -645h833l-8 -41h-879l250 1413h858l-8 -41h-813z" />
    <glyph glyph-name="F" unicode="F" horiz-adv-x="1046" 
d="M344 1372l-113 -645h752l-8 -41h-752l-121 -686h-45l250 1413h858l-8 -41h-813z" />
    <glyph glyph-name="G" unicode="G" horiz-adv-x="1488" 
d="M944 1442q113 0 201 -34.5t143 -96t83 -142.5t28 -178v-20h-45v20q0 192 -109 300t-317 108q-107 0 -212.5 -35t-201.5 -106t-169.5 -170t-117 -237.5t-43.5 -297.5q0 -132 36 -236t100 -169.5t148.5 -99.5t184.5 -34q48 0 98.5 9t106.5 29.5t108.5 51t103 77t91.5 104
t73 135.5t48 168h-477l6 41h522l-110 -629h-45l67 377l-65 -133q-108 -140 -249 -206.5t-288 -66.5q-233 0 -370.5 154.5t-137.5 425.5q0 191 66 358.5t177 283.5t258.5 182.5t307.5 66.5z" />
    <glyph glyph-name="H" unicode="H" horiz-adv-x="1265" 
d="M1307 1413l-250 -1413h-45l118 672h-909l-119 -672h-45l250 1413h45l-123 -698h910l123 698h45z" />
    <glyph glyph-name="I" unicode="I" horiz-adv-x="311" 
d="M102 0h-45l250 1413h45z" />
    <glyph glyph-name="J" unicode="J" horiz-adv-x="942" 
d="M987 1413l-156 -881q-17 -109 -36 -186q-18 -75 -50 -138.5t-82.5 -118.5t-127 -86.5t-170.5 -31.5q-175 0 -270 109t-66 317l8 62h45l-8 -62q-15 -102 3 -178.5t62.5 -120t104 -64t133.5 -20.5q143 0 238 88t137 250q3 10 32 164l158 897h45z" />
    <glyph glyph-name="K" unicode="K" horiz-adv-x="1089" 
d="M352 707l604 -707h-63l-580 682l-104 -84l-107 -598h-45l250 1413h45l-135 -760l936 760h66z" />
    <glyph glyph-name="L" unicode="L" horiz-adv-x="1060" 
d="M944 41l-8 -41h-879l250 1413h45l-241 -1372h833z" />
    <glyph glyph-name="M" unicode="M" horiz-adv-x="1552" 
d="M1593 1413l-250 -1413h-45l248 1376l-815 -1376h-57l-332 1378l-240 -1378h-45l250 1413h72l332 -1370l811 1370h71z" />
    <glyph glyph-name="N" unicode="N" horiz-adv-x="1228" 
d="M1270 1413l-250 -1413h-70l-606 1376l-242 -1376h-45l250 1413h68l606 -1372l244 1372h45z" />
    <glyph glyph-name="O" unicode="O" horiz-adv-x="1521" 
d="M909 1442q243 0 398 -168t155 -449q0 -122 -32 -243.5t-98 -231.5t-156 -194.5t-215.5 -134.5t-268.5 -50q-243 0 -398 168t-155 449q0 122 32 243.5t98 231.5t156 194.5t215.5 134.5t268.5 50zM698 14q131 0 247 46.5t200.5 126t146.5 183t92.5 220.5t30.5 235
q0 132 -40 241t-109.5 181.5t-163 112t-199.5 39.5q-131 0 -247 -46.5t-200.5 -126t-146.5 -183t-92.5 -220.5t-30.5 -235q0 -132 40 -241t109.5 -181.5t163 -112t199.5 -39.5z" />
    <glyph glyph-name="P" unicode="P" horiz-adv-x="980" 
d="M821 1403q129 -16 207 -91t78 -210q0 -104 -33.5 -188t-91.5 -139.5t-132 -89t-161 -44.5q-85 -10 -205 -10h-268l-111 -631h-45l248 1413h314q121 0 200 -10zM688 684q164 20 266.5 124t102.5 288q0 119 -67 184.5t-183 79.5q-79 10 -193 10h-268l-123 -696h269
q111 0 196 10z" />
    <glyph glyph-name="Q" unicode="Q" horiz-adv-x="1480" 
d="M1440 846q0 -157 -50 -310.5t-153.5 -286.5t-243.5 -204q93 -3 154 -30t121 -87l-31 -34q-62 64 -122.5 88t-145.5 24q-48 0 -146 -20q-77 -15 -143 -15q-241 0 -392 164t-151 432q0 122 31 245.5t95.5 236.5t153 201t213 140t267.5 52q241 0 392 -164t151 -432zM184 567
q0 -250 142.5 -401.5t359.5 -151.5q131 0 246 48.5t198 131t143.5 189.5t90 225.5t29.5 237.5q0 250 -142.5 401.5t-359.5 151.5q-131 0 -246 -48.5t-198 -131t-143.5 -189.5t-90 -225.5t-29.5 -237.5z" />
    <glyph glyph-name="R" unicode="R" horiz-adv-x="1128" 
d="M1139 1118q0 -158 -99.5 -269.5t-263.5 -137.5q80 -25 115.5 -102.5t38.5 -207.5q4 -274 35 -401h-50q-24 139 -30 408q-2 59 -11.5 105t-31.5 86.5t-62 64t-96 26.5q-45 2 -129 2h-330l-123 -692h-45l250 1413h342q121 0 203 -10q139 -17 213 -91.5t74 -193.5zM717 739
q165 12 267.5 115t102.5 256q0 108 -64.5 171.5t-186.5 78.5q-83 10 -195 10h-297l-113 -635h332q86 0 154 4z" />
    <glyph glyph-name="S" unicode="S" horiz-adv-x="1114" 
d="M709 1442q128 0 218 -54t130 -140.5t35 -194.5h-45q0 159 -98 252.5t-251 93.5q-80 0 -154.5 -22.5t-136 -65.5t-98.5 -114.5t-37 -160.5q0 -113 81 -175t272 -120q192 -58 282 -144t90 -230q0 -174 -144 -285t-372 -111q-95 0 -177 24.5t-145 72t-96 125t-26 176.5h45
q-10 -169 103.5 -262t310.5 -93q193 0 321.5 96.5t128.5 249.5q0 131 -82 206.5t-268 131.5q-199 60 -287 132t-88 196q0 186 135.5 301t352.5 115z" />
    <glyph glyph-name="T" unicode="T" horiz-adv-x="1187" 
d="M1337 1372h-540l-242 -1372h-45l242 1372h-541l8 41h1127z" />
    <glyph glyph-name="U" unicode="U" horiz-adv-x="1228" 
d="M1247 1413l-164 -924q-13 -70 -28 -137q-21 -84 -60.5 -151.5t-100 -120t-149 -81t-198.5 -28.5q-185 0 -288 91.5t-103 238.5q0 80 18 188l164 924h45l-164 -932q-18 -106 -18 -178q0 -126 88.5 -207.5t265.5 -81.5q193 0 306 95.5t153 255.5q11 47 26 127l162 921h45z
" />
    <glyph glyph-name="V" unicode="V" horiz-adv-x="1198" 
d="M569 0h-65l-297 1413h47l287 -1374l772 1374h53z" />
    <glyph glyph-name="W" unicode="W" horiz-adv-x="1685" 
d="M1845 1413l-633 -1413h-53l-143 1348l-647 -1348h-56l-106 1413h45l98 -1356l637 1336h68l141 -1332l602 1352h47z" />
    <glyph glyph-name="X" unicode="X" horiz-adv-x="1153" 
d="M649 711l387 -711h-57l-363 680l-600 -680h-55l633 715l-348 698h49l334 -665l596 665l55 -2z" />
    <glyph glyph-name="Y" unicode="Y" horiz-adv-x="1116" 
d="M596 553l-98 -553h-45l98 555l-350 858h49l332 -809l612 809h59z" />
    <glyph glyph-name="Z" unicode="Z" horiz-adv-x="1101" 
d="M1182 1372l-1133 -1329h912l-9 -43h-975l7 35l1138 1335h-846l9 43h905z" />
    <glyph glyph-name="bracketleft" unicode="[" horiz-adv-x="495" 
d="M334 1597h313l-8 -43h-268l-295 -1675h268l-8 -43h-313z" />
    <glyph glyph-name="backslash" unicode="\" horiz-adv-x="538" 
d="M442 -61h-45l-243 1536h45z" />
    <glyph glyph-name="bracketright" unicode="]" horiz-adv-x="499" 
d="M225 -164h-313l8 43h268l295 1675h-268l8 43h314z" />
    <glyph glyph-name="asciicircum" unicode="^" 
d="M854 440l-188 779l-467 -779h-54l496 822h59l205 -822h-51z" />
    <glyph glyph-name="underscore" unicode="_" horiz-adv-x="1024" 
d="M918 -164h-820l8 43h820z" />
    <glyph glyph-name="grave" unicode="`" horiz-adv-x="614" 
d="M311 1188h-37l-102 225h53z" />
    <glyph glyph-name="a" unicode="a" horiz-adv-x="1013" 
d="M639 1106q143 0 217 -70.5t74 -189.5q0 -52 -19 -158l-61 -340q-28 -173 -43 -348h-47l33 262l-64 -104q-74 -91 -173.5 -139t-209.5 -48q-124 0 -204.5 65.5t-80.5 190.5q0 95 44 169t119.5 119t176.5 74t216 33.5t237 -1.5l10 63q19 108 19 147q0 112 -59.5 172
t-192.5 60q-83 0 -157 -27.5t-137.5 -92.5t-92.5 -161h-45q35 139 155.5 231.5t284.5 92.5zM360 14q112 0 212 59.5t164 153.5t83 201l27 150q-339 30 -538 -66t-199 -283q0 -103 67.5 -159t183.5 -56z" />
    <glyph glyph-name="b" unicode="b" horiz-adv-x="1122" 
d="M688 1106q177 0 279 -121t102 -315q0 -104 -24.5 -205t-74 -190t-118 -157t-163 -107.5t-202.5 -39.5q-119 0 -188.5 36t-122.5 122l-35 121l-45 -250h-45l266 1505h45l-118 -671l78 120q88 86 167 119t199 33zM494 14q120 0 221.5 56t167.5 149t102.5 209.5t36.5 239.5
q0 176 -90.5 285.5t-253.5 109.5q-83 0 -156 -25t-138 -78.5t-112.5 -147.5t-70.5 -222l-21 -121q-20 -96 -8.5 -179t46 -144.5t105.5 -96.5t171 -35z" />
    <glyph glyph-name="c" unicode="c" horiz-adv-x="1058" 
d="M651 1106q173 0 270.5 -100t92.5 -263h-45q0 150 -83.5 236t-244.5 86q-121 0 -225 -53.5t-172.5 -142.5t-107 -202.5t-38.5 -234.5q0 -207 98.5 -313.5t252.5 -106.5q147 0 264.5 81t183.5 229h45q-68 -169 -201.5 -260t-302.5 -91q-174 0 -279.5 121.5t-105.5 337.5
q0 100 24.5 197t74.5 183.5t120 152.5t168 104.5t211 38.5z" />
    <glyph glyph-name="d" unicode="d" horiz-adv-x="1118" 
d="M1145 1505l-266 -1505h-45l43 244l-78 -121q-88 -86 -167.5 -119t-199.5 -33q-177 0 -279 121.5t-102 315.5q0 131 39.5 254.5t111.5 223t184.5 160t246.5 60.5q119 0 188.5 -36t122.5 -122l35 -121l121 678h45zM920 487l20 121q12 77 11 145.5t-23 125.5t-59.5 98
t-99.5 63.5t-142 22.5q-97 0 -182 -36.5t-148 -99.5t-108 -146t-68 -178t-23 -193q0 -176 90.5 -286t253.5 -110q66 0 125.5 15t116.5 50.5t102 89t80.5 134.5t53.5 184z" />
    <glyph glyph-name="e" unicode="e" horiz-adv-x="1071" 
d="M981 528h-875q-10 -65 -10 -108q0 -107 28.5 -188t78 -127t108.5 -68.5t127 -22.5q135 0 255.5 79.5t193.5 236.5h45q-85 -184 -215 -271.5t-291 -87.5q-168 0 -272.5 115t-104.5 332q0 89 23.5 183.5t73 184.5t117.5 161.5t165.5 115t208.5 43.5q97 0 169 -32.5
t113.5 -90t61.5 -129.5t20 -158q0 -94 -20 -168zM631 1063q-86 0 -163 -29.5t-133.5 -78t-102 -113.5t-73.5 -132.5t-44 -138.5h829q10 56 10 125q0 100 -25 173t-71 114.5t-102 60.5t-125 19z" />
    <glyph glyph-name="f" unicode="f" horiz-adv-x="456" 
d="M520 1544q50 0 96 -10l-8 -43q-36 10 -80 10q-141 0 -182 -143q-4 -18 -22 -111l-31 -170h219l-6 -43h-219l-183 -1034h-45l181 1034h-95l7 43h96l26 154q11 56 27 127q26 94 87.5 140t131.5 46z" />
    <glyph glyph-name="g" unicode="g" horiz-adv-x="1118" 
d="M1069 1085l-141 -798q-39 -231 -58 -324q-40 -191 -171 -302.5t-345 -111.5q-159 0 -256.5 81t-97.5 243v31h45v-31q0 -77 24.5 -133t70 -87.5t101.5 -46t126 -14.5q189 0 306 99.5t154 285.5q26 131 41 228l6 35l-75 -117q-88 -86 -167.5 -119t-199.5 -33
q-177 0 -279 121.5t-102 315.5q0 131 39.5 254.5t111.5 223t184.5 160t246.5 60.5q119 0 188.5 -36t122.5 -122l35 -119l45 256h45zM909 440l35 193q18 126 -6.5 220.5t-103 152t-207.5 57.5q-97 0 -182 -36.5t-148 -99.5t-108 -146t-68 -178t-23 -193q0 -176 90.5 -286
t253.5 -110q166 0 291 102t176 324z" />
    <glyph glyph-name="h" unicode="h" horiz-adv-x="1087" 
d="M672 1106q152 0 232.5 -78t80.5 -217q0 -81 -22 -213l-107 -598h-45l102 580q25 141 25 225q0 119 -67.5 188.5t-206.5 69.5q-164 0 -292 -110.5t-165 -313.5l-111 -639h-45l266 1516h45l-120 -685l65 115q142 160 365 160z" />
    <glyph glyph-name="i" unicode="i" horiz-adv-x="333" 
d="M307 1337q15 0 25 -10t10 -24q0 -21 -14 -34.5t-33 -13.5q-15 0 -25 10.5t-10 24.5q0 21 14 34t33 13zM94 0h-45l191 1077h45z" />
    <glyph glyph-name="j" unicode="j" horiz-adv-x="309" 
d="M317 1337q15 0 25 -10t10 -24q0 -21 -14 -34.5t-33 -13.5q-15 0 -25 10.5t-10 24.5q0 21 14 34t33 13zM303 1077l-215 -1227q-9 -49 -25 -106q-45 -174 -194 -174q-36 0 -72 8l8 39q89 -18 140.5 12.5t74.5 118.5q13 47 19 80l219 1249h45z" />
    <glyph glyph-name="k" unicode="k" horiz-adv-x="968" 
d="M324 565l491 -565h-59l-469 539l-111 -88l-80 -451h-45l266 1505h45l-176 -997l713 569h72z" />
    <glyph glyph-name="l" unicode="l" horiz-adv-x="358" 
d="M354 1505l-221 -1259q-24 -128 -24 -164q0 -35 22.5 -46t81.5 -3l-8 -39q-20 -4 -60 -4q-84 0 -84 80q0 27 27 176l221 1259h45z" />
    <glyph glyph-name="m" unicode="m" horiz-adv-x="1656" 
d="M1290 1106q131 0 198.5 -75t67.5 -210q0 -19 -0.5 -34t-1.5 -31t-1.5 -25t-3.5 -27.5t-4.5 -27.5l-6 -36t-6.5 -42l-105 -598h-45l103 580q24 141 24 221q0 132 -55 198t-174 66q-144 0 -258 -114t-152 -333l-108 -618h-45l102 580q25 151 25 221q0 135 -53.5 199.5
t-176.5 64.5q-144 0 -257.5 -114t-151.5 -333l-109 -618h-45l189 1077h45l-41 -231l71 119q132 141 310 141q130 0 197 -73.5t69 -207.5l90 140q132 141 309 141z" />
    <glyph glyph-name="n" unicode="n" horiz-adv-x="1087" 
d="M672 1106q152 0 232.5 -78t80.5 -217q0 -81 -22 -213l-107 -598h-45l102 580q25 141 25 225q0 119 -67.5 188.5t-206.5 69.5q-164 0 -292 -110.5t-165 -313.5l-111 -639h-45l189 1077h45l-43 -246l65 115q142 160 365 160z" />
    <glyph glyph-name="o" unicode="o" horiz-adv-x="1128" 
d="M643 1106q138 0 236.5 -62t146 -166t47.5 -239q0 -85 -21 -174.5t-68.5 -178.5t-114.5 -158.5t-167 -113t-219 -43.5q-138 0 -236.5 62t-146 166t-47.5 239q0 85 21 174.5t68.5 178.5t114.5 158.5t167 113t219 43.5zM492 14q103 0 192.5 39.5t151 104t105.5 146.5
t64.5 167.5t20.5 167.5q0 199 -109.5 311.5t-281.5 112.5q-103 0 -192.5 -39.5t-151 -104t-105.5 -146.5t-65 -167.5t-21 -167.5q0 -199 110 -311.5t282 -112.5z" />
    <glyph glyph-name="p" unicode="p" horiz-adv-x="1122" 
d="M688 1106q177 0 279 -121t102 -315q0 -104 -24.5 -205t-74 -190t-118 -157t-163 -107.5t-202.5 -39.5q-119 0 -188.5 36t-122.5 122l-35 121l-116 -651h-45l264 1478h45l-43 -241l76 118q88 86 167 119t199 33zM494 14q120 0 221.5 56t167.5 149t102.5 209.5t36.5 239.5
q0 176 -90.5 285.5t-253.5 109.5q-83 0 -156 -25t-138 -78.5t-112.5 -147.5t-70.5 -222l-21 -121q-20 -96 -8.5 -179t46 -144.5t105.5 -96.5t171 -35z" />
    <glyph glyph-name="q" unicode="q" horiz-adv-x="1118" 
d="M1069 1077l-264 -1478h-45l114 643l-75 -119q-88 -86 -167.5 -119t-199.5 -33q-177 0 -279 121.5t-102 315.5q0 131 39.5 254.5t111.5 223t184.5 160t246.5 60.5q119 0 188.5 -36t122.5 -122l35 -121l45 250h45zM920 487l20 121q12 77 11 145.5t-23 125.5t-59.5 98
t-99.5 63.5t-142 22.5q-97 0 -182 -36.5t-148 -99.5t-108 -146t-68 -178t-23 -193q0 -176 90.5 -286t253.5 -110q66 0 125.5 15t116.5 50.5t102 89t80.5 134.5t53.5 184z" />
    <glyph glyph-name="r" unicode="r" horiz-adv-x="540" 
d="M575 1106q34 0 48 -2l-9 -41q-46 3 -88.5 -3.5t-93.5 -34.5t-92.5 -76.5t-79 -137t-59.5 -207.5l-2 -14l-103 -590h-45l191 1085h45l-41 -233l61 117q118 137 268 137z" />
    <glyph glyph-name="s" unicode="s" horiz-adv-x="933" 
d="M532 1106q152 0 240.5 -83t97.5 -239h-45q-24 279 -303 279q-139 0 -223 -78.5t-84 -181.5q0 -94 64 -149.5t186 -88.5q169 -45 247.5 -111t78.5 -182q0 -98 -53.5 -167.5t-137.5 -101.5t-188 -32q-82 0 -148.5 18.5t-119 57t-81.5 104.5t-30 156h45q6 -155 93.5 -224
t252.5 -69q144 0 231.5 70.5t87.5 181.5q0 103 -69 159.5t-236 100.5q-270 71 -270 275q0 128 101 216.5t263 88.5z" />
    <glyph glyph-name="t" unicode="t" horiz-adv-x="497" 
d="M297 1032l-135 -770q-19 -103 -19 -145q0 -63 45.5 -82.5t147.5 -5.5l-6 -37q-44 -6 -92 -6q-71 0 -105.5 29t-34.5 94q0 55 19 161l135 762h-131l6 37h131l39 221h45l-39 -221h211l-6 -37h-211z" />
    <glyph glyph-name="u" unicode="u" horiz-adv-x="1079" 
d="M1028 1077l-188 -1077h-45l43 246l-66 -115q-142 -160 -364 -160q-152 0 -233 78.5t-81 216.5q0 75 23 213l106 598h45l-102 -579q-25 -141 -25 -226q0 -118 68 -188t207 -70q164 0 291.5 110.5t164.5 313.5l111 639h45z" />
    <glyph glyph-name="v" unicode="v" horiz-adv-x="966" 
d="M1028 1077l-618 -1077h-62l-233 1077h49l221 -1036l590 1036h53z" />
    <glyph glyph-name="w" unicode="w" horiz-adv-x="1468" 
d="M1530 1077l-533 -1077h-59l-127 1032l-489 -1032h-64l-143 1077h45l135 -1034l487 1030h66l129 -1024l502 1028h51z" />
    <glyph glyph-name="x" unicode="x" horiz-adv-x="903" 
d="M463 541l287 -541h-54l-264 508l-455 -508h-59l494 549l-269 528h50l251 -495l449 495h59z" />
    <glyph glyph-name="y" unicode="y" horiz-adv-x="966" 
d="M1028 1077l-618 -1077q-78 -138 -140 -225.5t-114 -131.5t-92.5 -58.5t-90.5 -14.5q-36 0 -63 8l6 39q27 -6 61 -6q80 0 156 70.5t186 257.5l31 51l-235 1087h49l221 -1036l590 1036h53z" />
    <glyph glyph-name="z" unicode="z" horiz-adv-x="950" 
d="M956 1028l-940 -989h777l-7 -39h-837l6 37l938 989h-713l6 43h777z" />
    <glyph glyph-name="braceleft" unicode="{" horiz-adv-x="587" 
d="M737 1597l-8 -43h-37q-49 0 -87 -9.5t-64.5 -25t-46 -43t-31 -55.5t-18.5 -70.5t-10 -80t-5 -92.5q0 -4 -1 -11q-8 -187 -29 -263q-40 -145 -163 -182l-18 -5q119 -32 119 -166q0 -49 -14 -110t-54 -177q-38 -108 -49.5 -155t-11.5 -93q0 -74 48.5 -105.5t139.5 -31.5h37
l-8 -43h-35q-106 0 -167.5 45t-61.5 135q0 45 14.5 100t54.5 169q60 168 60 264q0 59 -32 98.5t-103 46.5l8 45q43 4 76.5 20t55.5 35.5t38 55t24.5 64t14 77.5t7 79.5t3.5 86.5q2 63 5.5 108.5t13 94.5t23.5 82.5t38 64.5t56.5 49.5t78.5 29.5t104 11h35z" />
    <glyph glyph-name="bar" unicode="|" horiz-adv-x="514" 
d="M113 -410h-45l360 2048h45z" />
    <glyph glyph-name="braceright" unicode="}" horiz-adv-x="587" 
d="M358 885q0 -59 32.5 -99t103.5 -47l-9 -45q-43 -4 -76.5 -20t-55.5 -35.5t-38 -55t-24.5 -64t-14 -77.5t-7 -79.5t-3.5 -86.5q-2 -63 -5.5 -108.5t-13 -94.5t-23.5 -82.5t-38 -64.5t-56.5 -49.5t-78.5 -29.5t-104 -11h-35l8 43h37q57 0 99 11.5t70 37t45.5 54.5t27.5 77
t14 90.5t6 106.5q9 187 27 260q36 150 153 192q15 5 31 9q-119 32 -119 166q0 49 14 109.5t54 176.5q38 108 49.5 155t11.5 93q0 74 -48.5 105.5t-139.5 31.5h-37l8 43h35q106 0 167.5 -45t61.5 -135q0 -45 -14.5 -99t-54.5 -169q-60 -168 -60 -264z" />
    <glyph glyph-name="asciitilde" unicode="~" horiz-adv-x="1228" 
d="M1032 717h43q-44 -240 -221 -240q-58 0 -103.5 17.5t-144.5 78.5q-90 56 -134.5 74.5t-90.5 18.5q-130 0 -166 -197h-43q44 240 219 240q58 0 104.5 -18t145.5 -79q90 -56 133.5 -74t89.5 -18q132 0 168 197z" />
    <glyph glyph-name="exclamdown" unicode="&#xa1;" horiz-adv-x="319" 
d="M244 1024q-15 0 -24 9.5t-9 23.5q0 20 15 34.5t34 14.5q15 0 24 -9.5t9 -23.5q0 -20 -15 -34.5t-34 -14.5zM195 852h38l-208 -1188h-48z" />
    <glyph glyph-name="cent" unicode="&#xa2;" 
d="M707 1270l-29 -164q170 -1 265.5 -101t90.5 -262h-45q0 148 -81.5 233.5t-237.5 88.5l-187 -1053q143 5 257 85t178 225h45q-66 -165 -195 -255.5t-291 -95.5l-28 -155h-46l29 155q-163 11 -260.5 131.5t-97.5 327.5q0 88 22.5 178.5t69.5 176.5t112 154t157 113t198 52
l29 166h45zM119 432q0 -195 89 -301.5t230 -116.5l187 1049q-111 -8 -208 -67.5t-161 -148.5t-100.5 -197.5t-36.5 -217.5z" />
    <glyph glyph-name="sterling" unicode="&#xa3;" horiz-adv-x="1087" 
d="M676 1442q79 0 140 -21.5t99.5 -57t64 -88.5t37 -109t15.5 -126h-45q-4 83 -21 145t-52.5 112t-97 76t-148.5 26q-83 0 -153 -34t-114 -87.5t-68 -117.5t-24 -128q0 -137 56 -268h485l-8 -43h-459q55 -127 55 -229q0 -285 -338 -449h791l-8 -43h-891l6 39
q196 79 294.5 189.5t98.5 260.5q0 103 -57 232h-197l8 43h168q-51 123 -51 266q0 55 16 111.5t50.5 110.5t82 96t116.5 68t149 26z" />
    <glyph glyph-name="currency" unicode="&#xa4;" 
d="M913 645q0 -79 -32 -156t-93 -135l86 -102l-38 -33l-86 105q-102 -76 -246 -76q-138 0 -223 98l-140 -117l-26 33l139 119q-57 88 -57 207q0 72 33 149.5t94 136.5l-93 111l39 33l92 -111q105 78 244 78q140 0 223 -96l144 121l26 -33l-143 -123q57 -85 57 -209zM244 592
q0 -131 73.5 -216t194.5 -85q86 0 156 34t111.5 87t64 112.5t22.5 116.5q0 138 -72.5 219.5t-195.5 81.5q-86 0 -156 -34t-111.5 -87t-64 -112.5t-22.5 -116.5z" />
    <glyph glyph-name="yen" unicode="&#xa5;" 
d="M618 700h351l-6 -43h-377l-29 -161h377l-8 -43h-377l-80 -453h-45l80 453h-377l8 43h377l29 161h-377l6 43h356l-327 713h47l323 -708l568 708h57z" />
    <glyph glyph-name="brokenbar" unicode="&#xa6;" horiz-adv-x="514" 
d="M311 717h-45l123 696h45zM127 -328h-45l123 697h45z" />
    <glyph glyph-name="section" unicode="&#xa7;" 
d="M1022 524q0 -127 -103 -211.5t-288 -101.5q184 -90 184 -270q0 -128 -106.5 -212.5t-264.5 -84.5q-163 0 -266 83.5t-125 254.5h45q51 -295 346 -295q140 0 232 69.5t92 184.5q0 111 -77.5 180t-268.5 110q-61 14 -114.5 38.5t-102 63t-77 96.5t-28.5 128
q0 132 102 221.5t273 106.5q-85 40 -127.5 100t-42.5 154q0 58 23 111.5t65.5 96.5t109 69t146.5 26q309 0 359 -318h-45q-27 141 -105 208t-209 67q-144 0 -220.5 -77t-76.5 -185q0 -60 24.5 -106.5t70.5 -77t94 -49.5t114 -36q178 -44 272.5 -125.5t94.5 -218.5zM559 240
q186 8 301 80.5t115 203.5q0 117 -82 185.5t-268 121.5q-28 8 -76 25q-175 -8 -288.5 -84t-113.5 -209q0 -66 24.5 -117.5t69 -84.5t93.5 -54t112 -35q68 -17 113 -32z" />
    <glyph glyph-name="dieresis" unicode="&#xa8;" horiz-adv-x="614" 
d="M233 1337q15 0 24 -9t9 -23q0 -20 -15 -35t-34 -15q-15 0 -24 9.5t-9 23.5q0 20 15 34.5t34 14.5zM397 1337q15 0 24 -9t9 -23q0 -20 -15 -35t-34 -15q-15 0 -24 9.5t-9 23.5q0 20 15 34.5t34 14.5z" />
    <glyph glyph-name="copyright" unicode="&#xa9;" horiz-adv-x="1716" 
d="M858 1487q153 0 291 -59.5t237.5 -161t157.5 -242.5t58 -297t-58 -297t-157.5 -242.5t-237.5 -161t-291 -59.5q-205 0 -375.5 101t-269 275.5t-98.5 383.5t98.5 383.5t269 275.5t375.5 101zM858 1442q-191 0 -352 -95.5t-253.5 -260t-92.5 -359.5t92.5 -359t253.5 -259
t352 -95t352 95t253.5 259t92.5 359t-92.5 359.5t-253.5 260t-352 95.5zM864 1155q134 0 225 -73t109 -210h-45q-23 113 -95.5 176.5t-193.5 63.5q-145 0 -233 -112.5t-88 -270.5q0 -163 88 -272t225 -109q243 0 295 238h45q-27 -138 -117.5 -209.5t-228.5 -71.5
q-147 0 -249.5 116t-102.5 306q0 194 105 311t261 117z" />
    <glyph glyph-name="guillemotleft" unicode="&#xab;" horiz-adv-x="933" 
d="M258 504l217 -336h-55l-221 340l340 340h63zM504 504l217 -336h-55l-222 340l340 340h64z" />
    <glyph glyph-name="logicalnot" unicode="&#xac;" 
d="M850 430h-45l49 275h-674l8 43h719z" />
    <glyph glyph-name="registered" unicode="&#xae;" horiz-adv-x="1069" 
d="M590 1565q177 0 280 -105.5t103 -269.5q0 -66 -19.5 -133.5t-60 -131t-97.5 -112.5t-139.5 -78.5t-177.5 -29.5q-177 0 -280 105t-103 269q0 66 19 133.5t60 131t98 113t139.5 79t177.5 29.5zM487 748q85 0 158 27t123.5 72t87 103t53.5 119t17 121q0 142 -92.5 237
t-251.5 95q-85 0 -158 -27.5t-123.5 -72.5t-87 -103t-53.5 -119t-17 -121q0 -142 92.5 -236.5t251.5 -94.5zM596 1350q50 -6 78 -37.5t28 -75.5q0 -47 -30 -77t-78 -40q45 -17 45 -69q0 -64 18 -117h-47q-14 35 -14 86q0 47 -12 63.5t-49 16.5h-84l-29 -166h-41l74 418h94
q29 0 47 -2zM559 1141q46 4 71 29t25 65q0 64 -69 76q-12 2 -45 2h-54l-30 -174h57q27 0 45 2z" />
    <glyph glyph-name="macron" unicode="&#xaf;" horiz-adv-x="614" 
d="M446 1270h-286l8 43h287z" />
    <glyph glyph-name="degree" unicode="&#xb0;" horiz-adv-x="567" 
d="M459 1534q79 0 127.5 -49t48.5 -123q0 -107 -73.5 -174.5t-176.5 -67.5q-79 0 -127.5 49t-48.5 123q0 107 73.5 174.5t176.5 67.5zM451 1491q-81 0 -137 -56.5t-56 -142.5q0 -59 36 -94t99 -35q81 0 137 56.5t56 142.5q0 59 -36 94t-99 35z" />
    <glyph glyph-name="plusminus" unicode="&#xb1;" 
d="M975 672l-6 -43h-387l-76 -430h-45l76 430h-387l6 43h387l75 430h46l-76 -430h387zM45 43h819l-6 -43h-819z" />
    <glyph glyph-name="acute" unicode="&#xb4;" horiz-adv-x="614" 
d="M301 1188h-39l164 225h57z" />
    <glyph glyph-name="paragraph" unicode="&#xb6;" horiz-adv-x="1060" 
d="M1071 1413l-291 -1638h-45l283 1595h-262l-283 -1595h-45l156 880h-47q-80 0 -115 2q-63 4 -114 32.5t-82.5 73.5t-48.5 100.5t-17 115.5q0 54 14 110t45 112.5t76 101t112.5 74t147.5 34.5q37 2 117 2h399z" />
    <glyph glyph-name="periodcentered" unicode="&#xb7;" horiz-adv-x="278" 
d="M158 670q37 0 37 -37q0 -23 -16 -38t-38 -15q-37 0 -37 36q0 23 16 38.5t38 15.5z" />
    <glyph glyph-name="cedilla" unicode="&#xb8;" horiz-adv-x="614" 
d="M369 2l-76 -106q71 -6 112 -43t41 -101q0 -89 -65.5 -135.5t-171.5 -46.5q-59 0 -105 14l9 43q43 -14 104 -14q86 0 134 37t48 100q0 118 -180 109l113 155z" />
    <glyph glyph-name="guillemotright" unicode="&#xbb;" horiz-adv-x="933" 
d="M477 508l-340 -340h-63l344 344l-217 336h55zM723 508l-340 -340h-64l345 344l-218 336h56z" />
    <glyph glyph-name="questiondown" unicode="&#xbf;" horiz-adv-x="960" 
d="M608 1022q-15 0 -24 9.5t-9 23.5q0 20 15.5 34.5t34.5 14.5q15 0 23.5 -9.5t8.5 -23.5q0 -20 -15 -34.5t-34 -14.5zM350 -367q-80 0 -145 26t-104 68t-60 92.5t-21 102.5q0 113 58.5 209t206.5 242q65 64 102 103t71.5 83t52.5 84.5t32.5 90t25.5 116.5h41
q-14 -107 -48 -185.5t-87 -145t-160 -173.5q-145 -145 -196 -233.5t-51 -190.5t79.5 -174t208.5 -72q177 0 291 103.5t158 283.5h45q-40 -195 -175 -312.5t-325 -117.5z" />
    <glyph glyph-name="Agrave" unicode="&#xc0;" horiz-adv-x="1269" 
d="M809 1507l-96 193h53l80 -193h-37zM975 551h-633l-309 -551h-56l797 1413h68l297 -1413h-49zM967 594l-162 780l-438 -780h600z" />
    <glyph glyph-name="Aacute" unicode="&#xc1;" horiz-adv-x="1269" 
d="M842 1507h-39l141 193h57zM975 551h-633l-309 -551h-56l797 1413h68l297 -1413h-49zM967 594l-162 780l-438 -780h600z" />
    <glyph glyph-name="Acircumflex" unicode="&#xc2;" horiz-adv-x="1269" 
d="M727 1507h-53l166 193h51l100 -193h-49l-80 162zM975 551h-633l-309 -551h-56l797 1413h68l297 -1413h-49zM967 594l-162 780l-438 -780h600z" />
    <glyph glyph-name="Atilde" unicode="&#xc3;" horiz-adv-x="1269" 
d="M737 1608q-34 0 -39 -41h-41q2 40 22.5 62t57.5 22q41 0 121 -27q62 -22 92 -22q34 0 39 40h41q-1 -40 -22 -61.5t-58 -21.5q-44 0 -121 26q-65 23 -92 23zM975 551h-633l-309 -551h-56l797 1413h68l297 -1413h-49zM967 594l-162 780l-438 -780h600z" />
    <glyph glyph-name="Adieresis" unicode="&#xc4;" horiz-adv-x="1269" 
d="M764 1563q-15 0 -24 9t-9 23q0 20 15 35t34 15q15 0 24 -9.5t9 -23.5q0 -20 -15 -34.5t-34 -14.5zM907 1563q-15 0 -24 9t-9 23q0 20 15.5 35t34.5 15q15 0 23.5 -9.5t8.5 -23.5q0 -20 -15 -34.5t-34 -14.5zM975 551h-633l-309 -551h-56l797 1413h68l297 -1413h-49z
M967 594l-162 780l-438 -780h600z" />
    <glyph glyph-name="Aring" unicode="&#xc5;" horiz-adv-x="1269" 
d="M821 1479q-47 0 -77.5 27t-30.5 73q0 66 46.5 108t106.5 42q47 0 78 -27.5t31 -73.5q0 -66 -47 -107.5t-107 -41.5zM858 1686q-42 0 -69 -30t-27 -71q0 -28 17.5 -45.5t49.5 -17.5q42 0 69.5 29.5t27.5 70.5q0 28 -18 46t-50 18zM975 551h-633l-309 -551h-56l797 1413h68
l297 -1413h-49zM967 594l-162 780l-438 -780h600z" />
    <glyph glyph-name="AE" unicode="&#xc6;" horiz-adv-x="1918" 
d="M1159 1372l-86 -645h750l-8 -41h-746l-86 -645h780l-8 -41h-821l74 551h-562l-450 -551h-57l1161 1413h885l-9 -41h-817zM1116 1372l-635 -778h533z" />
    <glyph glyph-name="Ccedilla" unicode="&#xc7;" horiz-adv-x="1423" 
d="M915 1442q224 0 347.5 -126.5t123.5 -324.5v-20h-45v20q0 193 -116 300.5t-326 107.5q-85 0 -169.5 -25t-164.5 -72t-148.5 -120.5t-120 -165t-81 -211t-29.5 -252.5q0 -132 35.5 -236t98.5 -169.5t146.5 -99.5t182.5 -34q110 0 206 33t168.5 93t126.5 136t91 168l8 21
h45l-8 -21q-41 -101 -98.5 -184t-136.5 -149.5t-184 -103t-228 -36.5q-24 0 -64 4l-55 -79q71 -6 112.5 -43t41.5 -101q0 -89 -66 -135.5t-172 -46.5q-58 0 -104 14l8 43q43 -14 104 -14q86 0 134.5 37t48.5 100q0 118 -181 109l89 123q-184 33 -291 182t-107 387
q0 201 63.5 370.5t170.5 282.5t248 175.5t296 62.5z" />
    <glyph glyph-name="Egrave" unicode="&#xc8;" horiz-adv-x="1099" 
d="M702 1507l-96 193h53l80 -193h-37zM344 1372l-113 -645h773l-9 -41h-772l-112 -645h833l-8 -41h-879l250 1413h858l-8 -41h-813z" />
    <glyph glyph-name="Eacute" unicode="&#xc9;" horiz-adv-x="1099" 
d="M735 1507h-39l142 193h57zM344 1372l-113 -645h773l-9 -41h-772l-112 -645h833l-8 -41h-879l250 1413h858l-8 -41h-813z" />
    <glyph glyph-name="Ecircumflex" unicode="&#xca;" horiz-adv-x="1099" 
d="M621 1507h-54l166 193h51l101 -193h-49l-80 162zM344 1372l-113 -645h773l-9 -41h-772l-112 -645h833l-8 -41h-879l250 1413h858l-8 -41h-813z" />
    <glyph glyph-name="Edieresis" unicode="&#xcb;" horiz-adv-x="1099" 
d="M657 1563q-15 0 -23.5 9t-8.5 23q0 20 15 35t34 15q15 0 24 -9.5t9 -23.5q0 -20 -15.5 -34.5t-34.5 -14.5zM801 1563q-15 0 -24 9t-9 23q0 20 15 35t34 15q15 0 24 -9.5t9 -23.5q0 -20 -15 -34.5t-34 -14.5zM344 1372l-113 -645h773l-9 -41h-772l-112 -645h833l-8 -41
h-879l250 1413h858l-8 -41h-813z" />
    <glyph glyph-name="Igrave" unicode="&#xcc;" horiz-adv-x="311" 
d="M365 1507h-37l-97 193h54zM102 0h-45l250 1413h45z" />
    <glyph glyph-name="Iacute" unicode="&#xcd;" horiz-adv-x="311" 
d="M360 1507h-38l141 193h57zM102 0h-45l250 1413h45z" />
    <glyph glyph-name="Icircumflex" unicode="&#xce;" horiz-adv-x="311" 
d="M461 1507l-80 162l-135 -162h-53l165 193h52l100 -193h-49zM307 1413h45l-250 -1413h-45z" />
    <glyph glyph-name="Idieresis" unicode="&#xcf;" horiz-adv-x="311" 
d="M299 1645q15 0 24 -9.5t9 -23.5q0 -20 -15 -34.5t-34 -14.5q-15 0 -24 9t-9 23q0 20 15 35t34 15zM442 1645q15 0 24 -9.5t9 -23.5q0 -20 -15 -34.5t-34 -14.5q-15 0 -24 9t-9 23q0 20 15 35t34 15zM102 0h-45l250 1413h45z" />
    <glyph glyph-name="Eth" unicode="&#xd0;" horiz-adv-x="1372" 
d="M842 1409q77 -6 145.5 -30t129 -70t104 -111t69 -159t25.5 -208q0 -154 -52.5 -298.5t-145 -257t-227.5 -185t-292 -84.5q-74 -6 -182 -6h-359l117 662h-121l8 43h121l125 708h387q99 0 148 -4zM608 51q151 14 277.5 85t209 178.5t128 240t45.5 272.5q0 250 -118 385.5
t-316 153.5q-45 4 -148 4h-340l-119 -665h391l-8 -43h-391l-108 -619h321q83 0 176 8z" />
    <glyph glyph-name="Ntilde" unicode="&#xd1;" horiz-adv-x="1228" 
d="M715 1608q-34 0 -39 -41h-41q2 40 22.5 62t57.5 22q41 0 121 -27q62 -22 92 -22q34 0 39 40h41q-1 -40 -22 -61.5t-58 -21.5q-44 0 -121 26q-65 23 -92 23zM1270 1413l-250 -1413h-70l-606 1376l-242 -1376h-45l250 1413h68l606 -1372l244 1372h45z" />
    <glyph glyph-name="Ograve" unicode="&#xd2;" horiz-adv-x="1521" 
d="M913 1507l-96 193h53l80 -193h-37zM909 1442q243 0 398 -168t155 -449q0 -122 -32 -243.5t-98 -231.5t-156 -194.5t-215.5 -134.5t-268.5 -50q-243 0 -398 168t-155 449q0 122 32 243.5t98 231.5t156 194.5t215.5 134.5t268.5 50zM698 14q131 0 247 46.5t200.5 126
t146.5 183t92.5 220.5t30.5 235q0 132 -40 241t-109.5 181.5t-163 112t-199.5 39.5q-131 0 -247 -46.5t-200.5 -126t-146.5 -183t-92.5 -220.5t-30.5 -235q0 -132 40 -241t109.5 -181.5t163 -112t199.5 -39.5z" />
    <glyph glyph-name="Oacute" unicode="&#xd3;" horiz-adv-x="1521" 
d="M946 1507h-39l142 193h57zM909 1442q243 0 398 -168t155 -449q0 -122 -32 -243.5t-98 -231.5t-156 -194.5t-215.5 -134.5t-268.5 -50q-243 0 -398 168t-155 449q0 122 32 243.5t98 231.5t156 194.5t215.5 134.5t268.5 50zM698 14q131 0 247 46.5t200.5 126t146.5 183
t92.5 220.5t30.5 235q0 132 -40 241t-109.5 181.5t-163 112t-199.5 39.5q-131 0 -247 -46.5t-200.5 -126t-146.5 -183t-92.5 -220.5t-30.5 -235q0 -132 40 -241t109.5 -181.5t163 -112t199.5 -39.5z" />
    <glyph glyph-name="Ocircumflex" unicode="&#xd4;" horiz-adv-x="1521" 
d="M831 1507h-53l166 193h51l101 -193h-49l-80 162zM909 1442q243 0 398 -168t155 -449q0 -122 -32 -243.5t-98 -231.5t-156 -194.5t-215.5 -134.5t-268.5 -50q-243 0 -398 168t-155 449q0 122 32 243.5t98 231.5t156 194.5t215.5 134.5t268.5 50zM698 14q131 0 247 46.5
t200.5 126t146.5 183t92.5 220.5t30.5 235q0 132 -40 241t-109.5 181.5t-163 112t-199.5 39.5q-131 0 -247 -46.5t-200.5 -126t-146.5 -183t-92.5 -220.5t-30.5 -235q0 -132 40 -241t109.5 -181.5t163 -112t199.5 -39.5z" />
    <glyph glyph-name="Otilde" unicode="&#xd5;" horiz-adv-x="1521" 
d="M842 1608q-34 0 -39 -41h-41q2 40 22.5 62t57.5 22q41 0 121 -27q62 -22 92 -22q34 0 39 40h41q-1 -40 -22 -61.5t-58 -21.5q-44 0 -121 26q-65 23 -92 23zM909 1442q243 0 398 -168t155 -449q0 -122 -32 -243.5t-98 -231.5t-156 -194.5t-215.5 -134.5t-268.5 -50
q-243 0 -398 168t-155 449q0 122 32 243.5t98 231.5t156 194.5t215.5 134.5t268.5 50zM698 14q131 0 247 46.5t200.5 126t146.5 183t92.5 220.5t30.5 235q0 132 -40 241t-109.5 181.5t-163 112t-199.5 39.5q-131 0 -247 -46.5t-200.5 -126t-146.5 -183t-92.5 -220.5
t-30.5 -235q0 -132 40 -241t109.5 -181.5t163 -112t199.5 -39.5z" />
    <glyph glyph-name="Odieresis" unicode="&#xd6;" horiz-adv-x="1521" 
d="M868 1563q-15 0 -23.5 9t-8.5 23q0 20 15 35t34 15q15 0 24 -9.5t9 -23.5q0 -20 -15.5 -34.5t-34.5 -14.5zM1012 1563q-15 0 -24 9t-9 23q0 20 15 35t34 15q15 0 24 -9.5t9 -23.5q0 -20 -15 -34.5t-34 -14.5zM909 1442q243 0 398 -168t155 -449q0 -122 -32 -243.5
t-98 -231.5t-156 -194.5t-215.5 -134.5t-268.5 -50q-243 0 -398 168t-155 449q0 122 32 243.5t98 231.5t156 194.5t215.5 134.5t268.5 50zM698 14q131 0 247 46.5t200.5 126t146.5 183t92.5 220.5t30.5 235q0 132 -40 241t-109.5 181.5t-163 112t-199.5 39.5
q-131 0 -247 -46.5t-200.5 -126t-146.5 -183t-92.5 -220.5t-30.5 -235q0 -132 40 -241t109.5 -181.5t163 -112t199.5 -39.5z" />
    <glyph glyph-name="multiply" unicode="&#xd7;" 
d="M592 641l254 -309l-35 -31l-254 309l-364 -309l-29 33l364 309l-252 307l35 31l252 -307l365 309l28 -33z" />
    <glyph glyph-name="Oslash" unicode="&#xd8;" horiz-adv-x="1505" 
d="M1550 1321l-176 -150q80 -151 80 -346q0 -122 -32 -243.5t-98 -231.5t-156 -194.5t-215.5 -134.5t-268.5 -50q-142 0 -258 60.5t-190 171.5l-173 -146l-28 35l176 150q-80 151 -80 346q0 122 32 243.5t98 231.5t156 194.5t215.5 134.5t268.5 50q142 0 258.5 -60.5
t190.5 -171.5l172 146zM178 588q0 -176 72 -314l1063 904q-70 107 -179 164t-239 57q-131 0 -247 -46.5t-200.5 -126t-146.5 -183t-92.5 -220.5t-30.5 -235zM1407 825q0 179 -74 314l-1061 -903q69 -106 178.5 -164t239.5 -58q131 0 247 46.5t200.5 126t146.5 183
t92.5 220.5t30.5 235z" />
    <glyph glyph-name="Ugrave" unicode="&#xd9;" horiz-adv-x="1228" 
d="M827 1507h-36l-97 193h54zM1247 1413l-164 -924q-13 -70 -28 -137q-21 -84 -60.5 -151.5t-100 -120t-149 -81t-198.5 -28.5q-185 0 -288 91.5t-103 238.5q0 80 18 188l164 924h45l-164 -932q-18 -106 -18 -178q0 -126 88.5 -207.5t265.5 -81.5q193 0 306 95.5t153 255.5
q11 47 26 127l162 921h45z" />
    <glyph glyph-name="Uacute" unicode="&#xda;" horiz-adv-x="1228" 
d="M823 1507h-39l142 193h57zM1247 1413l-164 -924q-13 -70 -28 -137q-21 -84 -60.5 -151.5t-100 -120t-149 -81t-198.5 -28.5q-185 0 -288 91.5t-103 238.5q0 80 18 188l164 924h45l-164 -932q-18 -106 -18 -178q0 -126 88.5 -207.5t265.5 -81.5q193 0 306 95.5t153 255.5
q11 47 26 127l162 921h45z" />
    <glyph glyph-name="Ucircumflex" unicode="&#xdb;" horiz-adv-x="1228" 
d="M709 1507h-54l166 193h51l101 -193h-49l-80 162zM1247 1413l-164 -924q-13 -70 -28 -137q-21 -84 -60.5 -151.5t-100 -120t-149 -81t-198.5 -28.5q-185 0 -288 91.5t-103 238.5q0 80 18 188l164 924h45l-164 -932q-18 -106 -18 -178q0 -126 88.5 -207.5t265.5 -81.5
q193 0 306 95.5t153 255.5q11 47 26 127l162 921h45z" />
    <glyph glyph-name="Udieresis" unicode="&#xdc;" horiz-adv-x="1228" 
d="M762 1645q15 0 24 -9.5t9 -23.5q0 -20 -15.5 -34.5t-34.5 -14.5q-15 0 -23.5 9t-8.5 23q0 20 15 35t34 15zM905 1645q15 0 24 -9.5t9 -23.5q0 -20 -15 -34.5t-34 -14.5q-15 0 -24 9t-9 23q0 20 15 35t34 15zM1247 1413l-164 -924q-13 -70 -28 -137q-21 -84 -60.5 -151.5
t-100 -120t-149 -81t-198.5 -28.5q-185 0 -288 91.5t-103 238.5q0 80 18 188l164 924h45l-164 -932q-18 -106 -18 -178q0 -126 88.5 -207.5t265.5 -81.5q193 0 306 95.5t153 255.5q11 47 26 127l162 921h45z" />
    <glyph glyph-name="Yacute" unicode="&#xdd;" horiz-adv-x="1116" 
d="M756 1507h-39l141 193h57zM596 553l-98 -553h-45l98 555l-350 858h49l332 -809l612 809h59z" />
    <glyph glyph-name="Thorn" unicode="&#xde;" horiz-adv-x="1099" 
d="M778 1161q289 -41 289 -272q0 -20 -8 -78q-29 -167 -139.5 -259t-268.5 -112q-85 -10 -205 -10h-268l-76 -430h-45l250 1413h45l-43 -242h269q121 0 200 -10zM1010 811q6 37 6 70q0 207 -254 237q-79 10 -193 10h-266l-117 -655h269q111 0 196 10q141 16 237 96t122 232z
" />
    <glyph glyph-name="germandbls" unicode="&#xdf;" horiz-adv-x="1034" 
d="M737 1544q134 0 219.5 -75t85.5 -203q0 -152 -104 -271q-115 -50 -168 -102.5t-53 -130.5q0 -44 20 -81.5t70 -92.5q78 -84 113.5 -147.5t35.5 -129.5q0 -44 -14 -87.5t-46 -85.5t-78.5 -74.5t-117.5 -52t-157 -19.5q-113 0 -217 24l8 43q104 -24 217 -24q89 0 160 25
t112.5 66t63.5 87.5t22 93.5q0 54 -29 108.5t-102 135.5q-59 65 -83.5 112.5t-24.5 94.5q0 94 57.5 154t190.5 124q42 53 59.5 106t17.5 122q0 110 -71 173.5t-191 63.5q-89 0 -161.5 -29.5t-121 -76.5t-85.5 -114t-57.5 -132.5t-33.5 -140.5l-178 -1008h-45l176 1004
q15 82 38 154t64 145t95 124.5t134.5 84t178.5 32.5z" />
    <glyph glyph-name="agrave" unicode="&#xe0;" horiz-adv-x="1013" 
d="M657 1188l-102 225h53l86 -225h-37zM639 1106q143 0 217 -70.5t74 -189.5q0 -52 -19 -158l-61 -340q-28 -173 -43 -348h-47l33 262l-64 -104q-74 -91 -173.5 -139t-209.5 -48q-124 0 -204.5 65.5t-80.5 190.5q0 95 44 169t119.5 119t176.5 74t216 33.5t237 -1.5l10 63
q19 108 19 147q0 112 -59.5 172t-192.5 60q-83 0 -157 -27.5t-137.5 -92.5t-92.5 -161h-45q35 139 155.5 231.5t284.5 92.5zM360 14q112 0 212 59.5t164 153.5t83 201l27 150q-339 30 -538 -66t-199 -283q0 -103 67.5 -159t183.5 -56z" />
    <glyph glyph-name="aacute" unicode="&#xe1;" horiz-adv-x="1013" 
d="M684 1188h-39l164 225h57zM639 1106q143 0 217 -70.5t74 -189.5q0 -52 -19 -158l-61 -340q-28 -173 -43 -348h-47l33 262l-64 -104q-74 -91 -173.5 -139t-209.5 -48q-124 0 -204.5 65.5t-80.5 190.5q0 95 44 169t119.5 119t176.5 74t216 33.5t237 -1.5l10 63
q19 108 19 147q0 112 -59.5 172t-192.5 60q-83 0 -157 -27.5t-137.5 -92.5t-92.5 -161h-45q35 139 155.5 231.5t284.5 92.5zM360 14q112 0 212 59.5t164 153.5t83 201l27 150q-339 30 -538 -66t-199 -283q0 -103 67.5 -159t183.5 -56z" />
    <glyph glyph-name="acircumflex" unicode="&#xe2;" horiz-adv-x="1013" 
d="M563 1188h-49l174 225h49l92 -225h-47l-73 192zM639 1106q143 0 217 -70.5t74 -189.5q0 -52 -19 -158l-61 -340q-28 -173 -43 -348h-47l33 262l-64 -104q-74 -91 -173.5 -139t-209.5 -48q-124 0 -204.5 65.5t-80.5 190.5q0 95 44 169t119.5 119t176.5 74t216 33.5
t237 -1.5l10 63q19 108 19 147q0 112 -59.5 172t-192.5 60q-83 0 -157 -27.5t-137.5 -92.5t-92.5 -161h-45q35 139 155.5 231.5t284.5 92.5zM360 14q112 0 212 59.5t164 153.5t83 201l27 150q-339 30 -538 -66t-199 -283q0 -103 67.5 -159t183.5 -56z" />
    <glyph glyph-name="atilde" unicode="&#xe3;" horiz-adv-x="1013" 
d="M588 1331q-34 0 -39 -41h-41q2 40 22.5 62t57.5 22q44 0 121 -26q65 -23 92 -23q34 0 39 41h41q-2 -40 -22.5 -62t-57.5 -22q-41 0 -121 27q-62 22 -92 22zM639 1106q143 0 217 -70.5t74 -189.5q0 -52 -19 -158l-61 -340q-28 -173 -43 -348h-47l33 262l-64 -104
q-74 -91 -173.5 -139t-209.5 -48q-124 0 -204.5 65.5t-80.5 190.5q0 95 44 169t119.5 119t176.5 74t216 33.5t237 -1.5l10 63q19 108 19 147q0 112 -59.5 172t-192.5 60q-83 0 -157 -27.5t-137.5 -92.5t-92.5 -161h-45q35 139 155.5 231.5t284.5 92.5zM360 14
q112 0 212 59.5t164 153.5t83 201l27 150q-339 30 -538 -66t-199 -283q0 -103 67.5 -159t183.5 -56z" />
    <glyph glyph-name="adieresis" unicode="&#xe4;" horiz-adv-x="1013" 
d="M598 1255q-15 0 -24 9.5t-9 23.5q0 20 15 34.5t34 14.5q15 0 24 -9t9 -23q0 -20 -15 -35t-34 -15zM762 1255q-15 0 -24 9.5t-9 23.5q0 20 15 34.5t34 14.5q15 0 24 -9t9 -23q0 -20 -15 -35t-34 -15zM639 1106q143 0 217 -70.5t74 -189.5q0 -52 -19 -158l-61 -340
q-28 -173 -43 -348h-47l33 262l-64 -104q-74 -91 -173.5 -139t-209.5 -48q-124 0 -204.5 65.5t-80.5 190.5q0 95 44 169t119.5 119t176.5 74t216 33.5t237 -1.5l10 63q19 108 19 147q0 112 -59.5 172t-192.5 60q-83 0 -157 -27.5t-137.5 -92.5t-92.5 -161h-45
q35 139 155.5 231.5t284.5 92.5zM360 14q112 0 212 59.5t164 153.5t83 201l27 150q-339 30 -538 -66t-199 -283q0 -103 67.5 -159t183.5 -56z" />
    <glyph glyph-name="aring" unicode="&#xe5;" horiz-adv-x="1013" 
d="M666 1171q-46 0 -76.5 28t-30.5 73q0 68 45.5 110.5t106.5 42.5q46 0 76 -27.5t30 -72.5q0 -68 -45 -111t-106 -43zM702 1382q-42 0 -69 -30.5t-27 -71.5q0 -29 17.5 -47.5t50.5 -18.5q41 0 68.5 31t27.5 72q0 29 -17.5 47t-50.5 18zM639 1106q143 0 217 -70.5t74 -189.5
q0 -52 -19 -158l-61 -340q-28 -173 -43 -348h-47l33 262l-64 -104q-74 -91 -173.5 -139t-209.5 -48q-124 0 -204.5 65.5t-80.5 190.5q0 95 44 169t119.5 119t176.5 74t216 33.5t237 -1.5l10 63q19 108 19 147q0 112 -59.5 172t-192.5 60q-83 0 -157 -27.5t-137.5 -92.5
t-92.5 -161h-45q35 139 155.5 231.5t284.5 92.5zM360 14q112 0 212 59.5t164 153.5t83 201l27 150q-339 30 -538 -66t-199 -283q0 -103 67.5 -159t183.5 -56z" />
    <glyph glyph-name="ae" unicode="&#xe6;" horiz-adv-x="1914" 
d="M1825 528h-883q-12 -74 -12 -137q0 -192 94.5 -284.5t247.5 -92.5q136 0 261 80t198 236h45q-79 -173 -218 -266t-298 -93q-96 0 -169.5 31.5t-115 85t-63 115t-23.5 131.5l-70 -137q-190 -226 -457 -226q-134 0 -220.5 57.5t-86.5 172.5q0 372 779 372h69q23 133 23 201
q0 297 -289 297q-60 0 -119.5 -16t-116 -48t-101.5 -88t-67 -128h-45q34 136 165 229.5t292 93.5q81 0 143.5 -21t98.5 -53.5t57.5 -77.5t27.5 -88.5t3 -89.5q67 154 205.5 242t289.5 88q97 0 171 -33.5t117.5 -92t65 -131.5t21.5 -159q0 -96 -20 -170zM1458 1071
q-84 0 -163.5 -31t-148 -91.5t-121 -157.5t-77.5 -220h836q11 78 11 150.5t-23 136t-61.5 111t-103.5 75t-149 27.5zM377 14q187 0 329 126.5t179 328.5l10 59q-35 2 -104 2q-321 0 -503 -79.5t-182 -233.5q0 -93 73 -148t198 -55z" />
    <glyph glyph-name="ccedilla" unicode="&#xe7;" horiz-adv-x="1058" 
d="M651 1106q173 0 270.5 -100t92.5 -263h-45q0 150 -83.5 236t-244.5 86q-121 0 -225 -53.5t-172.5 -142.5t-107 -202.5t-38.5 -234.5q0 -206 98 -313t250 -107l3 2l6 -2q145 2 260.5 82.5t181.5 227.5h45q-65 -163 -191 -253t-286 -98l-55 -75q71 -6 112 -43t41 -101
q0 -89 -65.5 -135.5t-171.5 -46.5q-59 0 -105 14l8 43q43 -14 105 -14q86 0 134 37t48 100q0 118 -180 109l82 112q-166 8 -265.5 128.5t-99.5 330.5q0 100 24.5 197t74.5 183.5t120 152.5t168 104.5t211 38.5z" />
    <glyph glyph-name="egrave" unicode="&#xe8;" horiz-adv-x="1071" 
d="M629 1188l-103 225h54l86 -225h-37zM981 528h-875q-10 -65 -10 -108q0 -107 28.5 -188t78 -127t108.5 -68.5t127 -22.5q135 0 255.5 79.5t193.5 236.5h45q-85 -184 -215 -271.5t-291 -87.5q-168 0 -272.5 115t-104.5 332q0 89 23.5 183.5t73 184.5t117.5 161.5t165.5 115
t208.5 43.5q97 0 169 -32.5t113.5 -90t61.5 -129.5t20 -158q0 -94 -20 -168zM631 1063q-86 0 -163 -29.5t-133.5 -78t-102 -113.5t-73.5 -132.5t-44 -138.5h829q10 56 10 125q0 100 -25 173t-71 114.5t-102 60.5t-125 19z" />
    <glyph glyph-name="eacute" unicode="&#xe9;" horiz-adv-x="1071" 
d="M655 1188h-39l164 225h58zM981 528h-875q-10 -65 -10 -108q0 -107 28.5 -188t78 -127t108.5 -68.5t127 -22.5q135 0 255.5 79.5t193.5 236.5h45q-85 -184 -215 -271.5t-291 -87.5q-168 0 -272.5 115t-104.5 332q0 89 23.5 183.5t73 184.5t117.5 161.5t165.5 115
t208.5 43.5q97 0 169 -32.5t113.5 -90t61.5 -129.5t20 -158q0 -94 -20 -168zM631 1063q-86 0 -163 -29.5t-133.5 -78t-102 -113.5t-73.5 -132.5t-44 -138.5h829q10 56 10 125q0 100 -25 173t-71 114.5t-102 60.5t-125 19z" />
    <glyph glyph-name="ecircumflex" unicode="&#xea;" horiz-adv-x="1071" 
d="M535 1188h-50l174 225h50l92 -225h-47l-74 192zM981 528h-875q-10 -65 -10 -108q0 -107 28.5 -188t78 -127t108.5 -68.5t127 -22.5q135 0 255.5 79.5t193.5 236.5h45q-85 -184 -215 -271.5t-291 -87.5q-168 0 -272.5 115t-104.5 332q0 89 23.5 183.5t73 184.5
t117.5 161.5t165.5 115t208.5 43.5q97 0 169 -32.5t113.5 -90t61.5 -129.5t20 -158q0 -94 -20 -168zM631 1063q-86 0 -163 -29.5t-133.5 -78t-102 -113.5t-73.5 -132.5t-44 -138.5h829q10 56 10 125q0 100 -25 173t-71 114.5t-102 60.5t-125 19z" />
    <glyph glyph-name="edieresis" unicode="&#xeb;" horiz-adv-x="1071" 
d="M569 1255q-15 0 -23.5 9.5t-8.5 23.5q0 20 15 34.5t34 14.5q15 0 23.5 -9t8.5 -23q0 -20 -15 -35t-34 -15zM733 1255q-15 0 -24 9.5t-9 23.5q0 20 15.5 34.5t34.5 14.5q15 0 23.5 -9t8.5 -23q0 -20 -15 -35t-34 -15zM981 528h-875q-10 -65 -10 -108q0 -107 28.5 -188
t78 -127t108.5 -68.5t127 -22.5q135 0 255.5 79.5t193.5 236.5h45q-85 -184 -215 -271.5t-291 -87.5q-168 0 -272.5 115t-104.5 332q0 89 23.5 183.5t73 184.5t117.5 161.5t165.5 115t208.5 43.5q97 0 169 -32.5t113.5 -90t61.5 -129.5t20 -158q0 -94 -20 -168zM631 1063
q-86 0 -163 -29.5t-133.5 -78t-102 -113.5t-73.5 -132.5t-44 -138.5h829q10 56 10 125q0 100 -25 173t-71 114.5t-102 60.5t-125 19z" />
    <glyph glyph-name="igrave" unicode="&#xec;" horiz-adv-x="333" 
d="M307 1188h-37l-102 225h53zM94 0h-45l191 1077h45z" />
    <glyph glyph-name="iacute" unicode="&#xed;" horiz-adv-x="333" 
d="M297 1188h-39l164 225h57zM94 0h-45l191 1077h45z" />
    <glyph glyph-name="icircumflex" unicode="&#xee;" horiz-adv-x="333" 
d="M395 1188l-73 192l-146 -192h-49l174 225h49l92 -225h-47zM240 1077h45l-191 -1077h-45z" />
    <glyph glyph-name="idieresis" unicode="&#xef;" horiz-adv-x="333" 
d="M227 1337q15 0 24 -9t9 -23q0 -20 -15 -35t-34 -15q-15 0 -24 9.5t-9 23.5q0 20 15 34.5t34 14.5zM391 1337q15 0 24 -9t9 -23q0 -20 -15 -35t-34 -15q-15 0 -24 9.5t-9 23.5q0 20 15 34.5t34 14.5zM94 0h-45l191 1077h45z" />
    <glyph glyph-name="eth" unicode="&#xf0;" horiz-adv-x="1107" 
d="M1081 1423l-168 -63q99 -159 99 -541q0 -141 -23.5 -267t-73 -232.5t-119.5 -184t-168 -121t-214 -43.5q-163 0 -264 127.5t-101 313.5q0 69 15 145t44 156t78.5 151t112.5 127.5t151.5 89.5t190.5 33q156 0 258 -92l66 -117q-15 306 -95 436l-350 -133l-14 39l340 131
q-72 90 -199 119l37 29q137 -41 207 -131l174 67zM424 14q112 0 205 48.5t152.5 124.5t100.5 173.5t58.5 191.5t17.5 183q0 153 -87 244.5t-236 91.5q-106 0 -197 -42t-152.5 -110.5t-105.5 -155.5t-64 -176.5t-20 -174.5q0 -182 92.5 -290t235.5 -108z" />
    <glyph glyph-name="ntilde" unicode="&#xf1;" horiz-adv-x="1087" 
d="M569 1331q-34 0 -39 -41h-41q2 40 22.5 62t57.5 22q44 0 121 -26q65 -23 92 -23q34 0 39 41h41q-2 -40 -22.5 -62t-57.5 -22q-40 0 -120 27q-62 22 -93 22zM672 1106q152 0 232.5 -78t80.5 -217q0 -81 -22 -213l-107 -598h-45l102 580q25 141 25 225q0 119 -67.5 188.5
t-206.5 69.5q-164 0 -292 -110.5t-165 -313.5l-111 -639h-45l189 1077h45l-43 -246l65 115q142 160 365 160z" />
    <glyph glyph-name="ograve" unicode="&#xf2;" horiz-adv-x="1128" 
d="M666 1188l-103 225h53l86 -225h-36zM643 1106q138 0 236.5 -62t146 -166t47.5 -239q0 -85 -21 -174.5t-68.5 -178.5t-114.5 -158.5t-167 -113t-219 -43.5q-138 0 -236.5 62t-146 166t-47.5 239q0 85 21 174.5t68.5 178.5t114.5 158.5t167 113t219 43.5zM492 14
q103 0 192.5 39.5t151 104t105.5 146.5t64.5 167.5t20.5 167.5q0 199 -109.5 311.5t-281.5 112.5q-103 0 -192.5 -39.5t-151 -104t-105.5 -146.5t-65 -167.5t-21 -167.5q0 -199 110 -311.5t282 -112.5z" />
    <glyph glyph-name="oacute" unicode="&#xf3;" horiz-adv-x="1128" 
d="M692 1188h-39l164 225h57zM643 1106q138 0 236.5 -62t146 -166t47.5 -239q0 -85 -21 -174.5t-68.5 -178.5t-114.5 -158.5t-167 -113t-219 -43.5q-138 0 -236.5 62t-146 166t-47.5 239q0 85 21 174.5t68.5 178.5t114.5 158.5t167 113t219 43.5zM492 14q103 0 192.5 39.5
t151 104t105.5 146.5t64.5 167.5t20.5 167.5q0 199 -109.5 311.5t-281.5 112.5q-103 0 -192.5 -39.5t-151 -104t-105.5 -146.5t-65 -167.5t-21 -167.5q0 -199 110 -311.5t282 -112.5z" />
    <glyph glyph-name="ocircumflex" unicode="&#xf4;" horiz-adv-x="1128" 
d="M571 1188h-49l174 225h49l93 -225h-47l-74 192zM643 1106q138 0 236.5 -62t146 -166t47.5 -239q0 -85 -21 -174.5t-68.5 -178.5t-114.5 -158.5t-167 -113t-219 -43.5q-138 0 -236.5 62t-146 166t-47.5 239q0 85 21 174.5t68.5 178.5t114.5 158.5t167 113t219 43.5z
M492 14q103 0 192.5 39.5t151 104t105.5 146.5t64.5 167.5t20.5 167.5q0 199 -109.5 311.5t-281.5 112.5q-103 0 -192.5 -39.5t-151 -104t-105.5 -146.5t-65 -167.5t-21 -167.5q0 -199 110 -311.5t282 -112.5z" />
    <glyph glyph-name="otilde" unicode="&#xf5;" horiz-adv-x="1128" 
d="M596 1331q-34 0 -39 -41h-41q2 40 22.5 62t57.5 22q44 0 121 -26q65 -23 92 -23q34 0 39 41h41q-2 -40 -22.5 -62t-57.5 -22q-41 0 -121 27q-62 22 -92 22zM643 1106q138 0 236.5 -62t146 -166t47.5 -239q0 -85 -21 -174.5t-68.5 -178.5t-114.5 -158.5t-167 -113
t-219 -43.5q-138 0 -236.5 62t-146 166t-47.5 239q0 85 21 174.5t68.5 178.5t114.5 158.5t167 113t219 43.5zM492 14q103 0 192.5 39.5t151 104t105.5 146.5t64.5 167.5t20.5 167.5q0 199 -109.5 311.5t-281.5 112.5q-103 0 -192.5 -39.5t-151 -104t-105.5 -146.5
t-65 -167.5t-21 -167.5q0 -199 110 -311.5t282 -112.5z" />
    <glyph glyph-name="odieresis" unicode="&#xf6;" horiz-adv-x="1128" 
d="M606 1255q-15 0 -24 9.5t-9 23.5q0 20 15.5 34.5t34.5 14.5q15 0 23.5 -9t8.5 -23q0 -20 -15 -35t-34 -15zM770 1255q-15 0 -24 9.5t-9 23.5q0 20 15 34.5t34 14.5q15 0 24 -9t9 -23q0 -20 -15 -35t-34 -15zM643 1106q138 0 236.5 -62t146 -166t47.5 -239
q0 -85 -21 -174.5t-68.5 -178.5t-114.5 -158.5t-167 -113t-219 -43.5q-138 0 -236.5 62t-146 166t-47.5 239q0 85 21 174.5t68.5 178.5t114.5 158.5t167 113t219 43.5zM492 14q103 0 192.5 39.5t151 104t105.5 146.5t64.5 167.5t20.5 167.5q0 199 -109.5 311.5t-281.5 112.5
q-103 0 -192.5 -39.5t-151 -104t-105.5 -146.5t-65 -167.5t-21 -167.5q0 -199 110 -311.5t282 -112.5z" />
    <glyph glyph-name="divide" unicode="&#xf7;" 
d="M629 1020q20 0 32.5 -11t12.5 -30q0 -28 -19 -47t-45 -19q-21 0 -33 12t-12 33q0 26 19.5 44t44.5 18zM969 629h-819l8 43h819zM516 385q21 0 33 -12t12 -33q0 -26 -19 -43.5t-44 -17.5q-20 0 -32.5 10.5t-12.5 29.5q0 28 18.5 47t44.5 19z" />
    <glyph glyph-name="oslash" unicode="&#xf8;" horiz-adv-x="1249" 
d="M1255 1067l-204 -174q55 -107 55 -254q0 -85 -21 -174.5t-68.5 -178.5t-114.5 -158.5t-167 -113t-219 -43.5q-234 0 -348 170l-182 -153l-25 30l184 158q-59 112 -59 262q0 85 21 174.5t68.5 178.5t114.5 158.5t167 113t219 43.5q242 0 354 -178l201 170zM133 438
q0 -135 51 -229l809 686q-52 81 -136 124.5t-189 43.5q-103 0 -192.5 -39.5t-151 -104t-105.5 -146.5t-65 -167.5t-21 -167.5zM1059 639q0 129 -47 221l-807 -686q52 -78 134.5 -119t184.5 -41q103 0 192.5 39.5t151 104t105.5 146.5t65 167.5t21 167.5z" />
    <glyph glyph-name="ugrave" unicode="&#xf9;" horiz-adv-x="1079" 
d="M612 1188l-102 225h53l86 -225h-37zM1028 1077l-188 -1077h-45l43 246l-66 -115q-142 -160 -364 -160q-152 0 -233 78.5t-81 216.5q0 75 23 213l106 598h45l-102 -579q-25 -141 -25 -226q0 -118 68 -188t207 -70q164 0 291.5 110.5t164.5 313.5l111 639h45z" />
    <glyph glyph-name="uacute" unicode="&#xfa;" horiz-adv-x="1079" 
d="M639 1188h-39l164 225h57zM1028 1077l-188 -1077h-45l43 246l-66 -115q-142 -160 -364 -160q-152 0 -233 78.5t-81 216.5q0 75 23 213l106 598h45l-102 -579q-25 -141 -25 -226q0 -118 68 -188t207 -70q164 0 291.5 110.5t164.5 313.5l111 639h45z" />
    <glyph glyph-name="ucircumflex" unicode="&#xfb;" horiz-adv-x="1079" 
d="M518 1188h-49l174 225h49l92 -225h-47l-73 192zM1028 1077l-188 -1077h-45l43 246l-66 -115q-142 -160 -364 -160q-152 0 -233 78.5t-81 216.5q0 75 23 213l106 598h45l-102 -579q-25 -141 -25 -226q0 -118 68 -188t207 -70q164 0 291.5 110.5t164.5 313.5l111 639h45z
" />
    <glyph glyph-name="udieresis" unicode="&#xfc;" horiz-adv-x="1079" 
d="M553 1255q-15 0 -24 9.5t-9 23.5q0 20 15 34.5t34 14.5q15 0 24 -9t9 -23q0 -20 -15 -35t-34 -15zM717 1255q-15 0 -24 9.5t-9 23.5q0 20 15 34.5t34 14.5q15 0 24 -9t9 -23q0 -20 -15 -35t-34 -15zM1028 1077l-188 -1077h-45l43 246l-66 -115q-142 -160 -364 -160
q-152 0 -233 78.5t-81 216.5q0 75 23 213l106 598h45l-102 -579q-25 -141 -25 -226q0 -118 68 -188t207 -70q164 0 291.5 110.5t164.5 313.5l111 639h45z" />
    <glyph glyph-name="yacute" unicode="&#xfd;" horiz-adv-x="966" 
d="M590 1188h-39l164 225h57zM1028 1077l-618 -1077q-78 -138 -140 -225.5t-114 -131.5t-92.5 -58.5t-90.5 -14.5q-36 0 -63 8l6 39q27 -6 61 -6q80 0 156 70.5t186 257.5l31 51l-235 1087h49l221 -1036l590 1036h53z" />
    <glyph glyph-name="thorn" unicode="&#xfe;" horiz-adv-x="1122" 
d="M688 1106q177 0 279 -121t102 -315q0 -102 -22 -200.5t-70 -189t-117 -159t-170.5 -109.5t-222.5 -41q-103 0 -170.5 33t-120.5 107l-35 135l-116 -647h-45l339 1906h46l-121 -669l78 118q86 84 169.5 118t196.5 34zM473 14q109 0 201 38t155.5 102.5t107.5 149t64.5 177
t20.5 187.5q0 176 -90.5 285.5t-253.5 109.5q-83 0 -156 -25t-138 -78.5t-112.5 -147.5t-70.5 -222l-21 -121q-12 -77 -11 -145.5t21.5 -125.5t56.5 -98t93.5 -63.5t132.5 -22.5z" />
    <glyph glyph-name="ydieresis" unicode="&#xff;" horiz-adv-x="966" 
d="M504 1255q-15 0 -24 9.5t-9 23.5q0 20 15 34.5t34 14.5q15 0 24 -9t9 -23q0 -20 -15 -35t-34 -15zM668 1255q-15 0 -24 9.5t-9 23.5q0 20 15 34.5t34 14.5q15 0 24 -9t9 -23q0 -20 -15 -35t-34 -15zM1028 1077l-618 -1077q-78 -138 -140 -225.5t-114 -131.5t-92.5 -58.5
t-90.5 -14.5q-36 0 -63 8l6 39q27 -6 61 -6q80 0 156 70.5t186 257.5l31 51l-235 1087h49l221 -1036l590 1036h53z" />
    <glyph glyph-name="Amacron" unicode="&#x100;" horiz-adv-x="1269" 
d="M983 1581h-287l9 43h286zM975 551h-633l-309 -551h-56l797 1413h68l297 -1413h-49zM967 594l-162 780l-438 -780h600z" />
    <glyph glyph-name="amacron" unicode="&#x101;" horiz-adv-x="1013" 
d="M827 1270h-286l8 43h287zM639 1106q143 0 217 -70.5t74 -189.5q0 -52 -19 -158l-61 -340q-28 -173 -43 -348h-47l33 262l-64 -104q-74 -91 -173.5 -139t-209.5 -48q-124 0 -204.5 65.5t-80.5 190.5q0 95 44 169t119.5 119t176.5 74t216 33.5t237 -1.5l10 63
q19 108 19 147q0 112 -59.5 172t-192.5 60q-83 0 -157 -27.5t-137.5 -92.5t-92.5 -161h-45q35 139 155.5 231.5t284.5 92.5zM360 14q112 0 212 59.5t164 153.5t83 201l27 150q-339 30 -538 -66t-199 -283q0 -103 67.5 -159t183.5 -56z" />
    <glyph glyph-name="Abreve" unicode="&#x102;" horiz-adv-x="1269" 
d="M819 1479q-78 0 -117.5 54.5t-23.5 166.5h37q-11 -103 20 -140.5t92 -37.5q142 0 185 178h37q-49 -221 -230 -221zM975 551h-633l-309 -551h-56l797 1413h68l297 -1413h-49zM967 594l-162 780l-438 -780h600z" />
    <glyph glyph-name="abreve" unicode="&#x103;" horiz-adv-x="1013" 
d="M666 1167q-88 0 -123.5 63.5t-18.5 182.5h37q-13 -109 15.5 -156t97.5 -47q68 0 115 53t69 150h37q-24 -116 -82 -181t-147 -65zM639 1106q143 0 217 -70.5t74 -189.5q0 -52 -19 -158l-61 -340q-28 -173 -43 -348h-47l33 262l-64 -104q-74 -91 -173.5 -139t-209.5 -48
q-124 0 -204.5 65.5t-80.5 190.5q0 95 44 169t119.5 119t176.5 74t216 33.5t237 -1.5l10 63q19 108 19 147q0 112 -59.5 172t-192.5 60q-83 0 -157 -27.5t-137.5 -92.5t-92.5 -161h-45q35 139 155.5 231.5t284.5 92.5zM360 14q112 0 212 59.5t164 153.5t83 201l27 150
q-339 30 -538 -66t-199 -283q0 -103 67.5 -159t183.5 -56z" />
    <glyph glyph-name="Aogonek" unicode="&#x104;" horiz-adv-x="1269" 
d="M1139 0h-9q-154 -77 -229.5 -157t-75.5 -175q0 -84 80 -84q69 0 144 64l-9 -47q-67 -58 -151 -58q-48 0 -79.5 29t-31.5 90q0 98 77 189t230 163l-110 537h-633l-309 -551h-56l797 1413h68zM967 594l-162 780l-438 -780h600z" />
    <glyph glyph-name="aogonek" unicode="&#x105;" horiz-adv-x="1013" 
d="M639 1106q143 0 217 -70.5t74 -189.5q0 -52 -19 -158l-61 -340q-28 -173 -43 -348h-2q-154 -77 -229.5 -157t-75.5 -175q0 -84 80 -84q68 0 143 64l-8 -47q-67 -58 -152 -58q-48 0 -79 28.5t-31 90.5q0 98 77.5 189t231.5 163l31 248l-64 -104q-74 -91 -173.5 -139
t-209.5 -48q-124 0 -204.5 65.5t-80.5 190.5q0 95 44 169t119.5 119t176.5 74t216 33.5t237 -1.5l10 63q19 108 19 147q0 112 -59.5 172t-192.5 60q-83 0 -157 -27.5t-137.5 -92.5t-92.5 -161h-45q35 139 155.5 231.5t284.5 92.5zM360 14q112 0 212 59.5t164 153.5t83 201
l27 150q-339 30 -538 -66t-199 -283q0 -103 67.5 -159t183.5 -56z" />
    <glyph glyph-name="Cacute" unicode="&#x106;" horiz-adv-x="1423" 
d="M930 1507h-39l141 193h58zM915 1442q224 0 347.5 -126.5t123.5 -324.5v-20h-45v20q0 193 -116 300.5t-326 107.5q-85 0 -169.5 -25t-164.5 -72t-148.5 -120.5t-120 -165t-81 -211t-29.5 -252.5q0 -132 35.5 -236t98.5 -169.5t146.5 -99.5t182.5 -34q110 0 206 33
t168.5 93t126.5 136t91 168l8 21h45l-8 -21q-41 -101 -98.5 -184t-136.5 -149.5t-184 -103t-228 -36.5q-228 0 -365 154.5t-137 425.5q0 201 63.5 370.5t170.5 282.5t248 175.5t296 62.5z" />
    <glyph glyph-name="cacute" unicode="&#x107;" horiz-adv-x="1058" 
d="M672 1188h-39l164 225h57zM651 1106q173 0 270.5 -100t92.5 -263h-45q0 150 -83.5 236t-244.5 86q-121 0 -225 -53.5t-172.5 -142.5t-107 -202.5t-38.5 -234.5q0 -207 98.5 -313.5t252.5 -106.5q147 0 264.5 81t183.5 229h45q-68 -169 -201.5 -260t-302.5 -91
q-174 0 -279.5 121.5t-105.5 337.5q0 100 24.5 197t74.5 183.5t120 152.5t168 104.5t211 38.5z" />
    <glyph glyph-name="Cdotaccent" unicode="&#x10a;" horiz-adv-x="1423" 
d="M940 1645q15 0 24 -9.5t9 -23.5q0 -20 -15 -34.5t-34 -14.5q-15 0 -24 9t-9 23q0 20 15 35t34 15zM915 1442q224 0 347.5 -126.5t123.5 -324.5v-20h-45v20q0 193 -116 300.5t-326 107.5q-85 0 -169.5 -25t-164.5 -72t-148.5 -120.5t-120 -165t-81 -211t-29.5 -252.5
q0 -132 35.5 -236t98.5 -169.5t146.5 -99.5t182.5 -34q110 0 206 33t168.5 93t126.5 136t91 168l8 21h45l-8 -21q-41 -101 -98.5 -184t-136.5 -149.5t-184 -103t-228 -36.5q-228 0 -365 154.5t-137 425.5q0 201 63.5 370.5t170.5 282.5t248 175.5t296 62.5z" />
    <glyph glyph-name="cdotaccent" unicode="&#x10b;" horiz-adv-x="1058" 
d="M682 1337q15 0 25 -10t10 -24q0 -21 -14 -34.5t-33 -13.5q-15 0 -25 10.5t-10 24.5q0 21 14 34t33 13zM651 1106q173 0 270.5 -100t92.5 -263h-45q0 150 -83.5 236t-244.5 86q-121 0 -225 -53.5t-172.5 -142.5t-107 -202.5t-38.5 -234.5q0 -207 98.5 -313.5t252.5 -106.5
q147 0 264.5 81t183.5 229h45q-68 -169 -201.5 -260t-302.5 -91q-174 0 -279.5 121.5t-105.5 337.5q0 100 24.5 197t74.5 183.5t120 152.5t168 104.5t211 38.5z" />
    <glyph glyph-name="Ccaron" unicode="&#x10c;" horiz-adv-x="1423" 
d="M893 1507l-100 193h49l80 -162l135 162h53l-166 -193h-51zM915 1442q224 0 347.5 -126.5t123.5 -324.5v-20h-45v20q0 193 -116 300.5t-326 107.5q-85 0 -169.5 -25t-164.5 -72t-148.5 -120.5t-120 -165t-81 -211t-29.5 -252.5q0 -132 35.5 -236t98.5 -169.5t146.5 -99.5
t182.5 -34q110 0 206 33t168.5 93t126.5 136t91 168l8 21h45l-8 -21q-41 -101 -98.5 -184t-136.5 -149.5t-184 -103t-228 -36.5q-228 0 -365 154.5t-137 425.5q0 201 63.5 370.5t170.5 282.5t248 175.5t296 62.5z" />
    <glyph glyph-name="ccaron" unicode="&#x10d;" horiz-adv-x="1058" 
d="M635 1188l-92 225h47l74 -192l145 192h49l-174 -225h-49zM651 1106q173 0 270.5 -100t92.5 -263h-45q0 150 -83.5 236t-244.5 86q-121 0 -225 -53.5t-172.5 -142.5t-107 -202.5t-38.5 -234.5q0 -207 98.5 -313.5t252.5 -106.5q147 0 264.5 81t183.5 229h45
q-68 -169 -201.5 -260t-302.5 -91q-174 0 -279.5 121.5t-105.5 337.5q0 100 24.5 197t74.5 183.5t120 152.5t168 104.5t211 38.5z" />
    <glyph glyph-name="Dcaron" unicode="&#x10e;" horiz-adv-x="1372" 
d="M805 1507l-100 193h49l80 -162l135 162h53l-166 -193h-51zM842 1409q77 -6 145.5 -30t129 -70t104 -111t69 -159t25.5 -208q0 -154 -52.5 -298.5t-145 -257t-227.5 -185t-292 -84.5q-74 -6 -182 -6h-359l250 1413h387q99 0 148 -4zM608 51q151 14 277.5 85t209 178.5
t128 240t45.5 272.5q0 250 -118 385.5t-316 153.5q-45 4 -148 4h-340l-235 -1327h321q83 0 176 8z" />
    <glyph glyph-name="dcaron" unicode="&#x10f;" horiz-adv-x="1118" 
d="M1100 1505h45l-266 -1505h-45l43 244l-78 -121q-88 -86 -167.5 -119t-199.5 -33q-177 0 -279 121.5t-102 315.5q0 131 39.5 254.5t111.5 223t184.5 160t246.5 60.5q119 0 188.5 -36t122.5 -122l35 -121zM1335 1503v-6l-118 -215h-37l100 221h55zM920 487l20 121
q12 77 11 145.5t-23 125.5t-59.5 98t-99.5 63.5t-142 22.5q-97 0 -182 -36.5t-148 -99.5t-108 -146t-68 -178t-23 -193q0 -176 90.5 -286t253.5 -110q66 0 125.5 15t116.5 50.5t102 89t80.5 134.5t53.5 184z" />
    <glyph glyph-name="Dcroat" unicode="&#x110;" horiz-adv-x="1372" 
d="M842 1409q77 -6 145.5 -30t129 -70t104 -111t69 -159t25.5 -208q0 -154 -52.5 -298.5t-145 -257t-227.5 -185t-292 -84.5q-74 -6 -182 -6h-359l117 662h-121l8 43h121l125 708h387q99 0 148 -4zM608 51q151 14 277.5 85t209 178.5t128 240t45.5 272.5q0 250 -118 385.5
t-316 153.5q-45 4 -148 4h-340l-119 -665h391l-8 -43h-391l-108 -619h321q83 0 176 8z" />
    <glyph glyph-name="dcroat" unicode="&#x111;" horiz-adv-x="1132" 
d="M1196 1255h-96l-221 -1255h-45l43 244l-78 -121q-88 -86 -167.5 -119t-199.5 -33q-177 0 -279 121.5t-102 315.5q0 131 39.5 254.5t111.5 223t184.5 160t246.5 60.5q119 0 188.5 -36t122.5 -122l35 -121l76 428h-230l6 43h232l37 207h45l-37 -207h94zM920 487l20 121
q12 77 11 145.5t-23 125.5t-59.5 98t-99.5 63.5t-142 22.5q-97 0 -182 -36.5t-148 -99.5t-108 -146t-68 -178t-23 -193q0 -176 90.5 -286t253.5 -110q66 0 125.5 15t116.5 50.5t102 89t80.5 134.5t53.5 184z" />
    <glyph glyph-name="Emacron" unicode="&#x112;" horiz-adv-x="1099" 
d="M877 1581h-287l8 43h287zM344 1372l-113 -645h773l-9 -41h-772l-112 -645h833l-8 -41h-879l250 1413h858l-8 -41h-813z" />
    <glyph glyph-name="emacron" unicode="&#x113;" horiz-adv-x="1071" 
d="M799 1270h-287l8 43h287zM981 528h-875q-10 -65 -10 -108q0 -107 28.5 -188t78 -127t108.5 -68.5t127 -22.5q135 0 255.5 79.5t193.5 236.5h45q-85 -184 -215 -271.5t-291 -87.5q-168 0 -272.5 115t-104.5 332q0 89 23.5 183.5t73 184.5t117.5 161.5t165.5 115
t208.5 43.5q97 0 169 -32.5t113.5 -90t61.5 -129.5t20 -158q0 -94 -20 -168zM631 1063q-86 0 -163 -29.5t-133.5 -78t-102 -113.5t-73.5 -132.5t-44 -138.5h829q10 56 10 125q0 100 -25 173t-71 114.5t-102 60.5t-125 19z" />
    <glyph glyph-name="Edotaccent" unicode="&#x116;" horiz-adv-x="1099" 
d="M729 1563q-15 0 -24 9t-9 23q0 20 15 35t34 15q15 0 24 -9.5t9 -23.5q0 -20 -15 -34.5t-34 -14.5zM344 1372l-113 -645h773l-9 -41h-772l-112 -645h833l-8 -41h-879l250 1413h858l-8 -41h-813z" />
    <glyph glyph-name="edotaccent" unicode="&#x117;" horiz-adv-x="1071" 
d="M653 1255q-15 0 -25 10.5t-10 24.5q0 21 14 34t34 13q15 0 24.5 -10t9.5 -24q0 -21 -14 -34.5t-33 -13.5zM981 528h-875q-10 -65 -10 -108q0 -107 28.5 -188t78 -127t108.5 -68.5t127 -22.5q135 0 255.5 79.5t193.5 236.5h45q-85 -184 -215 -271.5t-291 -87.5
q-168 0 -272.5 115t-104.5 332q0 89 23.5 183.5t73 184.5t117.5 161.5t165.5 115t208.5 43.5q97 0 169 -32.5t113.5 -90t61.5 -129.5t20 -158q0 -94 -20 -168zM631 1063q-86 0 -163 -29.5t-133.5 -78t-102 -113.5t-73.5 -132.5t-44 -138.5h829q10 56 10 125q0 100 -25 173
t-71 114.5t-102 60.5t-125 19z" />
    <glyph glyph-name="Eogonek" unicode="&#x118;" horiz-adv-x="1099" 
d="M344 1372l-113 -645h773l-9 -41h-772l-112 -645h833l-8 -41q-154 -77 -229.5 -157t-75.5 -175q0 -84 80 -84q68 0 143 64l-8 -47q-67 -58 -152 -58q-48 0 -79 28.5t-31 90.5q0 92 70 180t208 158h-805l250 1413h858l-8 -41h-813z" />
    <glyph glyph-name="eogonek" unicode="&#x119;" horiz-adv-x="1071" 
d="M981 528h-875q-10 -65 -10 -108q0 -107 28.5 -188t78 -127t108.5 -68.5t127 -22.5q135 0 255.5 79.5t193.5 236.5h45q-120 -256 -334 -332q-153 -75 -228 -155t-75 -175q0 -84 80 -84q68 0 143 64l-8 -47q-67 -58 -152 -58q-48 0 -79 28.5t-31 90.5q0 84 57.5 164
t171.5 147q-16 -2 -51 -2q-168 0 -272.5 115t-104.5 332q0 89 23.5 183.5t73 184.5t117.5 161.5t165.5 115t208.5 43.5q97 0 169 -32.5t113.5 -90t61.5 -129.5t20 -158q0 -94 -20 -168zM631 1063q-86 0 -163 -29.5t-133.5 -78t-102 -113.5t-73.5 -132.5t-44 -138.5h829
q10 56 10 125q0 100 -25 173t-71 114.5t-102 60.5t-125 19z" />
    <glyph glyph-name="Ecaron" unicode="&#x11a;" horiz-adv-x="1099" 
d="M698 1507l-100 193h49l80 -162l135 162h53l-165 -193h-52zM344 1372l-113 -645h773l-9 -41h-772l-112 -645h833l-8 -41h-879l250 1413h858l-8 -41h-813z" />
    <glyph glyph-name="ecaron" unicode="&#x11b;" horiz-adv-x="1071" 
d="M618 1188l-92 225h47l74 -192l146 192h49l-174 -225h-50zM981 528h-875q-10 -65 -10 -108q0 -107 28.5 -188t78 -127t108.5 -68.5t127 -22.5q135 0 255.5 79.5t193.5 236.5h45q-85 -184 -215 -271.5t-291 -87.5q-168 0 -272.5 115t-104.5 332q0 89 23.5 183.5t73 184.5
t117.5 161.5t165.5 115t208.5 43.5q97 0 169 -32.5t113.5 -90t61.5 -129.5t20 -158q0 -94 -20 -168zM631 1063q-86 0 -163 -29.5t-133.5 -78t-102 -113.5t-73.5 -132.5t-44 -138.5h829q10 56 10 125q0 100 -25 173t-71 114.5t-102 60.5t-125 19z" />
    <glyph glyph-name="Gbreve" unicode="&#x11e;" horiz-adv-x="1488" 
d="M934 1479q-78 0 -117.5 54.5t-23.5 166.5h36q-11 -103 20.5 -140.5t92.5 -37.5q141 0 184 178h37q-49 -221 -229 -221zM944 1442q113 0 201 -34.5t143 -96t83 -142.5t28 -178v-20h-45v20q0 192 -109 300t-317 108q-107 0 -212.5 -35t-201.5 -106t-169.5 -170t-117 -237.5
t-43.5 -297.5q0 -132 36 -236t100 -169.5t148.5 -99.5t184.5 -34q48 0 98.5 9t106.5 29.5t108.5 51t103 77t91.5 104t73 135.5t48 168h-477l6 41h522l-110 -629h-45l67 377l-65 -133q-108 -140 -249 -206.5t-288 -66.5q-233 0 -370.5 154.5t-137.5 425.5q0 191 66 358.5
t177 283.5t258.5 182.5t307.5 66.5z" />
    <glyph glyph-name="gbreve" unicode="&#x11f;" horiz-adv-x="1118" 
d="M678 1167q-88 0 -123.5 63.5t-17.5 182.5h36q-13 -109 15.5 -156t97.5 -47q68 0 115 53t69 150h37q-24 -116 -82 -181t-147 -65zM1069 1085l-141 -798q-39 -231 -58 -324q-40 -191 -171 -302.5t-345 -111.5q-159 0 -256.5 81t-97.5 243v31h45v-31q0 -77 24.5 -133
t70 -87.5t101.5 -46t126 -14.5q189 0 306 99.5t154 285.5q26 131 41 228l6 35l-75 -117q-88 -86 -167.5 -119t-199.5 -33q-177 0 -279 121.5t-102 315.5q0 131 39.5 254.5t111.5 223t184.5 160t246.5 60.5q119 0 188.5 -36t122.5 -122l35 -119l45 256h45zM909 440l35 193
q18 126 -6.5 220.5t-103 152t-207.5 57.5q-97 0 -182 -36.5t-148 -99.5t-108 -146t-68 -178t-23 -193q0 -176 90.5 -286t253.5 -110q166 0 291 102t176 324z" />
    <glyph glyph-name="Gdotaccent" unicode="&#x120;" horiz-adv-x="1488" 
d="M950 1563q-15 0 -23.5 9t-8.5 23q0 20 15 35t34 15q15 0 23.5 -9.5t8.5 -23.5q0 -20 -15 -34.5t-34 -14.5zM944 1442q113 0 201 -34.5t143 -96t83 -142.5t28 -178v-20h-45v20q0 192 -109 300t-317 108q-107 0 -212.5 -35t-201.5 -106t-169.5 -170t-117 -237.5
t-43.5 -297.5q0 -132 36 -236t100 -169.5t148.5 -99.5t184.5 -34q48 0 98.5 9t106.5 29.5t108.5 51t103 77t91.5 104t73 135.5t48 168h-477l6 41h522l-110 -629h-45l67 377l-65 -133q-108 -140 -249 -206.5t-288 -66.5q-233 0 -370.5 154.5t-137.5 425.5q0 191 66 358.5
t177 283.5t258.5 182.5t307.5 66.5z" />
    <glyph glyph-name="gdotaccent" unicode="&#x121;" horiz-adv-x="1118" 
d="M694 1255q-15 0 -25 10.5t-10 24.5q0 21 14 34t34 13q15 0 24.5 -10t9.5 -24q0 -21 -14 -34.5t-33 -13.5zM1069 1085l-141 -798q-39 -231 -58 -324q-40 -191 -171 -302.5t-345 -111.5q-159 0 -256.5 81t-97.5 243v31h45v-31q0 -77 24.5 -133t70 -87.5t101.5 -46
t126 -14.5q189 0 306 99.5t154 285.5q26 131 41 228l6 35l-75 -117q-88 -86 -167.5 -119t-199.5 -33q-177 0 -279 121.5t-102 315.5q0 131 39.5 254.5t111.5 223t184.5 160t246.5 60.5q119 0 188.5 -36t122.5 -122l35 -119l45 256h45zM909 440l35 193q18 126 -6.5 220.5
t-103 152t-207.5 57.5q-97 0 -182 -36.5t-148 -99.5t-108 -146t-68 -178t-23 -193q0 -176 90.5 -286t253.5 -110q166 0 291 102t176 324z" />
    <glyph glyph-name="Gcommaaccent" unicode="&#x122;" horiz-adv-x="1488" 
d="M944 1442q113 0 201 -34.5t143 -96t83 -142.5t28 -178v-20h-45v20q0 192 -109 300t-317 108q-107 0 -212.5 -35t-201.5 -106t-169.5 -170t-117 -237.5t-43.5 -297.5q0 -132 36 -236t100 -169.5t148.5 -99.5t184.5 -34q48 0 98.5 9t106.5 29.5t108.5 51t103 77t91.5 104
t73 135.5t48 168h-477l6 41h522l-110 -629h-45l67 377l-65 -133q-108 -140 -249 -206.5t-288 -66.5q-233 0 -370.5 154.5t-137.5 425.5q0 191 66 358.5t177 283.5t258.5 182.5t307.5 66.5zM524 -104h56v-7l-119 -215h-37z" />
    <glyph glyph-name="gcommaaccent" unicode="&#x123;" horiz-adv-x="1118" 
d="M709 1190h-56v6l119 215h37zM1069 1085l-141 -798q-39 -231 -58 -324q-40 -191 -171 -302.5t-345 -111.5q-159 0 -256.5 81t-97.5 243v31h45v-31q0 -77 24.5 -133t70 -87.5t101.5 -46t126 -14.5q189 0 306 99.5t154 285.5q26 131 41 228l6 35l-75 -117
q-88 -86 -167.5 -119t-199.5 -33q-177 0 -279 121.5t-102 315.5q0 131 39.5 254.5t111.5 223t184.5 160t246.5 60.5q119 0 188.5 -36t122.5 -122l35 -119l45 256h45zM909 440l35 193q18 126 -6.5 220.5t-103 152t-207.5 57.5q-97 0 -182 -36.5t-148 -99.5t-108 -146
t-68 -178t-23 -193q0 -176 90.5 -286t253.5 -110q166 0 291 102t176 324z" />
    <glyph glyph-name="Hbar" unicode="&#x126;" horiz-adv-x="1263" 
d="M1325 1065h-80l-188 -1065h-45l118 672h-909l-119 -672h-45l189 1065h-82l8 43h82l53 305h45l-53 -305h909l54 305h45l-54 -305h80zM1200 1065h-909l-62 -350h910z" />
    <glyph glyph-name="hbar" unicode="&#x127;" horiz-adv-x="1118" 
d="M702 1106q152 0 233 -78.5t81 -216.5q0 -75 -23 -213l-106 -598h-45l102 580q25 141 25 225q0 118 -68 188t-207 70q-164 0 -291.5 -110.5t-164.5 -313.5l-111 -639h-45l221 1255h-113l9 43h110l39 218h45l-39 -218h215l-8 -43h-215l-74 -424l66 115q142 160 364 160z
" />
    <glyph glyph-name="Imacron" unicode="&#x12a;" horiz-adv-x="311" 
d="M502 1581h-287l8 43h287zM102 0h-45l250 1413h45z" />
    <glyph glyph-name="imacron" unicode="&#x12b;" horiz-adv-x="333" 
d="M440 1270h-286l8 43h287zM94 0h-45l191 1077h45z" />
    <glyph glyph-name="Iogonek" unicode="&#x12e;" horiz-adv-x="311" 
d="M352 1413l-250 -1413q-154 -77 -229.5 -157t-75.5 -175q0 -84 80 -84q68 0 143 64l-8 -47q-67 -58 -151 -58q-48 0 -79.5 29t-31.5 90q0 98 77.5 189.5t231.5 164.5l248 1397h45z" />
    <glyph glyph-name="iogonek" unicode="&#x12f;" horiz-adv-x="333" 
d="M307 1337q15 0 25 -10t10 -24q0 -21 -14 -34.5t-33 -13.5q-15 0 -25 10.5t-10 24.5q0 21 14 34t33 13zM240 1077h45l-191 -1077q-154 -77 -229.5 -157t-75.5 -175q0 -84 80 -84q68 0 143 64l-8 -47q-67 -58 -151 -58q-48 0 -79.5 29t-31.5 90q0 98 77.5 189.5
t231.5 164.5z" />
    <glyph glyph-name="Idotaccent" unicode="&#x130;" horiz-adv-x="311" 
d="M371 1645q15 0 23.5 -9.5t8.5 -23.5q0 -20 -15 -34.5t-34 -14.5q-15 0 -23.5 9t-8.5 23q0 20 15 35t34 15zM102 0h-45l250 1413h45z" />
    <glyph glyph-name="dotlessi" unicode="&#x131;" horiz-adv-x="333" 
d="M94 0h-45l191 1077h45z" />
    <glyph glyph-name="IJ" unicode="&#x132;" horiz-adv-x="1253" 
d="M102 0h-45l250 1413h45zM1298 1413l-155 -881q-15 -97 -37 -186q-18 -75 -50 -138.5t-82.5 -118.5t-127 -86.5t-170.5 -31.5q-175 0 -270 109t-66 317l8 62h45l-8 -62q-15 -102 3 -178.5t62.5 -120t104 -64t133.5 -20.5q143 0 238 88t137 250q6 23 33 164l157 897h45z
" />
    <glyph glyph-name="ij" unicode="&#x133;" horiz-adv-x="643" 
d="M307 1337q15 0 25 -10t10 -24q0 -21 -14 -34.5t-33 -13.5q-15 0 -25 10.5t-10 24.5q0 21 14 34t33 13zM651 1337q15 0 25 -10t10 -24q0 -21 -14 -34.5t-33 -13.5q-15 0 -25 10.5t-10 24.5q0 21 14 34t33 13zM94 0h-45l191 1077h45zM637 1077l-215 -1227q-9 -49 -25 -106
q-45 -174 -194 -174q-36 0 -72 8l8 39q89 -18 140.5 12.5t74.5 118.5q13 47 19 80l219 1249h45z" />
    <glyph glyph-name="Kcommaaccent" unicode="&#x136;" horiz-adv-x="1089" 
d="M352 707l604 -707h-63l-580 682l-104 -84l-107 -598h-45l250 1413h45l-135 -760l936 760h66zM424 -104h55v-7l-119 -215h-36z" />
    <glyph glyph-name="kcommaaccent" unicode="&#x137;" horiz-adv-x="968" 
d="M324 565l491 -565h-59l-469 539l-111 -88l-80 -451h-45l266 1505h45l-176 -997l713 569h72zM330 -104h55v-7l-119 -215h-37z" />
    <glyph glyph-name="Lacute" unicode="&#x139;" horiz-adv-x="1060" 
d="M365 1507h-39l141 193h57zM944 41l-8 -41h-879l250 1413h45l-241 -1372h833z" />
    <glyph glyph-name="lacute" unicode="&#x13a;" horiz-adv-x="358" 
d="M365 1608h-39l163 225h58zM354 1505l-221 -1259q-24 -128 -24 -164q0 -35 22.5 -46t81.5 -3l-8 -39q-20 -4 -60 -4q-84 0 -84 80q0 27 27 176l221 1259h45z" />
    <glyph glyph-name="Lcommaaccent" unicode="&#x13b;" horiz-adv-x="1060" 
d="M944 41l-8 -41h-879l250 1413h45l-241 -1372h833zM410 -104h55v-7l-119 -215h-37z" />
    <glyph glyph-name="lcommaaccent" unicode="&#x13c;" horiz-adv-x="358" 
d="M354 1505l-221 -1259q-24 -128 -24 -164q0 -35 22.5 -46t81.5 -3l-8 -39q-20 -4 -60 -4q-84 0 -84 80q0 27 27 176l221 1259h45zM145 -111l-118 -215h-37l100 222h55v-7z" />
    <glyph glyph-name="Lcaron" unicode="&#x13d;" horiz-adv-x="1060" 
d="M944 41l-8 -41h-879l250 1413h45l-241 -1372h833z" />
    <glyph glyph-name="lcaron" unicode="&#x13e;" horiz-adv-x="358" 
d="M354 1505l-221 -1259q-24 -128 -24 -164q0 -35 22.5 -46t81.5 -3l-8 -39q-20 -4 -60 -4q-84 0 -84 80q0 27 27 176l221 1259h45z" />
    <glyph glyph-name="Ldot" unicode="&#x13f;" horiz-adv-x="1060" 
d="M944 41l-8 -41h-879l250 1413h45l-241 -1372h833zM621 778q-15 0 -25 10.5t-10 24.5q0 21 14 34t33 13q15 0 25 -10.5t10 -24.5q0 -21 -14 -34t-33 -13z" />
    <glyph glyph-name="ldot" unicode="&#x140;" horiz-adv-x="391" 
d="M354 1505l-221 -1259q-24 -128 -24 -164q0 -35 22.5 -46t81.5 -3l-8 -39q-20 -4 -60 -4q-84 0 -84 80q0 27 27 176l221 1259h45zM375 860q15 0 25 -10.5t10 -24.5q0 -21 -14 -34t-34 -13q-15 0 -24.5 10.5t-9.5 24.5q0 21 14 34t33 13z" />
    <glyph glyph-name="Lslash" unicode="&#x141;" horiz-adv-x="1222" 
d="M1106 41l-8 -41h-879l119 672l-318 -170l11 49l315 170l123 692h45l-117 -665l357 192l-9 -49l-358 -193l-115 -657h834z" />
    <glyph glyph-name="lslash" unicode="&#x142;" horiz-adv-x="423" 
d="M260 707l123 79l-8 -53l-125 -80l-72 -407q-24 -128 -24 -164q0 -35 22.5 -46t81.5 -3l-8 -39q-20 -4 -60 -4q-84 0 -84 80q0 27 27 176l66 375l-140 -89l11 54l139 88l145 831h45z" />
    <glyph glyph-name="Nacute" unicode="&#x143;" horiz-adv-x="1228" 
d="M819 1507h-39l142 193h57zM1270 1413l-250 -1413h-70l-606 1376l-242 -1376h-45l250 1413h68l606 -1372l244 1372h45z" />
    <glyph glyph-name="nacute" unicode="&#x144;" horiz-adv-x="1087" 
d="M666 1188h-39l164 225h57zM672 1106q152 0 232.5 -78t80.5 -217q0 -81 -22 -213l-107 -598h-45l102 580q25 141 25 225q0 119 -67.5 188.5t-206.5 69.5q-164 0 -292 -110.5t-165 -313.5l-111 -639h-45l189 1077h45l-43 -246l65 115q142 160 365 160z" />
    <glyph glyph-name="Ncommaaccent" unicode="&#x145;" horiz-adv-x="1228" 
d="M1270 1413l-250 -1413h-70l-606 1376l-242 -1376h-45l250 1413h68l606 -1372l244 1372h45zM494 -104h55v-7l-119 -215h-37z" />
    <glyph glyph-name="ncommaaccent" unicode="&#x146;" horiz-adv-x="1087" 
d="M672 1106q152 0 232.5 -78t80.5 -217q0 -81 -22 -213l-107 -598h-45l102 580q25 141 25 225q0 119 -67.5 188.5t-206.5 69.5q-164 0 -292 -110.5t-165 -313.5l-111 -639h-45l189 1077h45l-43 -246l65 115q142 160 365 160zM397 -104h56v-7l-119 -215h-37z" />
    <glyph glyph-name="Ncaron" unicode="&#x147;" horiz-adv-x="1228" 
d="M782 1507l-100 193h49l80 -162l135 162h53l-165 -193h-52zM1270 1413l-250 -1413h-70l-606 1376l-242 -1376h-45l250 1413h68l606 -1372l244 1372h45z" />
    <glyph glyph-name="ncaron" unicode="&#x148;" horiz-adv-x="1087" 
d="M629 1188l-92 225h47l73 -192l146 192h49l-174 -225h-49zM672 1106q152 0 232.5 -78t80.5 -217q0 -81 -22 -213l-107 -598h-45l102 580q25 141 25 225q0 119 -67.5 188.5t-206.5 69.5q-164 0 -292 -110.5t-165 -313.5l-111 -639h-45l189 1077h45l-43 -246l65 115
q142 160 365 160z" />
    <glyph glyph-name="Eng" unicode="&#x14a;" horiz-adv-x="1228" 
d="M1270 1413l-273 -1550q-16 -87 -35.5 -140.5t-56.5 -96t-96 -61.5t-150 -22l7 43q124 0 190 54t90 190l23 131l-623 1411l-242 -1372h-45l248 1413h68l608 -1372l242 1372h45z" />
    <glyph glyph-name="eng" unicode="&#x14b;" horiz-adv-x="1087" 
d="M672 1106q152 0 232.5 -78t80.5 -217q0 -81 -22 -213l-113 -635q-5 -31 -16 -84q-30 -122 -107.5 -176t-214.5 -59l6 43q124 0 190.5 53.5t90.5 189.5l114 650q25 141 25 225q0 119 -67.5 188.5t-206.5 69.5q-164 0 -292 -110.5t-165 -313.5l-111 -639h-45l189 1077h45
l-43 -246l65 115q142 160 365 160z" />
    <glyph glyph-name="Omacron" unicode="&#x14c;" horiz-adv-x="1521" 
d="M1087 1581h-286l8 43h287zM909 1442q243 0 398 -168t155 -449q0 -122 -32 -243.5t-98 -231.5t-156 -194.5t-215.5 -134.5t-268.5 -50q-243 0 -398 168t-155 449q0 122 32 243.5t98 231.5t156 194.5t215.5 134.5t268.5 50zM698 14q131 0 247 46.5t200.5 126t146.5 183
t92.5 220.5t30.5 235q0 132 -40 241t-109.5 181.5t-163 112t-199.5 39.5q-131 0 -247 -46.5t-200.5 -126t-146.5 -183t-92.5 -220.5t-30.5 -235q0 -132 40 -241t109.5 -181.5t163 -112t199.5 -39.5z" />
    <glyph glyph-name="omacron" unicode="&#x14d;" horiz-adv-x="1128" 
d="M836 1270h-287l8 43h287zM643 1106q138 0 236.5 -62t146 -166t47.5 -239q0 -85 -21 -174.5t-68.5 -178.5t-114.5 -158.5t-167 -113t-219 -43.5q-138 0 -236.5 62t-146 166t-47.5 239q0 85 21 174.5t68.5 178.5t114.5 158.5t167 113t219 43.5zM492 14q103 0 192.5 39.5
t151 104t105.5 146.5t64.5 167.5t20.5 167.5q0 199 -109.5 311.5t-281.5 112.5q-103 0 -192.5 -39.5t-151 -104t-105.5 -146.5t-65 -167.5t-21 -167.5q0 -199 110 -311.5t282 -112.5z" />
    <glyph glyph-name="Ohungarumlaut" unicode="&#x150;" horiz-adv-x="1521" 
d="M860 1507h-39l142 193h57zM999 1507l142 193h57l-160 -193h-39zM909 1442q243 0 398 -168t155 -449q0 -122 -32 -243.5t-98 -231.5t-156 -194.5t-215.5 -134.5t-268.5 -50q-243 0 -398 168t-155 449q0 122 32 243.5t98 231.5t156 194.5t215.5 134.5t268.5 50zM698 14
q131 0 247 46.5t200.5 126t146.5 183t92.5 220.5t30.5 235q0 132 -40 241t-109.5 181.5t-163 112t-199.5 39.5q-131 0 -247 -46.5t-200.5 -126t-146.5 -183t-92.5 -220.5t-30.5 -235q0 -132 40 -241t109.5 -181.5t163 -112t199.5 -39.5z" />
    <glyph glyph-name="ohungarumlaut" unicode="&#x151;" horiz-adv-x="1128" 
d="M586 1188h-39l164 225h57zM752 1188l163 225h58l-182 -225h-39zM643 1106q138 0 236.5 -62t146 -166t47.5 -239q0 -85 -21 -174.5t-68.5 -178.5t-114.5 -158.5t-167 -113t-219 -43.5q-138 0 -236.5 62t-146 166t-47.5 239q0 85 21 174.5t68.5 178.5t114.5 158.5t167 113
t219 43.5zM492 14q103 0 192.5 39.5t151 104t105.5 146.5t64.5 167.5t20.5 167.5q0 199 -109.5 311.5t-281.5 112.5q-103 0 -192.5 -39.5t-151 -104t-105.5 -146.5t-65 -167.5t-21 -167.5q0 -199 110 -311.5t282 -112.5z" />
    <glyph glyph-name="OE" unicode="&#x152;" horiz-adv-x="2299" 
d="M1544 1372l-112 -645h772l-9 -41h-772l-112 -645h833l-8 -41h-879l72 406l-90 -158q-116 -147 -257 -212t-318 -65q-245 0 -385 166.5t-140 442.5q0 117 28.5 235.5t91.5 231.5t152 200.5t221.5 141t289.5 53.5q180 0 291.5 -65t183.5 -218l35 -170l75 424h858l-8 -41
h-813zM670 14q128 0 241.5 42t208 125t163 217t99.5 309q15 87 15.5 168t-13.5 160t-49.5 144t-90 115t-138.5 77.5t-191 27.5q-142 0 -264 -50t-206 -132.5t-143.5 -189.5t-87.5 -220t-28 -225q0 -267 135.5 -417.5t348.5 -150.5z" />
    <glyph glyph-name="oe" unicode="&#x153;" horiz-adv-x="2048" 
d="M1958 528h-881q-10 -59 -10 -129q0 -100 28 -176t76 -120.5t107 -66.5t127 -22q136 0 261 80t198 236h45q-84 -183 -219 -271t-297 -88q-71 0 -135 24.5t-116 71t-85 121t-39 166.5q-75 -182 -217.5 -282.5t-327.5 -100.5q-194 0 -306 131t-112 347q0 86 22 175.5
t71.5 178t119.5 157t175.5 111.5t230.5 43q180 0 293 -102.5t123 -282.5q73 181 213 283t307 102q94 0 166.5 -34t115.5 -92.5t64.5 -132.5t21.5 -159q0 -73 -20 -168zM1030 541q11 79 10 155t-27 144t-68 119.5t-114 81.5t-165 30q-111 0 -206 -38.5t-159.5 -102
t-110.5 -145t-67 -166.5t-21 -168q0 -102 30.5 -186t83 -138t120.5 -83.5t145 -29.5q93 0 180 32.5t162 95.5t129.5 165.5t77.5 233.5zM1597 1071q-79 0 -158 -31.5t-149.5 -91t-125 -157.5t-79.5 -220h834q12 68 12 123q0 101 -27.5 176.5t-76 118t-106 62.5t-124.5 20z
" />
    <glyph glyph-name="Racute" unicode="&#x154;" horiz-adv-x="1128" 
d="M711 1507h-39l141 193h57zM1139 1118q0 -158 -99.5 -269.5t-263.5 -137.5q80 -25 115.5 -102.5t38.5 -207.5q4 -274 35 -401h-50q-24 139 -30 408q-2 59 -11.5 105t-31.5 86.5t-62 64t-96 26.5q-45 2 -129 2h-330l-123 -692h-45l250 1413h342q121 0 203 -10
q139 -17 213 -91.5t74 -193.5zM717 739q165 12 267.5 115t102.5 256q0 108 -64.5 171.5t-186.5 78.5q-83 10 -195 10h-297l-113 -635h332q86 0 154 4z" />
    <glyph glyph-name="racute" unicode="&#x155;" horiz-adv-x="540" 
d="M391 1188h-39l164 225h57zM575 1106q34 0 48 -2l-9 -41q-46 3 -88.5 -3.5t-93.5 -34.5t-92.5 -76.5t-79 -137t-59.5 -207.5l-2 -14l-103 -590h-45l191 1085h45l-41 -233l61 117q118 137 268 137z" />
    <glyph glyph-name="Rcommaaccent" unicode="&#x156;" horiz-adv-x="1128" 
d="M1139 1118q0 -158 -99.5 -269.5t-263.5 -137.5q80 -25 115.5 -102.5t38.5 -207.5q4 -274 35 -401h-50q-24 139 -30 408q-2 59 -11.5 105t-31.5 86.5t-62 64t-96 26.5q-45 2 -129 2h-330l-123 -692h-45l250 1413h342q121 0 203 -10q139 -17 213 -91.5t74 -193.5zM717 739
q165 12 267.5 115t102.5 256q0 108 -64.5 171.5t-186.5 78.5q-83 10 -195 10h-297l-113 -635h332q86 0 154 4zM365 -104h55v-7l-119 -215h-37z" />
    <glyph glyph-name="rcommaaccent" unicode="&#x157;" horiz-adv-x="540" 
d="M575 1106q34 0 48 -2l-9 -41q-46 3 -88.5 -3.5t-93.5 -34.5t-92.5 -76.5t-79 -137t-59.5 -207.5l-2 -14l-103 -590h-45l191 1085h45l-41 -233l61 117q118 137 268 137zM29 -104h55v-7l-119 -215h-37z" />
    <glyph glyph-name="Rcaron" unicode="&#x158;" horiz-adv-x="1128" 
d="M674 1507l-101 193h50l79 -162l136 162h53l-166 -193h-51zM1139 1118q0 -158 -99.5 -269.5t-263.5 -137.5q80 -25 115.5 -102.5t38.5 -207.5q4 -274 35 -401h-50q-24 139 -30 408q-2 59 -11.5 105t-31.5 86.5t-62 64t-96 26.5q-45 2 -129 2h-330l-123 -692h-45l250 1413
h342q121 0 203 -10q139 -17 213 -91.5t74 -193.5zM717 739q165 12 267.5 115t102.5 256q0 108 -64.5 171.5t-186.5 78.5q-83 10 -195 10h-297l-113 -635h332q86 0 154 4z" />
    <glyph glyph-name="rcaron" unicode="&#x159;" horiz-adv-x="540" 
d="M354 1188l-92 225h47l74 -192l145 192h50l-175 -225h-49zM575 1106q34 0 48 -2l-9 -41q-46 3 -88.5 -3.5t-93.5 -34.5t-92.5 -76.5t-79 -137t-59.5 -207.5l-2 -14l-103 -590h-45l191 1085h45l-41 -233l61 117q118 137 268 137z" />
    <glyph glyph-name="Sacute" unicode="&#x15a;" horiz-adv-x="1114" 
d="M731 1507h-39l142 193h57zM709 1442q128 0 218 -54t130 -140.5t35 -194.5h-45q0 159 -98 252.5t-251 93.5q-80 0 -154.5 -22.5t-136 -65.5t-98.5 -114.5t-37 -160.5q0 -113 81 -175t272 -120q192 -58 282 -144t90 -230q0 -174 -144 -285t-372 -111q-95 0 -177 24.5
t-145 72t-96 125t-26 176.5h45q-10 -169 103.5 -262t310.5 -93q193 0 321.5 96.5t128.5 249.5q0 131 -82 206.5t-268 131.5q-199 60 -287 132t-88 196q0 186 135.5 301t352.5 115z" />
    <glyph glyph-name="sacute" unicode="&#x15b;" horiz-adv-x="933" 
d="M586 1188h-39l164 225h57zM532 1106q152 0 240.5 -83t97.5 -239h-45q-24 279 -303 279q-139 0 -223 -78.5t-84 -181.5q0 -94 64 -149.5t186 -88.5q169 -45 247.5 -111t78.5 -182q0 -98 -53.5 -167.5t-137.5 -101.5t-188 -32q-82 0 -148.5 18.5t-119 57t-81.5 104.5
t-30 156h45q6 -155 93.5 -224t252.5 -69q144 0 231.5 70.5t87.5 181.5q0 103 -69 159.5t-236 100.5q-270 71 -270 275q0 128 101 216.5t263 88.5z" />
    <glyph glyph-name="Scedilla" unicode="&#x15e;" horiz-adv-x="1114" 
d="M709 1442q128 0 218 -54t130 -140.5t35 -194.5h-45q0 159 -98 252.5t-251 93.5q-80 0 -154.5 -22.5t-136 -65.5t-98.5 -114.5t-37 -160.5q0 -113 81 -175t272 -120q192 -58 282 -144t90 -230q0 -169 -136.5 -278.5t-354.5 -117.5l-53 -75q71 -6 112 -43t41 -101
q0 -89 -65.5 -135.5t-171.5 -46.5q-59 0 -105 14l8 43q43 -14 105 -14q86 0 134 37t48 100q0 118 -180 109l82 112q-92 2 -170.5 28t-138.5 73.5t-91 124t-24 172.5h45q-10 -169 103.5 -262t310.5 -93q193 0 321.5 96.5t128.5 249.5q0 131 -82 206.5t-268 131.5
q-199 60 -287 132t-88 196q0 186 135.5 301t352.5 115z" />
    <glyph glyph-name="scedilla" unicode="&#x15f;" horiz-adv-x="933" 
d="M522 1063q-139 0 -223 -78.5t-84 -181.5q0 -94 64 -149.5t186 -88.5q169 -45 247.5 -111t78.5 -182q0 -98 -53.5 -167.5t-137.5 -101.5t-188 -32h-19l-53 -75q71 -6 112.5 -43t41.5 -101q0 -89 -66 -135.5t-172 -46.5q-58 0 -104 14l8 43q43 -14 104 -14q86 0 134 37
t48 100q0 118 -180 109l84 114q-145 14 -230.5 95.5t-86.5 238.5h45q6 -155 93.5 -224t252.5 -69q144 0 231.5 70.5t87.5 181.5q0 103 -69 159.5t-236 100.5q-270 71 -270 275q0 128 101 216.5t263 88.5q152 0 240.5 -83t97.5 -239h-45q-24 279 -303 279z" />
    <glyph glyph-name="Scaron" unicode="&#x160;" horiz-adv-x="1114" 
d="M694 1507l-100 193h49l80 -162l135 162h53l-166 -193h-51zM709 1442q128 0 218 -54t130 -140.5t35 -194.5h-45q0 159 -98 252.5t-251 93.5q-80 0 -154.5 -22.5t-136 -65.5t-98.5 -114.5t-37 -160.5q0 -113 81 -175t272 -120q192 -58 282 -144t90 -230q0 -174 -144 -285
t-372 -111q-95 0 -177 24.5t-145 72t-96 125t-26 176.5h45q-10 -169 103.5 -262t310.5 -93q193 0 321.5 96.5t128.5 249.5q0 131 -82 206.5t-268 131.5q-199 60 -287 132t-88 196q0 186 135.5 301t352.5 115z" />
    <glyph glyph-name="scaron" unicode="&#x161;" horiz-adv-x="933" 
d="M549 1188l-92 225h47l74 -192l145 192h49l-174 -225h-49zM522 1063q-139 0 -223 -78.5t-84 -181.5q0 -94 64 -149.5t186 -88.5q169 -45 247.5 -111t78.5 -182q0 -98 -53.5 -167.5t-137.5 -101.5t-188 -32q-82 0 -148.5 18.5t-119 57t-81.5 104.5t-30 156h45
q6 -155 93.5 -224t252.5 -69q144 0 231.5 70.5t87.5 181.5q0 103 -69 159.5t-236 100.5q-270 71 -270 275q0 128 101 216.5t263 88.5q152 0 240.5 -83t97.5 -239h-45q-24 279 -303 279z" />
    <glyph glyph-name="Tcedilla" unicode="&#x162;" horiz-adv-x="1187" 
d="M553 0l-74 -104q71 -6 112.5 -43t41.5 -101q0 -89 -66 -135.5t-172 -46.5q-58 0 -104 14l8 43q43 -14 104 -14q86 0 134.5 37t48.5 100q0 118 -180 109l104 145l242 1368h-541l8 41h1127l-9 -41h-540z" />
    <glyph glyph-name="tcedilla" unicode="&#x163;" horiz-adv-x="497" 
d="M297 1032l-135 -770q-19 -103 -19 -145q0 -63 45.5 -82.5t147.5 -5.5l-6 -37q-44 -6 -92 -6h-13l-63 -90q71 -6 112 -43t41 -101q0 -89 -65.5 -135.5t-171.5 -46.5q-59 0 -105 14l9 43q43 -14 104 -14q86 0 134 37t48 100q0 118 -180 109l96 133q-86 18 -86 117
q0 55 19 161l135 762h-131l6 37h131l39 221h45l-39 -221h211l-6 -37h-211z" />
    <glyph glyph-name="Tcaron" unicode="&#x164;" horiz-adv-x="1187" 
d="M776 1507l-100 193h49l80 -162l135 162h53l-166 -193h-51zM1337 1372h-540l-242 -1372h-45l242 1372h-541l8 41h1127z" />
    <glyph glyph-name="tcaron" unicode="&#x165;" horiz-adv-x="452" 
d="M565 1413v-6l-119 -215h-36l100 221h55zM303 1069h211l-6 -37h-211l-135 -770q-19 -103 -19 -145q0 -63 45.5 -82.5t147.5 -5.5l-6 -37q-44 -6 -92 -6q-71 0 -105.5 29t-34.5 94q0 55 19 161l135 762h-131l6 37h131l39 221h45z" />
    <glyph glyph-name="Tbar" unicode="&#x166;" horiz-adv-x="1187" 
d="M797 1372l-117 -667h319l-8 -43h-319l-117 -662h-45l117 662h-271l9 43h270l117 667h-541l8 41h1127l-9 -41h-540z" />
    <glyph glyph-name="tbar" unicode="&#x167;" horiz-adv-x="497" 
d="M297 1032l-55 -313h131l-8 -43h-132l-71 -414q-19 -103 -19 -145q0 -63 45.5 -82.5t147.5 -5.5l-6 -37q-44 -6 -92 -6q-71 0 -105.5 29t-34.5 94q0 55 19 161l71 406h-110l8 43h111l55 313h-131l6 37h131l39 221h45l-39 -221h211l-6 -37h-211z" />
    <glyph glyph-name="Umacron" unicode="&#x16a;" horiz-adv-x="1228" 
d="M965 1581h-287l8 43h287zM1247 1413l-164 -924q-13 -70 -28 -137q-21 -84 -60.5 -151.5t-100 -120t-149 -81t-198.5 -28.5q-185 0 -288 91.5t-103 238.5q0 80 18 188l164 924h45l-164 -932q-18 -106 -18 -178q0 -126 88.5 -207.5t265.5 -81.5q193 0 306 95.5t153 255.5
q11 47 26 127l162 921h45z" />
    <glyph glyph-name="umacron" unicode="&#x16b;" horiz-adv-x="1079" 
d="M782 1270h-286l8 43h287zM1028 1077l-188 -1077h-45l43 246l-66 -115q-142 -160 -364 -160q-152 0 -233 78.5t-81 216.5q0 75 23 213l106 598h45l-102 -579q-25 -141 -25 -226q0 -118 68 -188t207 -70q164 0 291.5 110.5t164.5 313.5l111 639h45z" />
    <glyph glyph-name="Uring" unicode="&#x16e;" horiz-adv-x="1228" 
d="M848 1729q47 0 77.5 -27.5t30.5 -73.5q0 -66 -46.5 -107.5t-106.5 -41.5q-47 0 -78 27t-31 73q0 66 47 108t107 42zM840 1686q-42 0 -69.5 -30t-27.5 -71q0 -27 17.5 -45t50.5 -18q42 0 69 29.5t27 70.5q0 28 -17.5 46t-49.5 18zM1247 1413l-164 -924q-13 -70 -28 -137
q-21 -84 -60.5 -151.5t-100 -120t-149 -81t-198.5 -28.5q-185 0 -288 91.5t-103 238.5q0 80 18 188l164 924h45l-164 -932q-18 -106 -18 -178q0 -126 88.5 -207.5t265.5 -81.5q193 0 306 95.5t153 255.5q11 47 26 127l162 921h45z" />
    <glyph glyph-name="uring" unicode="&#x16f;" horiz-adv-x="1079" 
d="M621 1171q-46 0 -76.5 28t-30.5 73q0 68 45.5 110.5t106.5 42.5q46 0 76 -27.5t30 -72.5q0 -68 -45 -111t-106 -43zM657 1382q-42 0 -69 -30.5t-27 -71.5q0 -29 17.5 -47.5t50.5 -18.5q41 0 68.5 31t27.5 72q0 29 -17.5 47t-50.5 18zM1028 1077l-188 -1077h-45l43 246
l-66 -115q-142 -160 -364 -160q-152 0 -233 78.5t-81 216.5q0 75 23 213l106 598h45l-102 -579q-25 -141 -25 -226q0 -118 68 -188t207 -70q164 0 291.5 110.5t164.5 313.5l111 639h45z" />
    <glyph glyph-name="Uhungarumlaut" unicode="&#x170;" horiz-adv-x="1228" 
d="M737 1507h-39l142 193h57zM915 1507h-38l141 193h57zM1247 1413l-164 -924q-13 -70 -28 -137q-21 -84 -60.5 -151.5t-100 -120t-149 -81t-198.5 -28.5q-185 0 -288 91.5t-103 238.5q0 80 18 188l164 924h45l-164 -932q-18 -106 -18 -178q0 -126 88.5 -207.5t265.5 -81.5
q193 0 306 95.5t153 255.5q11 47 26 127l162 921h45z" />
    <glyph glyph-name="uhungarumlaut" unicode="&#x171;" horiz-adv-x="1079" 
d="M532 1188h-38l163 225h58zM698 1188l164 225h58l-183 -225h-39zM1028 1077l-188 -1077h-45l43 246l-66 -115q-142 -160 -364 -160q-152 0 -233 78.5t-81 216.5q0 75 23 213l106 598h45l-102 -579q-25 -141 -25 -226q0 -118 68 -188t207 -70q164 0 291.5 110.5
t164.5 313.5l111 639h45z" />
    <glyph glyph-name="Uogonek" unicode="&#x172;" horiz-adv-x="1228" 
d="M1247 1413l-164 -924q-13 -70 -28 -137q-32 -134 -115 -227.5t-219 -130.5q-146 -76 -218.5 -154.5t-72.5 -171.5q0 -84 80 -84q68 0 143 64l-8 -47q-67 -58 -151 -58q-48 0 -79.5 29t-31.5 90q0 176 231 311q-23 -2 -67 -2q-185 0 -288 91.5t-103 238.5q0 80 18 188
l164 924h45l-164 -932q-18 -106 -18 -178q0 -126 88.5 -207.5t265.5 -81.5q193 0 306 95.5t153 255.5q11 47 26 127l162 921h45z" />
    <glyph glyph-name="uogonek" unicode="&#x173;" horiz-adv-x="1079" 
d="M1028 1077l-188 -1077q-154 -77 -229.5 -157t-75.5 -175q0 -84 79 -84q69 0 144 64l-8 -47q-67 -58 -152 -58q-48 0 -79.5 29t-31.5 90q0 98 78 189.5t232 164.5l41 230l-66 -115q-142 -160 -364 -160q-152 0 -233 78.5t-81 216.5q0 75 23 213l106 598h45l-102 -579
q-25 -141 -25 -226q0 -118 68 -188t207 -70q164 0 291.5 110.5t164.5 313.5l111 639h45z" />
    <glyph glyph-name="Wcircumflex" unicode="&#x174;" horiz-adv-x="1685" 
d="M946 1507h-53l166 193h51l100 -193h-49l-80 162zM1845 1413l-633 -1413h-53l-143 1348l-647 -1348h-56l-106 1413h45l98 -1356l637 1336h68l141 -1332l602 1352h47z" />
    <glyph glyph-name="wcircumflex" unicode="&#x175;" horiz-adv-x="1468" 
d="M725 1188h-49l174 225h49l92 -225h-47l-74 192zM1530 1077l-533 -1077h-59l-127 1032l-489 -1032h-64l-143 1077h45l135 -1034l487 1030h66l129 -1024l502 1028h51z" />
    <glyph glyph-name="Ycircumflex" unicode="&#x176;" horiz-adv-x="1116" 
d="M641 1507h-53l166 193h51l100 -193h-49l-80 162zM596 553l-98 -553h-45l98 555l-350 858h49l332 -809l612 809h59z" />
    <glyph glyph-name="ycircumflex" unicode="&#x177;" horiz-adv-x="966" 
d="M469 1188h-49l174 225h49l92 -225h-47l-74 192zM1028 1077l-618 -1077q-78 -138 -140 -225.5t-114 -131.5t-92.5 -58.5t-90.5 -14.5q-36 0 -63 8l6 39q27 -6 61 -6q80 0 156 70.5t186 257.5l31 51l-235 1087h49l221 -1036l590 1036h53z" />
    <glyph glyph-name="Ydieresis" unicode="&#x178;" horiz-adv-x="1116" 
d="M678 1563q-15 0 -24 9t-9 23q0 20 15 35t34 15q15 0 24 -9.5t9 -23.5q0 -20 -15 -34.5t-34 -14.5zM821 1563q-15 0 -24 9t-9 23q0 20 15.5 35t34.5 15q15 0 23.5 -9.5t8.5 -23.5q0 -20 -15 -34.5t-34 -14.5zM596 553l-98 -553h-45l98 555l-350 858h49l332 -809l612 809
h59z" />
    <glyph glyph-name="Zacute" unicode="&#x179;" horiz-adv-x="1101" 
d="M745 1507h-38l141 193h57zM1182 1372l-1133 -1329h912l-9 -43h-975l7 35l1138 1335h-846l9 43h905z" />
    <glyph glyph-name="zacute" unicode="&#x17a;" horiz-adv-x="950" 
d="M600 1188h-39l164 225h57zM956 1028l-940 -989h777l-7 -39h-837l6 37l938 989h-713l6 43h777z" />
    <glyph glyph-name="Zdotaccent" unicode="&#x17b;" horiz-adv-x="1101" 
d="M739 1563q-15 0 -23.5 9t-8.5 23q0 20 15 35t34 15q15 0 23.5 -9.5t8.5 -23.5q0 -20 -15 -34.5t-34 -14.5zM1182 1372l-1133 -1329h912l-9 -43h-975l7 35l1138 1335h-846l9 43h905z" />
    <glyph glyph-name="zdotaccent" unicode="&#x17c;" horiz-adv-x="950" 
d="M598 1255q-15 0 -25 10.5t-10 24.5q0 21 14 34t33 13q15 0 25 -10t10 -24q0 -21 -14 -34.5t-33 -13.5zM956 1028l-940 -989h777l-7 -39h-837l6 37l938 989h-713l6 43h777z" />
    <glyph glyph-name="Zcaron" unicode="&#x17d;" horiz-adv-x="1101" 
d="M709 1507l-101 193h49l80 -162l135 162h54l-166 -193h-51zM1182 1372l-1133 -1329h912l-9 -43h-975l7 35l1138 1335h-846l9 43h905z" />
    <glyph glyph-name="zcaron" unicode="&#x17e;" horiz-adv-x="950" 
d="M563 1188l-92 225h47l74 -192l145 192h49l-174 -225h-49zM956 1028l-940 -989h777l-7 -39h-837l6 37l938 989h-713l6 43h777z" />
    <glyph glyph-name="Scommaaccent" unicode="&#x218;" horiz-adv-x="1114" 
d="M709 1442q128 0 218 -54t130 -140.5t35 -194.5h-45q0 159 -98 252.5t-251 93.5q-80 0 -154.5 -22.5t-136 -65.5t-98.5 -114.5t-37 -160.5q0 -113 81 -175t272 -120q192 -58 282 -144t90 -230q0 -174 -144 -285t-372 -111q-95 0 -177 24.5t-145 72t-96 125t-26 176.5h45
q-10 -169 103.5 -262t310.5 -93q193 0 321.5 96.5t128.5 249.5q0 131 -82 206.5t-268 131.5q-199 60 -287 132t-88 196q0 186 135.5 301t352.5 115zM506 -111l-119 -215h-37l101 222h55v-7z" />
    <glyph glyph-name="scommaaccent" unicode="&#x219;" horiz-adv-x="933" 
d="M532 1106q152 0 240.5 -83t97.5 -239h-45q-24 279 -303 279q-139 0 -223 -78.5t-84 -181.5q0 -94 64 -149.5t186 -88.5q169 -45 247.5 -111t78.5 -182q0 -98 -53.5 -167.5t-137.5 -101.5t-188 -32q-82 0 -148.5 18.5t-119 57t-81.5 104.5t-30 156h45q6 -155 93.5 -224
t252.5 -69q144 0 231.5 70.5t87.5 181.5q0 103 -69 159.5t-236 100.5q-270 71 -270 275q0 128 101 216.5t263 88.5zM393 -111l-119 -215h-36l100 222h55v-7z" />
    <glyph glyph-name="uni021A" unicode="&#x21a;" horiz-adv-x="1187" 
d="M1337 1372h-540l-242 -1372h-45l242 1372h-541l8 41h1127zM477 -104h55v-7l-118 -215h-37z" />
    <glyph glyph-name="uni021B" unicode="&#x21b;" horiz-adv-x="497" 
d="M297 1032l-135 -770q-19 -103 -19 -145q0 -63 45.5 -82.5t147.5 -5.5l-6 -37q-44 -6 -92 -6q-71 0 -105.5 29t-34.5 94q0 55 19 161l135 762h-131l6 37h131l39 221h45l-39 -221h211l-6 -37h-211zM160 -104h55v-7l-119 -215h-37z" />
    <glyph glyph-name="circumflex" unicode="&#x2c6;" horiz-adv-x="614" 
d="M399 1188l-73 192l-146 -192h-49l174 225h49l92 -225h-47z" />
    <glyph glyph-name="caron" unicode="&#x2c7;" horiz-adv-x="614" 
d="M487 1413l-174 -225h-49l-92 225h47l74 -192l145 192h49z" />
    <glyph glyph-name="breve" unicode="&#x2d8;" horiz-adv-x="614" 
d="M477 1413h37q-24 -116 -82 -181t-147 -65q-88 0 -123.5 63.5t-18.5 182.5h37q-13 -109 15.5 -156t97.5 -47q68 0 115 53t69 150z" />
    <glyph glyph-name="dotaccent" unicode="&#x2d9;" horiz-adv-x="614" 
d="M313 1337q15 0 25 -10t10 -24q0 -21 -14 -34.5t-33 -13.5q-15 0 -25 10.5t-10 24.5q0 21 14 34t33 13z" />
    <glyph glyph-name="ring" unicode="&#x2da;" horiz-adv-x="614" 
d="M330 1425q46 0 76 -27.5t30 -72.5q0 -68 -45 -111t-106 -43q-46 0 -76.5 28t-30.5 73q0 68 45.5 110.5t106.5 42.5zM322 1382q-42 0 -69.5 -30.5t-27.5 -71.5q0 -29 17.5 -47.5t50.5 -18.5q41 0 68.5 31t27.5 72q0 29 -17 47t-50 18z" />
    <glyph glyph-name="ogonek" unicode="&#x2db;" horiz-adv-x="614" 
d="M350 27l19 -27q-154 -77 -230 -157t-76 -175q0 -84 80 -84q69 0 144 64l-8 -47q-67 -58 -152 -58q-48 0 -79.5 29t-31.5 90q0 101 84 196.5t250 168.5z" />
    <glyph glyph-name="tilde" unicode="&#x2dc;" horiz-adv-x="614" 
d="M201 1374q44 0 121 -26q65 -23 92 -23q34 0 39 41h41q-2 -40 -22.5 -62t-57.5 -22q-42 0 -121 27q-62 22 -92 22q-34 0 -39 -41h-41q2 40 22.5 62t57.5 22z" />
    <glyph glyph-name="hungarumlaut" unicode="&#x2dd;" horiz-adv-x="614" 
d="M195 1188h-39l163 225h58zM399 1188h-39l164 225h58z" />
    <glyph glyph-name="uni0326" unicode="&#x326;" horiz-adv-x="0" 
d="M356 -111l-118 -215h-37l100 222h55v-7z" />
    <glyph glyph-name="Wgrave" unicode="&#x1e80;" horiz-adv-x="1685" 
d="M1028 1507l-96 193h53l80 -193h-37zM1845 1413l-633 -1413h-53l-143 1348l-647 -1348h-56l-106 1413h45l98 -1356l637 1336h68l141 -1332l602 1352h47z" />
    <glyph glyph-name="wgrave" unicode="&#x1e81;" horiz-adv-x="1468" 
d="M819 1188l-102 225h53l86 -225h-37zM1530 1077l-533 -1077h-59l-127 1032l-489 -1032h-64l-143 1077h45l135 -1034l487 1030h66l129 -1024l502 1028h51z" />
    <glyph glyph-name="Wacute" unicode="&#x1e82;" horiz-adv-x="1685" 
d="M1061 1507h-39l141 193h58zM1845 1413l-633 -1413h-53l-143 1348l-647 -1348h-56l-106 1413h45l98 -1356l637 1336h68l141 -1332l602 1352h47z" />
    <glyph glyph-name="wacute" unicode="&#x1e83;" horiz-adv-x="1468" 
d="M846 1188h-39l164 225h57zM1530 1077l-533 -1077h-59l-127 1032l-489 -1032h-64l-143 1077h45l135 -1034l487 1030h66l129 -1024l502 1028h51z" />
    <glyph glyph-name="Wdieresis" unicode="&#x1e84;" horiz-adv-x="1685" 
d="M983 1563q-15 0 -24 9t-9 23q0 20 15 35t34 15q15 0 24 -9.5t9 -23.5q0 -20 -15 -34.5t-34 -14.5zM1126 1563q-15 0 -23.5 9t-8.5 23q0 20 15 35t34 15q15 0 24 -9.5t9 -23.5q0 -20 -15.5 -34.5t-34.5 -14.5zM1845 1413l-633 -1413h-53l-143 1348l-647 -1348h-56
l-106 1413h45l98 -1356l637 1336h68l141 -1332l602 1352h47z" />
    <glyph glyph-name="wdieresis" unicode="&#x1e85;" horiz-adv-x="1468" 
d="M760 1255q-15 0 -24 9.5t-9 23.5q0 20 15 34.5t34 14.5q15 0 24 -9t9 -23q0 -20 -15 -35t-34 -15zM924 1255q-15 0 -24 9.5t-9 23.5q0 20 15 34.5t34 14.5q15 0 24 -9t9 -23q0 -20 -15 -35t-34 -15zM1530 1077l-533 -1077h-59l-127 1032l-489 -1032h-64l-143 1077h45
l135 -1034l487 1030h66l129 -1024l502 1028h51z" />
    <glyph glyph-name="Ygrave" unicode="&#x1ef2;" horiz-adv-x="1116" 
d="M723 1507l-96 193h53l80 -193h-37zM596 553l-98 -553h-45l98 555l-350 858h49l332 -809l612 809h59z" />
    <glyph glyph-name="ygrave" unicode="&#x1ef3;" horiz-adv-x="966" 
d="M563 1188l-102 225h53l86 -225h-37zM1028 1077l-618 -1077q-78 -138 -140 -225.5t-114 -131.5t-92.5 -58.5t-90.5 -14.5q-36 0 -63 8l6 39q27 -6 61 -6q80 0 156 70.5t186 257.5l31 51l-235 1087h49l221 -1036l590 1036h53z" />
    <glyph glyph-name="endash" unicode="&#x2013;" horiz-adv-x="1024" 
d="M877 573h-738l8 43h738z" />
    <glyph glyph-name="emdash" unicode="&#x2014;" horiz-adv-x="2048" 
d="M1901 573h-1762l8 43h1762z" />
    <glyph glyph-name="quoteleft" unicode="&#x2018;" horiz-adv-x="366" 
d="M211 1016l190 489h41l-184 -499h-47v10z" />
    <glyph glyph-name="quoteright" unicode="&#x2019;" horiz-adv-x="366" 
d="M367 1495l-191 -489h-41l184 499h48v-10z" />
    <glyph glyph-name="quotesinglbase" unicode="&#x201a;" horiz-adv-x="260" 
d="M2 39l-154 -277h-43l146 287h51v-10z" />
    <glyph glyph-name="quotedblleft" unicode="&#x201c;" horiz-adv-x="550" 
d="M211 1016l190 489h41l-184 -499h-47v10zM395 1016l191 489h41l-185 -499h-47v10z" />
    <glyph glyph-name="quotedblright" unicode="&#x201d;" horiz-adv-x="550" 
d="M367 1495l-191 -489h-41l184 499h48v-10zM551 1495l-191 -489h-41l185 499h47v-10z" />
    <glyph glyph-name="quotedblbase" unicode="&#x201e;" horiz-adv-x="444" 
d="M2 39l-154 -277h-43l146 287h51v-10zM186 39l-153 -277h-43l145 287h51v-10z" />
    <glyph glyph-name="dagger" unicode="&#x2020;" horiz-adv-x="1228" 
d="M1020 825l-383 2l-201 -1155h-49l201 1155l-383 -2l8 47l383 -2l94 543h53l-98 -543l383 2z" />
    <glyph glyph-name="daggerdbl" unicode="&#x2021;" horiz-adv-x="1228" 
d="M639 827l-102 -573l383 2l-9 -47l-381 2l-94 -539h-49l94 539l-385 -2l8 47l383 -2l103 573l-385 -2l8 47l383 -2l94 543h53l-98 -543l383 2l-8 -47z" />
    <glyph glyph-name="bullet" unicode="&#x2022;" horiz-adv-x="356" 
d="M195 717q35 0 56 -20.5t21 -53.5q0 -45 -33 -78t-77 -33q-35 0 -56.5 20.5t-21.5 53.5q0 45 33 78t78 33z" />
    <glyph glyph-name="ellipsis" unicode="&#x2026;" horiz-adv-x="669" 
d="M-2 53q17 0 27 -10.5t10 -24.5q0 -21 -13.5 -34t-31.5 -13q-17 0 -27 10.5t-10 24.5q0 21 13.5 34t31.5 13zM203 53q17 0 27 -10.5t10 -24.5q0 -21 -13.5 -34t-31.5 -13q-17 0 -27 10.5t-10 24.5q0 21 13.5 34t31.5 13zM408 53q16 0 26 -10.5t10 -24.5q0 -21 -13.5 -34
t-31.5 -13q-17 0 -27 10.5t-10 24.5q0 21 14 34t32 13z" />
    <glyph glyph-name="perthousand" unicode="&#x2030;" horiz-adv-x="2045" 
d="M461 791q-103 0 -163 73.5t-60 190.5q0 64 20 130.5t57.5 124.5t100 95t137.5 37q103 0 163 -73.5t60 -190.5q0 -64 -20 -130.5t-57.5 -124.5t-100 -95t-137.5 -37zM1350 1413l-1162 -1413h-57l1161 1413h58zM547 1399q-65 0 -117 -33t-82.5 -85.5t-46.5 -111t-16 -114.5
q0 -103 48 -162t134 -59q65 0 117 33t82.5 85.5t46.5 111t16 114.5q0 103 -48 162t-134 59zM1028 623q103 0 163 -73.5t60 -191.5q0 -64 -20 -130.5t-57.5 -124.5t-100 -95t-137.5 -37q-103 0 -163 73.5t-60 191.5q0 64 20 130.5t57.5 124.5t100 95t137.5 37zM1642 623
q103 0 163.5 -74t60.5 -191q0 -64 -20.5 -130.5t-58 -124.5t-100 -95t-137.5 -37q-103 0 -163 73.5t-60 191.5q0 64 20 130.5t57.5 124.5t100 95t137.5 37zM942 14q65 0 117 33t82.5 85.5t46.5 111t16 114.5q0 103 -48 162.5t-134 59.5q-65 0 -117 -33t-82.5 -85.5
t-46.5 -111t-16 -114.5q0 -103 48 -162.5t134 -59.5zM1556 14q52 0 97 22t74.5 58t51 81.5t31 92t9.5 90.5q0 103 -48.5 162.5t-134.5 59.5q-65 0 -117 -33t-82.5 -85.5t-46.5 -111t-16 -114.5q0 -103 48 -162.5t134 -59.5z" />
    <glyph glyph-name="guilsinglleft" unicode="&#x2039;" horiz-adv-x="688" 
d="M258 504l217 -336h-55l-221 340l340 340h63z" />
    <glyph glyph-name="guilsinglright" unicode="&#x203a;" horiz-adv-x="688" 
d="M477 508l-340 -340h-63l344 344l-217 336h55z" />
    <glyph glyph-name="fraction" unicode="&#x2044;" horiz-adv-x="681" 
d="M-182 0h-58l1162 1413h57z" />
    <glyph glyph-name="Euro" unicode="&#x20ac;" 
d="M811 1442q113 0 184.5 -28.5t128.5 -94.5l-34 -31q-55 61 -121 86t-168 25t-188 -44.5t-147.5 -124t-104 -176t-70.5 -212.5h686l-31 -43h-663q-23 -114 -27 -183h629l-25 -43h-608q-4 -78 -4 -114q0 -445 403 -445q145 0 301 86l-8 -53q-148 -76 -309 -76
q-208 0 -321 120.5t-113 365.5q0 34 4 116h-180l26 43h158q6 93 24 183h-118l28 43h101q23 98 55.5 183t81.5 163t110 133.5t143 88t177 32.5z" />
    <glyph glyph-name="trademark" unicode="&#x2122;" horiz-adv-x="1058" 
d="M297 1313l-68 -379h-45l68 379h-172l6 39h389l-6 -39h-172zM944 1350l-74 -416h-41l72 379l-213 -375h-49l-78 373l-63 -377h-41l73 416h64l78 -375l211 375h61z" />
    <glyph glyph-name="partialdiff" unicode="&#x2202;" 
d="M680 1552q342 0 342 -516q0 -215 -37 -405t-107 -338.5t-181.5 -235t-250.5 -86.5q-153 0 -242 99t-89 258q0 63 12 129.5t36.5 135.5t66.5 130t96.5 109t132 76t168.5 28q120 0 207.5 -57t119.5 -144q21 156 21 299q0 236 -73 355.5t-236 119.5q-84 0 -154.5 -23.5
t-144.5 -78.5l-23 33q154 112 336 112zM455 14q120 0 220 84.5t166.5 228t100.5 330.5q-10 62 -43 109.5t-79 74t-96 39.5t-103 13q-99 0 -179.5 -38t-131 -97t-85.5 -136t-49 -150.5t-14 -143.5q0 -147 80.5 -230.5t212.5 -83.5z" />
    <glyph glyph-name="emptyset" unicode="&#x2205;" horiz-adv-x="1716" 
d="M1577 1415l-172 -172q94 -102 146.5 -234.5t52.5 -281.5q0 -159 -60 -300.5t-160.5 -241t-238 -158t-287.5 -58.5q-148 0 -282 55t-236 154l-170 -170l-31 31l172 172q-94 102 -146 234.5t-52 281.5q0 159 59.5 300.5t160.5 241.5t238 158t287 58q148 0 282 -55t236 -154
l170 170zM162 727q0 -140 47.5 -263.5t134.5 -219.5l999 999q-96 95 -221.5 147t-263.5 52q-140 0 -268 -55t-222 -149t-150 -227.5t-56 -283.5zM858 12q140 0 268 55t222 149t150 227.5t56 283.5q0 140 -47.5 263.5t-134.5 219.5l-999 -999q96 -95 221.5 -147t263.5 -52z
" />
    <glyph glyph-name="product" unicode="&#x220f;" 
d="M1143 1370h-115l-283 -1595h-45l283 1595h-590l-282 -1595h-45l282 1595h-115l9 43h909z" />
    <glyph glyph-name="summation" unicode="&#x2211;" 
d="M1153 1370h-831l395 -756l-729 -796h903l-8 -43h-961l8 41l729 800l-393 756l8 41h887z" />
    <glyph glyph-name="minus" unicode="&#x2212;" horiz-adv-x="1087" 
d="M967 629h-820l9 43h819z" />
    <glyph glyph-name="radical" unicode="&#x221a;" 
d="M1196 1597l-786 -1925h-70l-109 920h-135l8 43h168l107 -928l770 1890h47z" />
    <glyph glyph-name="infinity" unicode="&#x221e;" horiz-adv-x="2039" 
d="M1602 1114q178 0 282.5 -126t104.5 -326q0 -88 -21.5 -181t-69 -185t-114.5 -164t-166.5 -116.5t-216.5 -44.5q-184 0 -284.5 117t-112.5 348q-87 -228 -233.5 -346.5t-332.5 -118.5q-178 0 -282.5 125t-104.5 324q0 88 21.5 181.5t69 186t114.5 164.5t166.5 117
t216.5 45q184 0 284.5 -116.5t112.5 -346.5q80 224 230 343.5t336 119.5zM995 543q5 115 -13 207t-51.5 151t-82 98t-102 55.5t-115.5 16.5q-100 0 -187.5 -40t-149.5 -106t-106.5 -150.5t-66 -174.5t-21.5 -176q0 -191 100.5 -300.5t245.5 -109.5q61 0 123.5 18t127 59.5
t120 101.5t103 150t75.5 200zM1409 14q100 0 187.5 39.5t149 105t106 149.5t66 173.5t21.5 175.5q0 193 -100.5 303.5t-245.5 110.5q-61 0 -123.5 -18t-127 -59t-120.5 -101t-103 -150t-75 -200q-5 -115 12.5 -207t51.5 -151t82.5 -98.5t102.5 -56t116 -16.5z" />
    <glyph glyph-name="integral" unicode="&#x222b;" 
d="M748 1544q69 0 108 -57l-33 -29q-35 43 -84 43q-82 0 -136 -102.5t-54 -296.5q0 -199 26 -488q29 -326 29 -485q0 -457 -250 -457q-66 0 -106 58l31 28q38 -43 86 -43q87 0 139.5 100t52.5 312q0 130 -29 475q-26 301 -26 500q0 226 69 334t177 108z" />
    <glyph glyph-name="approxequal" unicode="&#x2248;" 
d="M381 903q50 0 91.5 -16t117.5 -60q72 -41 107.5 -54t82.5 -13q70 0 119 28t107 99l26 -25q-107 -145 -260 -145q-50 0 -91.5 16t-119.5 60q-70 41 -105.5 54t-82.5 13q-70 0 -119 -28t-109 -99l-26 25q110 145 262 145zM315 535q50 0 91.5 -16t119.5 -60
q71 -41 106.5 -54.5t82.5 -13.5q70 0 118.5 28t108.5 99l27 -24q-111 -146 -262 -146q-50 0 -91.5 16t-117.5 60q-73 41 -108.5 54.5t-82.5 13.5q-70 0 -118 -28t-107 -99l-27 24q108 146 260 146z" />
    <glyph glyph-name="notequal" unicode="&#x2260;" 
d="M684 813l-248 -326h527l-9 -43h-551l-178 -233h-49l178 233h-260l8 43h285l248 326h-475l8 43h500l178 236h49l-178 -236h311l-8 -43h-336z" />
    <glyph glyph-name="lessequal" unicode="&#x2264;" 
d="M1001 893l-819 -330l705 -330l-10 -49l-756 359l8 41l883 358zM33 43h819l-8 -43h-819z" />
    <glyph glyph-name="greaterequal" unicode="&#x2265;" 
d="M948 584l-8 -41l-883 -359l11 49l819 330l-705 330l11 49zM33 43h819l-8 -43h-819z" />
    <glyph glyph-name="lozenge" unicode="&#x25ca;" horiz-adv-x="1040" 
d="M885 707l-467 -707h-45l-217 707l467 706h45zM836 707l-201 655l-430 -655l198 -658z" />
    <glyph glyph-name="a.alt" horiz-adv-x="1118" 
d="M1067 1077l-188 -1077h-45l43 244l-78 -121q-88 -86 -167.5 -119t-199.5 -33q-177 0 -279 121.5t-102 315.5q0 131 39.5 254.5t111.5 223t184.5 160t246.5 60.5q119 0 188.5 -36t122.5 -122l35 -119l43 248h45zM920 487l20 123q12 77 11 145t-23 124.5t-59.5 97.5
t-99.5 63.5t-142 22.5q-97 0 -182 -36.5t-148 -99.5t-108 -146t-68 -178t-23 -193q0 -176 90.5 -286t253.5 -110q66 0 125.5 15t116.5 50.5t102 89t80.5 134.5t53.5 184z" />
    <glyph glyph-name="braceleft.001" horiz-adv-x="587" 
d="M737 1597l-8 -43h-37q-49 0 -87 -9.5t-64.5 -25t-46 -43t-31 -55.5t-18.5 -70.5t-10 -80t-5 -92.5q0 -4 -1 -11q-8 -187 -29 -263q-40 -145 -163 -182l-18 -5q119 -32 119 -166q0 -49 -14 -110t-54 -177q-38 -108 -49.5 -155t-11.5 -93q0 -74 48.5 -105.5t139.5 -31.5h37
l-8 -43h-35q-106 0 -167.5 45t-61.5 135q0 45 14.5 100t54.5 169q60 168 60 264q0 59 -32 98.5t-103 46.5l8 45q43 4 76.5 20t55.5 35.5t38 55t24.5 64t14 77.5t7 79.5t3.5 86.5q2 63 5.5 108.5t13 94.5t23.5 82.5t38 64.5t56.5 49.5t78.5 29.5t104 11h35z" />
    </font>
</defs>
</svg>
